osu file format v9

[General]
AudioFilename: Egao no Wake.mp3
AudioLeadIn: 0
PreviewTime: 61056
Countdown: 0
SampleSet: Soft
StackLeniency: 0.7
Mode: 0
LetterboxInBreaks: 1

[Editor]
DistanceSpacing: 1
BeatDivisor: 4
GridSize: 8

[Metadata]
Title:Egao no Wake (TV Size)
Artist:Hikita Kaori
Creator:eveless
Version:Easy
Source:Syounen Onmyouji
Tags:Yuki Kajiura

[Difficulty]
HPDrainRate:3
CircleSize:3
OverallDifficulty:2
ApproachRate:4
SliderMultiplier:0.8
SliderTickRate:0.5

[Events]
//Background and Video events
0,0,"2008819152842_617.jpg"
//Break Periods
//Storyboard Layer 0 (Background)
//Storyboard Layer 1 (Fail)
//Storyboard Layer 2 (Pass)
//Storyboard Layer 3 (Foreground)
//Storyboard Sound Samples
//Background Colour Transformations
3,100,163,162,255

[TimingPoints]
9320,359.281437125748,6,2,1,70,1,0
26565,-200,6,2,1,70,0,0
28541,-100,6,2,1,70,0,0
58900,-100,6,2,1,80,0,0
61056,-100,6,2,1,90,0,1
86924,-100,6,2,1,90,0,0
91595,-100,6,2,1,59,0,0

[Colours]
Combo1 : 252,177,78
Combo2 : 177,236,79
Combo3 : 227,112,248
Combo4 : 240,5,5

[HitObjects]
168,80,9320,2,0,B|344:80,1,160,4|8
312,160,10397,2,0,B|488:160,1,160,0|8
472,240,11475,2,0,B|296:240,1,160,0|8
232,240,12553,2,0,B|136:240,2,80,8|0|8
256,320,13631,6,0,B|80:320,1,160,4|8
16,320,14709,2,0,B|16:152,1,160,0|8
16,80,15787,2,0,B|176:80,1,160,0|8
256,80,16864,2,0,B|352:80,2,80,8|4|8
256,160,17942,6,0,B|256:256|184:296,1,160,4|8
104,296,19020,2,0,B|33:257|33:161,1,160,0|8
72,88,20098,2,0,B|136:48|232:80,1,160,0|8
256,152,21176,2,0,B|320:200|408:184,1,160,0|8
432,256,22254,6,0,B|320:296|184:248,2,240,4|4|4
256,192,24499,12,0,26565
64,192,28721,6,0,B|232:184,1,160,4|2
224,272,29799,2,0,B|392:256,1,160,0|2
400,336,30876,6,0,B|232:352,1,160,0|2
120,352,32134,2,0,B|48:296,2,80,0|2|0
144,320,33032,6,0,B|112:240|128:152,1,160,0|2
64,112,34110,2,0,B|112:56|192:88|200:136,1,160,0|2
248,192,35188,2,0,B|328:208|416:184,2,160,0|2|2
256,272,36984,2,0,B|216:288,1,40,0|2
248,312,37343,6,0,B|112:312,4,120,4|2|0|2|0
328,304,39858,2,0,B|352:128,1,160,2|0
312,144,40757,2,0,B|288:64,1,80,2|0
264,104,41296,2,0,B|192:64,1,80,2|0
160,184,42194,6,0,B|56:320,1,160,0|2
128,360,43272,2,0,B|176:352,3,40,0|2|0|2
256,272,44349,2,0,B|328:208,1,80,0|2
344,192,44888,2,0,B|264:176,2,80,0|2|0
424,200,45966,6,0,B|448:288|392:352,1,160,4|2
312,336,47044,2,0,B|288:248|344:184,1,160,0|2
424,200,48122,6,0,B|448:288|392:352,1,160,0|2
312,336,49200,2,0,B|288:248|344:184,1,160,0|2
352,104,50278,6,0,B|272:96|184:104,1,160,0|2
176,184,51355,2,0,B|88:192|8:184,1,160,0|2
8,264,52433,6,0,B|104:256|184:280,1,160,0|2
160,352,53511,2,0,B|240:360|328:352,1,160,0|2
400,352,54589,5,4
416,232,55128,1,2
392,112,55667,1,2
336,56,56026,2,0,B|296:80|256:72,1,80,0|2
184,48,56745,6,0,B|112:96|112:192,1,160,4|2
192,176,57822,2,0,B|232:232|208:296,1,120,0|2
184,320,58541,1,2
256,288,58900,5,4
328,320,59260,1,0
408,296,59619,1,4
432,224,59978,2,0,B|432:144|352:80,1,160,4|0
328,160,61056,6,0,B|208:152,2,120,4|2|0
328,240,62493,2,0,B|248:264,1,80,2|2
176,280,63212,6,0,B|56:224,2,120,0|2|0
240,328,64649,2,0,B|320:288,1,80,2|0
384,256,65367,6,0,B|416:128,2,120,0|2|0
320,208,66805,1,2
240,224,67164,2,0,B|192:216,1,40,2|2
160,216,67523,6,0,B|120:88,2,120,0|2|0
104,280,68960,1,2
264,320,69679,6,0,B|384:288,2,120,4|2|0
280,240,71116,2,0,B|264:152,1,80,2|0
256,80,71834,6,0,B|136:80,2,120,0|2|0
296,152,73272,2,0,B|384:152,1,80,2|0
368,232,73990,6,0,B|352:272|312:288|256:280|240:224,1,160,0|2
160,232,75068,1,0
80,232,75427,2,0,B|64:152,1,80,2|0
56,72,76146,6,0,B|192:72,2,120,4|2|0
73,150,77583,2,0,B|170:161,1,80,4|2
208,216,78302,6,0,B|248:296,1,80,4|2
320,288,79020,2,0,B|360:216,1,80,0|2
440,224,79739,2,0,B|480:304,1,80,0|2
400,320,80457,6,0,B|320:344,1,80,0|2
257,297,81176,2,0,B|161:305,1,80,0|2
176,224,81894,2,0,B|88:192,1,80,0|2
80,120,82613,5,4
256,280,83691,1,2
432,192,84589,1,0
432,192,84769,6,0,B|392:112|304:112,1,160,4|0
264,120,85667,1,2
232,144,85846,2,0,B|160:192|64:192,1,160
16,144,86924,5,4
256,192,87014,12,0,91236
128,192,91595,6,0,B|288:192,1,160,0|2
216,288,92852,2,0,B|352:288,1,120,0|4
384,56,94469,2,0,B|208:56,1,160,4|2
144,56,95547,5,4
