osu file format v12

[General]
AudioFilename: ShingekiED.mp3
AudioLeadIn: 2000
PreviewTime: 58748
Countdown: 0
SampleSet: Soft
StackLeniency: 0.7
Mode: 0
LetterboxInBreaks: 0

[Editor]
Bookmarks: 14277
DistanceSpacing: 1
BeatDivisor: 4
GridSize: 4

[Metadata]
Title:Utsukushiki Zankoku na Sekai (TV Size)
TitleUnicode:美しき残酷な世界 (TV Size)
Artist:Hikasa Yoko
ArtistUnicode:日笠陽子
Creator:CXu
Version:Normal
Source:Shingeki no Kyojin
Tags:Attack on Titan MillhioreF ending Mikasa Ackerman Eren Jaeger 進撃の巨人
BeatmapID:250457
BeatmapSetID:92671

[Difficulty]
HPDrainRate:4
CircleSize:3
OverallDifficulty:4
ApproachRate:5
SliderMultiplier:1.5
SliderTickRate:2

[Events]
//Background and Video events
Video,0,"ShingekiED.avi"
0,0,"eren-jaeger-mikasa-ackerman.jpg",0,0
//Break Periods
//Storyboard Layer 0 (Background)
//Storyboard Layer 1 (Fail)
//Storyboard Layer 2 (Pass)
//Storyboard Layer 3 (Foreground)
//Storyboard Sound Samples
//Background Colour Transformations
3,100,163,162,255

[TimingPoints]
155,705.882352941176,4,2,1,10,1,0
860,-100,4,2,1,15,0,0
1566,-100,4,2,1,20,0,0
2272,-100,4,2,1,25,0,0
2978,-100,4,2,1,30,0,0
5802,-100,4,2,1,14,0,0
6507,-100,4,2,1,18,0,0
7213,-100,4,2,1,22,0,0
7919,-100,4,2,1,26,0,0
8625,-100,4,2,1,30,0,0
10743,-100,4,2,1,5,0,0
10919,-100,4,2,1,10,0,0
11449,-100,4,2,1,20,0,0
11625,-100,4,2,1,10,0,0
12154,-100,4,2,1,5,0,0
14272,-100,4,2,1,25,0,0
36860,-66.6666666666667,4,2,1,35,0,0
53802,-66.6666666666667,4,2,1,40,0,0
56625,-133.333333333333,4,2,1,30,0,0
57860,-66.6666666666667,4,2,1,30,0,0
58743,-66.6666666666667,4,2,1,50,0,0
59449,352.941176470588,4,2,1,50,1,1
84507,-100,4,2,1,50,0,0
84596,-100,4,2,1,35,0,0
85566,-100,4,2,1,30,0,0
86272,-100,4,2,1,35,0,0
86978,-100,4,2,1,45,0,0
87684,-100,4,2,1,40,0,0
87860,-100,4,2,1,30,0,0
88037,-100,4,2,1,20,0,0
88213,-100,4,2,1,10,0,0
88390,-100,4,2,1,5,0,0

[Colours]
Combo1 : 85,85,43
Combo2 : 120,120,120
Combo3 : 192,192,192
Combo4 : 185,185,115

[HitObjects]
196,252,155,2,0,L|167:280,2,37.5,2|0|2,0:0|0:0|0:0,0:0:0:0:
196,132,860,2,0,L|167:103,2,37.5,2|0|2,0:0|0:0|0:0,0:0:0:0:
316,132,1566,2,0,L|344:103,2,37.5,2|0|2,0:0|0:0|0:0,0:0:0:0:
316,252,2272,2,0,L|344:280,2,37.5,2|0|2,0:0|0:0|0:0,0:0:0:0:
212,192,2978,6,0,L|132:192,1,75,2|0,0:0|0:0,0:0:0:0:
100,192,3507,1,2,0:0:0:0:
96,76,5802,38,0,P|112:64|140:56,2,37.5,2|0|2,0:0|0:0|0:0,0:0:0:0:
208,88,6507,2,0,P|227:89|254:100,2,37.5,2|0|2,0:0|0:0|0:0,0:0:0:0:
286,169,7213,2,0,P|300:182|313:208,2,37.5,2|0|2,0:0|0:0|0:0,0:0:0:0:
291,280,7919,2,0,P|293:299|286:328,2,37.5,2|0|2,0:0|0:0|0:0,0:0:0:0:
196,216,8625,5,2,0:0:0:0:
112,288,8978,1,2,0:0:0:0:
28,216,9331,2,0,L|24:176,1,37.5,2|0,0:0|0:0,0:0:0:0:
28,140,9684,1,2,0:0:0:0:
116,68,10037,38,0,B|180:4|256:68|332:132|396:68,2,300,2|2|0,0:0|0:0|0:0,0:0:0:0:
60,192,14272,5,0,0:0:0:0:
132,280,14625,1,2,0:0:0:0:
132,280,14978,2,0,P|188:308|248:296,1,112.5,2|2,0:0|0:0,0:0:0:0:
336,248,15860,37,0,0:0:0:0:
336,248,16037,2,0,P|384:200|380:112,1,150,2|0,0:0|0:0,0:0:0:0:
276,152,17096,2,0,P|210:169|136:122,1,150,2|0,0:0|0:0,0:0:0:0:
80,36,18154,1,0,0:0:0:0:
20,132,18507,1,2,0:0:0:0:
208,256,19213,5,0,0:0:0:0:
320,276,19566,2,0,L|376:256,2,37.5,2|0|2,0:0|0:0|0:0,0:0:0:0:
288,168,20272,2,0,L|236:168,1,37.5,0|2,0:0|0:0,0:0:0:0:
124,280,20978,1,0,0:0:0:0:
124,280,21154,2,0,P|80:244|64:164,1,112.5,2|0,0:0|0:0,0:0:0:0:
84,84,22037,37,2,0:0:0:0:
192,52,22390,1,0,0:0:0:0:
300,76,22743,1,2,0:0:0:0:
364,168,23096,1,0,0:0:0:0:
364,168,23272,2,0,P|376:232|344:300,1,112.5,0|2,0:0|0:0,0:0:0:0:
268,336,24154,6,0,P|144:332|68:184,1,300,2|0,0:0|0:0,0:0:0:0:
96,80,25919,37,2,0:0:0:0:
204,112,26272,2,0,P|272:112|308:92,1,75,2|0,0:0|0:0,0:0:0:0:
312,96,26802,1,2,0:0:0:0:
404,32,27154,1,0,0:0:0:0:
404,32,27331,2,0,P|436:68|440:124,1,75,2|2,0:0|0:0,0:0:0:0:
436,204,28037,6,0,L|412:256,1,37.5,0|2,0:0|0:0,0:0:0:0:
328,304,28566,2,0,L|276:324,1,37.5,0|2,0:0|0:0,0:0:0:0:
180,336,29096,1,2,0:0:0:0:
88,272,29449,1,0,0:0:0:0:
60,164,29802,1,2,0:0:0:0:
256,56,30507,38,0,L|256:140,1,75,2|0,0:0|0:0,0:0:0:0:
304,232,31213,2,0,P|348:256|444:204,1,150,2|0,0:0|0:0,0:0:0:0:
360,140,32272,2,0,P|260:136|200:244,1,225,2|2,0:0|0:0,0:0:0:0:
384,364,34037,5,2,0:0:0:0:
384,364,34390,2,0,P|420:340|432:296,1,75,2|0,0:0|0:0,0:0:0:0:
492,216,35096,2,0,P|489:172|457:140,1,75,0|2,0:0|0:0,0:0:0:0:
256,48,36860,38,0,P|204:96|196:160,1,112.500004291535,8|2,0:0|0:0,0:0:0:0:
81,134,37566,2,0,P|96:203|147:241,1,112.500004291535,8|2,0:0|0:0,0:0:0:0:
236,228,38272,2,0,L|260:364,1,112.500004291535,8|2,0:0|0:0,0:0:0:0:
368,360,38978,2,0,L|344:224,1,112.500004291535,8|2,0:0|0:0,0:0:0:0:
320,140,39684,6,0,P|352:88|408:64,1,112.500004291535,8|2,0:0|0:0,0:0:0:0:
504,96,40390,2,0,P|472:148|416:172,1,112.500004291535,8|2,0:0|0:0,0:0:0:0:
320,140,41096,2,0,P|276:112|204:108,1,112.500004291535,8|2,0:0|0:0,0:0:0:0:
137,185,41802,2,0,P|181:213|240:219,1,112.500004291535,8|2,0:0|0:0,0:0:0:0:
340,272,42507,38,0,P|344:336|308:372,1,112.500004291535,8|2,0:0|0:0,0:0:0:0:
200,369,43213,2,0,P|169:335|173:271,1,112.500004291535,8|2,0:0|0:0,0:0:0:0:
256,192,43919,2,0,L|256:52,1,112.500004291535,8|2,0:0|0:0,0:0:0:0:
352,140,44625,2,0,P|256:192|160:140,2,225.000008583069,8|8|8,0:0|0:0|0:0,0:0:0:0:
376,28,46390,1,2,0:0:0:0:
460,100,46743,2,0,P|488:148|480:212,1,112.500004291535,8|2,0:0|0:0,0:0:0:0:
376,236,47449,2,0,P|348:284|356:348,1,112.500004291535,8|2,0:0|0:0,0:0:0:0:
464,324,48154,6,0,P|324:288|244:328,1,225.000008583069,8|8,0:0|0:0,0:0:0:0:
160,376,49213,1,2,0:0:0:0:
160,376,49390,2,0,P|116:324|108:212,1,168.750006437302,0|2,0:0|0:0,0:0:0:0:
212,192,50272,1,8,0:0:0:0:
296,268,50625,2,0,L|356:240,1,56.2500021457673,2|0,0:0|0:0,0:0:0:0:
396,144,51154,2,0,L|336:116,1,56.2500021457673,0|2,0:0|0:0,0:0:0:0:
244,68,51684,2,0,P|172:60|48:160,1,225.000008583069,8|8,0:0|0:0,0:0:0:0:
180,332,53096,37,8,0:0:0:0:
256,248,53449,1,2,0:0:0:0:
332,332,53802,2,0,P|404:332|430:306,1,112.500004291535,8|2,0:0|0:0,0:0:0:0:
452,196,54507,1,8,0:0:0:0:
404,92,54860,2,0,P|312:68|236:160,1,225.000008583069,2|2,0:0|0:0,0:0:0:0:
276,264,55919,2,0,P|184:288|108:196,1,225.000008583069,8|4,0:0|0:1,0:0:0:0:
256,60,57860,22,0,B|316:120|256:191|195:262|256:322,1,281.250010728836,0|2,1:0|1:2,0:0:0:0:
352,264,59096,1,8,1:2:0:0:
388,132,59449,6,0,P|461:171|488:236,2,150,4|2|0,0:0|0:0|1:0,0:0:0:0:
256,64,60507,1,2,0:0:0:0:
124,132,60860,1,0,0:0:0:0:
124,132,61213,2,0,P|50:171|24:236,2,150,2|0|10,0:0|1:0|0:0,0:0:0:0:
192,164,62096,2,0,P|257:197|320:164,1,150,0|0,1:0|0:0,0:0:0:0:
256,120,62625,2,0,L|256:284,2,150,2|0|2,0:0|1:0|0:0,0:0:0:0:
372,24,63684,38,0,P|416:16|460:32,2,75,0|0|2,0:0|1:0|0:0,0:0:0:0:
372,172,64390,2,0,P|368:220|388:256,2,75,2|0|8,1:2|0:0|1:2,0:0:0:0:
464,292,65096,6,0,P|388:340|312:320,1,150,4|2,0:0|0:0,0:0:0:0:
182,331,65801,2,0,P|126:339|50:291,1,150,0|2,1:0|0:0,0:0:0:0:
50,215,66331,2,0,P|128:168|236:232,1,225,8|10,0:0|0:0,0:0:0:0:
380,192,67213,37,0,1:0:0:0:
324,52,67566,1,10,0:0:0:0:
180,100,67919,2,0,P|128:100|56:24,2,150,4|2|0,0:1|0:0|1:0,0:0:0:0:
296,196,68978,1,2,0:0:0:0:
296,196,69154,2,0,P|196:240|80:216,1,225,8|10,0:0|0:0,0:0:0:0:
176,340,70037,2,0,P|336:296|416:188,1,300,8|6,0:0|0:0,0:0:0:0:
364,52,71096,5,2,0:0:0:0:
256,156,71449,1,0,1:0:0:0:
148,52,71801,2,0,P|104:128|112:192,2,150,2|0|10,0:0|0:0|0:0,0:0:0:0:
256,156,72860,2,0,L|256:320,1,150,0|10,1:0|0:0,0:0:0:0:
188,336,73390,38,0,P|257:309|324:336,1,150,0|0,1:0|0:0,0:0:0:0:
396,356,73919,2,0,P|456:304|416:96,1,300,2|2,0:0|0:0,0:0:0:0:
360,76,74801,1,8,0:0:0:0:
320,140,74978,2,0,P|284:172|228:164,2,75,2|0|0,0:0|1:0|0:0,0:0:0:0:
184,80,75684,5,0,1:0:0:0:
96,200,76037,1,2,1:2:0:0:
152,336,76390,2,0,P|216:352|288:304,2,150,4|2|0,0:0|0:0|1:0,0:0:0:0:
68,212,77448,1,2,0:0:0:0:
68,212,77625,2,0,P|100:152|256:144,1,225,8|10,2:2|0:0,0:0:0:0:
256,284,78507,1,0,1:0:0:0:
376,192,78860,1,10,0:0:0:0:
296,64,79213,38,0,P|216:28|136:36,2,150,4|2|0,0:0|0:0|1:0,0:0:0:0:
376,192,80272,1,2,0:0:0:0:
376,192,80448,2,0,P|360:292|244:336,1,225,8|10,0:0|0:0,0:0:0:0:
108,316,81331,1,0,1:0:0:0:
64,172,81684,1,10,0:0:0:0:
144,44,82037,6,0,L|368:44,2,225,4|4|0,0:0|0:0|1:2,0:0:0:0:
144,194,83448,2,0,L|368:194,2,225,4|4|4,0:0|0:0|0:1,0:0:0:0:
256,192,84684,12,0,88390,0:0:0:0:
