osu file format v12

[General]
AudioFilename: music.mp3
AudioLeadIn: 2500
PreviewTime: 58744
Countdown: 0
SampleSet: None
StackLeniency: 0.7
Mode: 3
LetterboxInBreaks: 0
SpecialStyle: 0
WidescreenStoryboard: 1

[Editor]
DistanceSpacing: 1.4
BeatDivisor: 4
GridSize: 4

[Metadata]
Title:Utsukushiki Zankoku na Sekai (TV Size)
TitleUnicode:美しき残酷な世界 (TV Size)
Artist:Hikasa Yoko
ArtistUnicode:日笠陽子
Creator:Banana
Version:7k Normal
Source:Shingeki no Kyojin
Tags:ending Attack on Titan Production I.G Eren Jaeger Mikasa Ackerman Armin Arlart WIT STUDIO
BeatmapID:316685
BeatmapSetID:124180

[Difficulty]
HPDrainRate:5
CircleSize:7
OverallDifficulty:5
ApproachRate:8
SliderMultiplier:1.8
SliderTickRate:2

[Events]
//Background and Video events
0,0,"mikasa o3o.jpg",0,0
Video,0,"yoko.flv"
//Break Periods
//Storyboard Layer 0 (Background)
//Storyboard Layer 1 (Fail)
//Storyboard Layer 2 (Pass)
//Storyboard Layer 3 (Foreground)
//Storyboard Sound Samples
//Background Colour Transformations
3,100,163,162,255

[TimingPoints]
156,705.882352941176,4,2,0,20,1,0
685,-100,4,2,0,25,0,0
1214,-100,4,2,0,30,0,0
1744,-100,4,2,0,35,0,0
2273,-100,4,2,0,40,0,0
11273,-100,4,2,0,20,0,0
11625,-100,4,2,0,40,0,0
14273,-100,4,2,0,30,0,0
24861,-100,4,2,0,25,0,0
25037,-100,4,2,0,20,0,0
25214,-100,4,2,0,15,0,0
25390,-100,4,2,0,10,0,0
25743,-100,4,2,0,30,0,0
36420,-100,4,2,0,40,0,0
36861,-100,4,2,1,40,0,0
37744,-100,4,2,0,40,0,0
37920,-100,4,2,1,40,0,0
43391,-100,4,2,0,40,0,0
43567,-100,4,2,1,40,0,0
49038,-100,4,2,0,40,0,0
49214,-100,4,2,1,40,0,0
54685,-100,4,2,0,40,0,0
54861,-100,4,2,1,40,0,0
55920,-100,4,2,0,40,0,0
56626,-100,4,2,1,40,0,0
57861,-100,4,2,1,50,0,0
58391,-100,4,2,0,50,0,0
58567,-100,4,2,1,50,0,0
59450,-100,4,2,1,60,0,1
63685,-100,4,2,0,60,0,1
63861,-100,4,2,1,60,0,1
69597,-100,4,2,1,35,0,1
70038,-100,4,2,1,60,0,1
70567,-100,4,2,1,40,0,0
70744,-100,4,2,1,60,0,1
75597,-100,4,2,1,35,0,1
76391,-100,4,2,1,60,0,1
81332,-100,4,2,1,35,0,1
82038,-100,4,2,0,60,0,0
84597,-100,4,2,1,40,0,0
87950,-100,4,2,1,10,0,0

[Colours]
Combo1 : 255,66,66
Combo2 : 194,194,194
Combo3 : 58,58,58
Combo4 : 110,110,110
Combo5 : 90,0,181
Combo6 : 255,113,45

[HitObjects]
109,192,156,1,0,0:0:0:0:
182,192,332,1,0,0:0:0:0:
36,192,508,1,0,0:0:0:0:
256,192,685,1,0,0:0:0:0:
329,192,861,1,0,0:0:0:0:
182,192,1038,1,0,0:0:0:0:
329,192,1214,1,0,0:0:0:0:
402,192,1391,1,0,0:0:0:0:
256,192,1567,1,0,0:0:0:0:
402,192,1744,1,0,0:0:0:0:
475,192,1920,1,0,0:0:0:0:
329,192,2097,1,0,0:0:0:0:
475,192,2273,1,0,0:0:0:0:
36,192,2450,1,0,0:0:0:0:
402,192,2626,1,0,0:0:0:0:
109,192,2803,1,0,0:0:0:0:
182,192,2979,1,0,0:0:0:0:
256,192,2979,1,0,0:0:0:0:
36,192,3155,1,0,0:0:0:0:
475,192,3155,1,0,0:0:0:0:
402,192,3332,1,0,0:0:0:0:
329,192,3508,1,0,0:0:0:0:
402,192,5803,1,0,0:0:0:0:
182,192,5803,1,0,0:0:0:0:
329,192,5979,1,0,0:0:0:0:
475,192,6155,1,0,0:0:0:0:
109,192,6155,1,0,0:0:0:0:
329,192,6332,1,0,0:0:0:0:
256,192,6508,1,0,0:0:0:0:
36,192,6508,1,0,0:0:0:0:
402,192,6685,1,0,0:0:0:0:
256,192,6861,1,0,0:0:0:0:
182,192,7038,1,0,0:0:0:0:
329,192,7214,1,0,0:0:0:0:
109,192,7391,1,0,0:0:0:0:
36,192,7567,1,0,0:0:0:0:
182,192,7744,1,0,0:0:0:0:
329,192,7920,1,0,0:0:0:0:
475,192,8097,1,0,0:0:0:0:
402,192,8273,1,0,0:0:0:0:
256,192,8450,1,0,0:0:0:0:
109,192,8626,1,0,0:0:0:0:
475,192,8626,128,0,9332:0:0:0:0:
182,192,8979,1,0,0:0:0:0:
36,192,9332,1,0,0:0:0:0:
109,192,9508,1,0,0:0:0:0:
182,192,9685,1,0,0:0:0:0:
329,192,9685,1,0,0:0:0:0:
256,192,10038,1,0,0:0:0:0:
402,192,10038,1,0,0:0:0:0:
256,192,11450,1,0,0:0:0:0:
329,192,11450,1,0,0:0:0:0:
475,192,11450,1,0,0:0:0:0:
36,192,14273,1,0,0:0:0:0:
182,192,14273,1,0,0:0:0:0:
329,192,14626,1,0,0:0:0:0:
402,192,14979,1,0,0:0:0:0:
475,192,15332,1,0,0:0:0:0:
256,192,15685,1,0,0:0:0:0:
329,192,16038,1,0,0:0:0:0:
402,192,16391,1,0,0:0:0:0:
256,192,16391,1,0,0:0:0:0:
182,192,16744,1,0,0:0:0:0:
36,192,17097,1,0,0:0:0:0:
256,192,17097,1,0,0:0:0:0:
329,192,17450,1,0,0:0:0:0:
402,192,17803,1,0,0:0:0:0:
475,192,18155,1,0,0:0:0:0:
36,192,18508,1,0,0:0:0:0:
109,192,18553,1,0,0:0:0:0:
475,192,19214,1,0,0:0:0:0:
329,192,19214,1,0,0:0:0:0:
329,192,19920,1,0,0:0:0:0:
402,192,19964,1,0,0:0:0:0:
256,192,20273,1,0,0:0:0:0:
329,192,20626,1,0,0:0:0:0:
402,192,20979,1,0,0:0:0:0:
182,192,21332,1,0,0:0:0:0:
256,192,21685,1,0,0:0:0:0:
329,192,22038,1,0,0:0:0:0:
402,192,22391,1,0,0:0:0:0:
475,192,22744,1,0,0:0:0:0:
182,192,22744,1,0,0:0:0:0:
402,192,23097,1,0,0:0:0:0:
329,192,23450,1,0,0:0:0:0:
182,192,23803,1,0,0:0:0:0:
256,192,24155,1,0,0:0:0:0:
329,192,24332,1,0,0:0:0:0:
475,192,24508,1,0,0:0:0:0:
402,192,24685,1,0,0:0:0:0:
329,192,24861,1,0,0:0:0:0:
36,192,25038,1,0,0:0:0:0:
109,192,25214,1,0,0:0:0:0:
402,192,25214,1,0,0:0:0:0:
182,192,25391,1,0,0:0:0:0:
256,192,25567,1,0,0:0:0:0:
329,192,25567,1,0,0:0:0:0:
256,192,25920,1,0,0:0:0:0:
182,192,26273,1,0,0:0:0:0:
475,192,26626,1,0,0:0:0:0:
402,192,26979,1,0,0:0:0:0:
329,192,27332,1,0,0:0:0:0:
109,192,27685,1,0,0:0:0:0:
182,192,28038,1,0,0:0:0:0:
256,192,28391,1,0,0:0:0:0:
36,192,28391,1,0,0:0:0:0:
329,192,28744,1,0,0:0:0:0:
475,192,29097,1,0,0:0:0:0:
402,192,29450,1,0,0:0:0:0:
329,192,29803,1,0,0:0:0:0:
402,192,29847,1,0,0:0:0:0:
109,192,30508,1,0,0:0:0:0:
256,192,30508,1,0,0:0:0:0:
329,192,31214,1,0,0:0:0:0:
402,192,31258,1,0,0:0:0:0:
36,192,31567,1,0,0:0:0:0:
182,192,31920,1,0,0:0:0:0:
329,192,32273,1,0,0:0:0:0:
475,192,32626,1,0,0:0:0:0:
256,192,32626,1,0,0:0:0:0:
36,192,32626,1,0,0:0:0:0:
402,192,33332,1,0,0:0:0:0:
109,192,33332,1,0,0:0:0:0:
329,192,33685,1,0,0:0:0:0:
182,192,33685,1,0,0:0:0:0:
256,192,34038,1,0,0:0:0:0:
402,192,34082,1,0,0:0:0:0:
182,192,34391,1,0,0:0:0:0:
109,192,34744,1,0,0:0:0:0:
36,192,35097,1,0,0:0:0:0:
475,192,35450,1,0,0:0:0:0:
109,192,35979,1,2,0:0:0:0:
36,192,36155,1,2,0:0:0:0:
329,192,36332,1,2,0:0:0:0:
256,192,36508,1,2,0:0:0:0:
182,192,36508,1,2,0:0:0:0:
329,192,36861,1,8,0:0:0:0:
475,192,36861,1,8,0:0:0:0:
109,192,36861,1,0,0:0:0:0:
182,192,37214,1,0,0:0:0:0:
329,192,37567,1,8,0:0:0:0:
475,192,37567,1,8,0:0:0:0:
256,192,37744,1,2,0:0:0:0:
475,192,38273,1,8,0:0:0:0:
329,192,38273,1,8,0:0:0:0:
36,192,38626,1,0,0:0:0:0:
329,192,38979,1,8,0:0:0:0:
475,192,38979,1,8,0:0:0:0:
36,192,39332,1,0,0:0:0:0:
329,192,39685,1,8,0:0:0:0:
475,192,39685,1,8,0:0:0:0:
109,192,39685,1,0,0:0:0:0:
256,192,40038,1,0,0:0:0:0:
182,192,40391,1,8,0:0:0:0:
329,192,40391,128,0,41097:0:0:0:0:
475,192,41097,128,0,41803:0:0:0:0:
36,192,41097,1,8,0:0:0:0:
182,192,41803,1,8,0:0:0:0:
402,192,41803,128,0,42508:0:0:0:0:
36,192,42508,1,8,0:0:0:0:
329,192,42508,128,0,44626:0:0:0:0:
256,192,43214,1,8,0:0:0:0:
36,192,43214,1,8,0:0:0:0:
182,192,43391,1,2,0:0:0:0:
182,192,43920,1,8,0:0:0:0:
36,192,43920,1,8,0:0:0:0:
475,192,44273,1,0,0:0:0:0:
182,192,44626,1,8,0:0:0:0:
36,192,44626,1,8,0:0:0:0:
475,192,44979,1,0,0:0:0:0:
36,192,45332,1,8,0:0:0:0:
256,192,45332,1,8,0:0:0:0:
475,192,46038,1,8,0:0:0:0:
182,192,46038,1,8,0:0:0:0:
329,192,46214,1,0,0:0:0:0:
402,192,46391,128,0,47450:0:0:0:0:
36,192,46744,1,8,0:0:0:0:
256,192,46744,1,8,0:0:0:0:
256,192,47450,128,0,48155:0:0:0:0:
182,192,47450,1,8,0:0:0:0:
475,192,47803,1,0,0:0:0:0:
109,192,48155,128,0,50273:0:0:0:0:
36,192,48155,1,8,0:0:0:0:
329,192,48861,1,8,0:0:0:0:
182,192,48861,1,8,0:0:0:0:
402,192,49038,1,2,0:0:0:0:
329,192,49567,1,8,0:0:0:0:
475,192,49567,1,8,0:0:0:0:
36,192,49920,1,0,0:0:0:0:
329,192,50273,1,8,0:0:0:0:
182,192,50273,1,8,0:0:0:0:
36,192,50626,1,0,0:0:0:0:
475,192,50979,1,8,0:0:0:0:
109,192,50979,1,8,0:0:0:0:
36,192,51685,128,0,52391:0:0:0:0:
329,192,51685,1,8,0:0:0:0:
256,192,52391,128,0,53097:0:0:0:0:
475,192,52391,1,8,0:0:0:0:
109,192,52920,1,0,0:0:0:0:
475,192,53097,128,0,53803:0:0:0:0:
329,192,53097,1,8,0:0:0:0:
182,192,53803,1,8,0:0:0:0:
329,192,53803,1,8,0:0:0:0:
182,192,54508,1,8,0:0:0:0:
329,192,54508,1,8,0:0:0:0:
402,192,54685,1,2,0:0:0:0:
256,192,54861,128,0,55920:0:0:0:0:
36,192,55214,1,8,0:0:0:0:
182,192,55214,1,8,0:0:0:0:
329,192,55920,1,2,0:0:0:0:
475,192,56097,1,2,0:0:0:0:
329,192,56273,1,2,0:0:0:0:
402,192,56626,1,4,0:0:0:0:
109,192,56626,1,4,0:0:0:0:
109,192,57861,1,2,0:0:0:0:
329,192,58038,1,2,0:0:0:0:
36,192,58038,1,2,0:0:0:0:
182,192,58214,1,2,0:0:0:0:
402,192,58391,1,2,0:0:0:0:
475,192,58567,1,2,0:0:0:0:
256,192,58567,1,2,0:0:0:0:
182,192,58744,1,0,0:0:0:0:
329,192,58744,1,0,0:0:0:0:
402,192,59097,1,0,0:0:0:0:
256,192,59097,1,0,0:0:0:0:
36,192,59450,1,4,0:0:0:0:
182,192,59450,1,4,0:0:0:0:
36,192,59979,1,8,0:0:0:0:
182,192,59979,1,8,0:0:0:0:
256,192,60155,1,2,0:0:0:0:
36,192,60685,1,8,0:0:0:0:
182,192,60685,1,8,0:0:0:0:
329,192,60861,1,0,0:0:0:0:
256,192,61038,1,0,0:0:0:0:
475,192,61214,1,2,0:0:0:0:
402,192,61214,1,2,0:0:0:0:
329,192,61567,1,8,0:0:0:0:
182,192,61567,1,8,0:0:0:0:
109,192,61920,1,8,0:0:0:0:
402,192,62097,1,2,0:0:0:0:
36,192,62273,1,0,0:0:0:0:
182,192,62273,1,0,0:0:0:0:
329,192,62803,1,8,0:0:0:0:
256,192,62891,1,0,0:0:0:0:
36,192,62979,1,2,0:0:0:0:
182,192,62979,1,2,0:0:0:0:
402,192,63508,1,8,0:0:0:0:
329,192,63597,1,0,0:0:0:0:
182,192,63685,1,2,0:0:0:0:
36,192,63685,1,2,0:0:0:0:
256,192,63861,1,0,0:0:0:0:
329,192,64038,1,0,0:0:0:0:
109,192,64214,1,0,0:0:0:0:
182,192,64391,1,2,0:0:0:0:
402,192,64567,1,0,0:0:0:0:
329,192,64744,1,0,0:0:0:0:
182,192,64920,1,0,0:0:0:0:
256,192,65097,1,8,0:0:0:0:
36,192,65097,1,8,0:0:0:0:
402,192,65626,1,0,0:0:0:0:
36,192,65803,1,2,0:0:0:0:
182,192,65803,128,0,66508:0:0:0:0:
475,192,66332,1,0,0:0:0:0:
329,192,66508,128,0,67214:0:0:0:0:
109,192,66508,1,0,0:0:0:0:
256,192,66685,1,0,0:0:0:0:
402,192,66861,1,2,0:0:0:0:
475,192,67214,128,0,67920:0:0:0:0:
36,192,67214,1,0,0:0:0:0:
182,192,67567,1,2,0:0:0:0:
256,192,67744,1,0,0:0:0:0:
329,192,67920,1,2,0:0:0:0:
402,192,68450,1,8,0:0:0:0:
329,192,68538,1,0,0:0:0:0:
182,192,68626,1,2,0:0:0:0:
36,192,68626,1,2,0:0:0:0:
475,192,69155,1,8,0:0:0:0:
402,192,69244,1,0,0:0:0:0:
256,192,69332,1,2,0:0:0:0:
109,192,69332,1,2,0:0:0:0:
329,192,69508,1,8,0:3:0:0:
402,192,69685,1,8,0:3:0:0:
475,192,69861,1,8,0:3:0:0:
182,192,70038,1,8,0:3:0:0:
256,192,70214,1,8,0:3:0:0:
329,192,70391,1,8,0:3:0:0:
402,192,70567,1,8,0:0:0:0:
36,192,70744,1,4,0:0:0:0:
182,192,70744,1,4,0:0:0:0:
402,192,71273,1,8,0:0:0:0:
109,192,71450,1,2,0:0:0:0:
256,192,71450,1,2,0:0:0:0:
475,192,71979,1,2,0:3:0:0:
329,192,72155,1,0,0:0:0:0:
182,192,72155,1,0,0:0:0:0:
36,192,72332,1,0,0:0:0:0:
402,192,72508,1,2,0:3:0:0:
256,192,72508,1,2,0:0:0:0:
182,192,72861,128,0,73214:0:0:0:0:
36,192,72861,1,0,0:0:0:0:
109,192,73214,1,2,0:3:0:0:
329,192,73214,128,0,73567:0:0:0:0:
256,192,73391,1,0,0:0:0:0:
475,192,73567,128,0,74803:0:0:0:0:
402,192,73567,1,2,0:0:0:0:
402,192,74097,1,2,0:3:0:0:
256,192,74185,1,0,0:0:0:0:
109,192,74273,1,2,0:0:0:0:
36,192,74273,1,2,0:0:0:0:
36,192,74803,1,0,0:0:0:0:
109,192,74803,1,0,0:0:0:0:
402,192,74979,1,0,0:0:0:0:
182,192,75155,1,0,0:0:0:0:
475,192,75332,1,0,0:0:0:0:
256,192,75508,1,0,0:0:0:0:
36,192,75685,1,8,0:3:0:0:
109,192,75685,1,2,0:0:0:0:
329,192,75861,1,8,0:3:0:0:
402,192,75861,1,2,0:0:0:0:
109,192,76038,1,8,0:3:0:0:
182,192,76038,1,2,0:0:0:0:
402,192,76214,1,8,0:3:0:0:
475,192,76214,1,2,0:0:0:0:
182,192,76391,1,2,0:0:0:0:
256,192,76391,1,2,0:0:0:0:
402,192,76920,1,8,0:3:0:0:
36,192,77097,1,2,0:0:0:0:
329,192,77097,128,0,78508:0:0:0:0:
402,192,77450,1,0,0:0:0:0:
475,192,77626,1,8,0:3:0:0:
256,192,77803,1,2,0:0:0:0:
109,192,77803,1,2,0:0:0:0:
36,192,78155,1,0,0:0:0:0:
182,192,78332,1,0,0:0:0:0:
256,192,78508,128,0,80273:0:0:0:0:
329,192,78861,1,0,0:0:0:0:
402,192,79038,1,8,0:0:0:0:
182,192,79214,1,2,0:0:0:0:
36,192,79214,1,2,0:0:0:0:
402,192,79744,1,8,0:0:0:0:
329,192,79832,1,0,0:0:0:0:
182,192,79920,1,2,0:0:0:0:
36,192,79920,1,2,0:0:0:0:
329,192,80273,128,0,82038:0:0:0:0:
475,192,80450,1,0,0:0:0:0:
402,192,80538,1,0,0:0:0:0:
36,192,80626,1,2,0:0:0:0:
182,192,80626,1,2,0:0:0:0:
256,192,80803,1,0,0:0:0:0:
109,192,80979,1,0,0:0:0:0:
36,192,81155,1,2,0:0:0:0:
256,192,81332,1,8,0:3:0:0:
402,192,81508,1,8,0:3:0:0:
475,192,81685,1,8,0:3:0:0:
36,192,82038,1,2,0:0:0:0:
256,192,82038,1,2,0:0:0:0:
475,192,82038,1,2,0:0:0:0:
109,192,82391,1,0,0:0:0:0:
329,192,82391,1,0,0:0:0:0:
475,192,82567,1,2,0:0:0:0:
256,192,82567,1,2,0:0:0:0:
329,192,82920,1,0,0:0:0:0:
36,192,82920,1,0,0:0:0:0:
182,192,83097,1,2,0:0:0:0:
475,192,83097,1,2,0:0:0:0:
36,192,83450,128,0,84508:0:0:0:0:
256,192,83450,1,2,0:0:0:0:
402,192,83803,1,8,0:3:0:0:
329,192,83979,1,8,0:3:0:0:
109,192,83979,1,2,0:0:0:0:
256,192,84155,1,8,0:3:0:0:
475,192,84332,1,8,0:3:0:0:
182,192,84508,128,0,86273:0:0:0:0:
402,192,84508,1,2,0:0:0:0:
475,192,86097,1,0,0:0:0:0:
402,192,86155,1,0,0:0:0:0:
329,192,86214,1,0,0:0:0:0:
109,192,86273,128,0,88391:0:0:0:0:
