osu file format v14

[General]
AudioFilename: ED.mp3
AudioLeadIn: 2000
PreviewTime: 58733
Countdown: 0
SampleSet: Soft
StackLeniency: 0.7
Mode: 0
LetterboxInBreaks: 0
WidescreenStoryboard: 0

[Editor]
DistanceSpacing: 1.3
BeatDivisor: 4
GridSize: 4
TimelineZoom: 2

[Metadata]
Title:Utsukushiki Zankoku na Sekai
TitleUnicode:美しき残酷な世界
Artist:Hikasa Yoko
ArtistUnicode:日笠陽子
Creator:Citrus
Version:Normal
Source:進撃の巨人
Tags:Attack on Titan Shingeki no Kyojin ending
BeatmapID:441470
BeatmapSetID:89662

[Difficulty]
HPDrainRate:4
CircleSize:3.5
OverallDifficulty:4
ApproachRate:5.5
SliderMultiplier:1.8
SliderTickRate:1

[Events]
//Background and Video events
0,0,"BG.jpg",0,0
Video,-75,"ED.flv"
//Break Periods
2,11964,13199
//Storyboard Layer 0 (Background)
//Storyboard Layer 1 (Fail)
//Storyboard Layer 2 (Pass)
//Storyboard Layer 3 (Foreground)
//Storyboard Sound Samples

[TimingPoints]
317,705.882352941176,4,2,1,70,1,0
317,-100,4,2,1,10,0,0
1022,-100,4,2,1,20,0,0
1728,-100,4,2,1,30,0,0
2434,-100,4,2,1,40,0,0
5964,-100,4,2,1,25,0,0
6669,-100,4,2,1,35,0,0
7375,-100,4,2,1,40,0,0
8081,-100,4,2,1,45,0,0
10199,-133.333333333333,4,2,1,45,0,0
11611,-100,4,2,1,25,0,0
14434,-100,4,2,1,40,0,0
36140,-100,4,2,2,50,0,0
37022,-100,4,2,2,60,0,0
56787,-133.333333333333,4,2,1,70,0,0
57846,-100,4,2,3,70,0,0
59258,-100,4,2,3,50,0,0
59611,-100,4,2,3,70,0,1
70728,-100,4,2,3,70,0,0
70905,-100,4,2,3,70,0,1
84316,-100,4,2,3,50,0,1
84669,-100,4,2,3,50,0,0
84846,-100,4,2,3,60,0,0
85022,-100,4,2,1,55,0,0
85728,-100,4,2,1,45,0,0
86434,-100,4,2,1,35,0,0
87140,-100,4,2,1,25,0,0
87846,-100,4,2,1,15,0,0
88552,-100,4,2,1,5,0,0

[Colours]
Combo1 : 128,128,64
Combo2 : 58,58,58
Combo3 : 194,194,194
Combo4 : 255,0,0

[HitObjects]
364,48,317,6,0,L|383:88,3,45,2|0|0|0,0:0|0:0|0:0|0:0,0:0:0:0:
300,120,1022,2,0,L|312:162,3,45,2|0|0|0,0:0|0:0|0:0|0:0,0:0:0:0:
224,179,1728,2,0,L|228:223,3,45,2|0|0|0,0:0|0:0|0:0|0:0,0:0:0:0:
138,224,2434,2,0,L|135:268,3,45,2|0|0|0,0:0|0:0|0:0|0:0,0:0:0:0:
80,340,3140,6,0,P|130:299|193:317,1,135,2|2,0:0|0:0,0:0:0:0:
186,287,5964,38,0,L|148:264,3,45,2|0|0|0,0:0|0:0|0:0|0:0,0:0:0:0:
228,208,6669,2,0,L|266:231,3,45,2|0|0|0,0:0|0:0|0:0|0:0,0:0:0:0:
300,148,7375,2,0,L|261:124,3,45,2|0|0|0,0:0|0:0|0:0|0:0,0:0:0:0:
341,68,8081,2,0,L|380:92,3,45,2|0|0|0,0:0|0:0|0:0|0:0,0:0:0:0:
455,139,8787,6,0,P|471:178|456:230,1,90,2|0,0:0|0:0,0:0:0:0:
358,278,9493,1,2,0:0:0:0:
340,236,9669,1,0,0:0:0:0:
350,193,9846,1,0,0:0:0:0:
455,139,10199,2,0,B|378:124|350:193|350:193|368:118|319:63,1,270.000010299683,2|2,0:0|0:0,0:0:0:0:
84,236,14434,38,0,P|124:220|176:236,1,90,2|0,0:0|0:0,0:0:0:0:
272,284,15140,2,0,P|314:295|356:280,2,90,0|0|2,0:0|0:0|0:0,0:0:0:0:
308,172,16199,1,0,0:0:0:0:
248,71,16552,2,0,L|157:84,1,90
70,160,17258,6,0,P|59:203|75:244,2,90,2|0|0,0:0|0:0|0:0,0:0:0:0:
158,83,18316,1,0,0:0:0:0:
196,196,18669,2,0,P|256:252|316:196,1,180,2|2,0:0|0:0,0:0:0:0:
354,83,19728,37,0,0:0:0:0:
354,83,19905,1,0,0:0:0:0:
354,83,20081,2,0,B|408:64|408:64|440:72,2,90,2|0|0,0:0|0:0|0:0,0:0:0:0:
316,196,21140,1,0,0:0:0:0:
316,196,21316,2,0,P|256:224|196:196,1,135,2|0,0:0|0:0,0:0:0:0:
158,83,22199,1,0,0:0:0:0:
256,144,22552,1,0,0:0:0:0:
354,83,22905,6,0,P|394:67|446:83,2,90,2|0|0,0:0|0:0|0:0,0:0:0:0:
256,144,23964,2,0,P|216:160|164:144,1,90,0|2,0:0|0:0,0:0:0:0:
136,120,24493,1,2,0:0:0:0:
112,80,24669,2,0,L|92:40,1,45,0|2,0:0|0:0,0:0:0:0:
32,112,25022,2,0,L|52:152,3,45,0|2|0|2,0:0|0:0|0:0|0:0,0:0:0:0:
76,192,25728,38,0,P|112:213|165:207,1,90,2|0,0:0|0:0,0:0:0:0:
256,144,26434,2,0,P|298:131|340:145,1,90,2|0,0:0|0:0,0:0:0:0:
369,179,26964,2,0,P|334:124|350:60,1,135,0|2,0:0|0:0,0:0:0:0:
466,40,27846,2,0,P|453:83|418:110,1,90,0|0,0:0|0:0,0:0:0:0:
303,130,28552,6,0,P|315:87|350:60,2,90,2|0|0,0:0|0:0|0:0,0:0:0:0:
332,244,29611,1,0,0:0:0:0:
360,360,29964,2,0,P|277:326|188:323,1,180,2|2,0:0|0:0,0:0:0:0:
131,220,31022,1,0,0:0:0:0:
167,108,31375,38,0,B|195:96|195:96|215:72|219:40,2,90,2|0|2,0:0|0:0|0:0,0:0:0:0:
55,140,32434,2,0,P|23:224|59:304,1,180
164,350,33493,2,0,P|207:358|248:341,1,90,2|0,0:0|0:0,0:0:0:0:
300,235,34199,6,0,P|256:243|215:226,1,90,2|0,0:0|0:0,0:0:0:0:
164,120,34905,2,0,P|207:128|248:111,2,90,0|0|2,0:0|0:0|0:0,0:0:0:0:
316,36,36140,37,2,0:0:0:0:
316,36,36316,2,0,P|344:69|349:113,1,90,2|2,0:0|0:0,0:0:0:0:
265,196,37022,6,0,P|237:163|232:119,2,90,8|0|10,0:0|0:0|0:0,0:0:0:0:
348,114,38081,1,0,0:0:0:0:
378,227,38434,1,8,0:0:0:0:
378,227,38787,1,0,0:0:0:0:
294,309,39140,1,10,0:0:0:0:
294,309,39493,1,0,0:0:0:0:
265,190,39846,38,0,B|238:179|238:179|178:191,1,90,8|0,0:0|0:0,0:0:0:0:
115,92,40552,2,0,B|141:102|141:102|201:90,1,90,10|0,0:0|0:0,0:0:0:0:
317,69,41258,2,0,P|393:105|380:189,1,180,8|10,0:0|0:0,0:0:0:0:
300,272,42316,1,0,0:0:0:0:
219,355,42669,6,0,L|128:332,1,90,8|0,0:0|0:0,0:0:0:0:
53,245,43375,2,0,P|37:203|53:161,1,90,10|0,0:0|0:0,0:0:0:0:
143,85,44081,2,0,P|186:73|211:37,1,90,8|0,0:0|0:0,0:0:0:0:
211,37,44787,2,0,P|205:101|255:151,1,135,10|0,0:0|0:0,0:0:0:0:
295,158,45493,38,0,P|338:167|363:205,1,90,8|0,0:0|0:0,0:0:0:0:
329,316,46199,2,0,P|244:315|205:237,1,180,10|8,0:0|0:0,0:0:0:0:
295,158,47258,2,0,P|311:200|293:240,2,90,0|10|2,0:0|0:0|0:0,0:0:0:0:
412,159,48316,6,0,P|396:117|414:77,2,90,8|0|10,0:0|0:0|0:0,0:0:0:0:
476,260,49375,1,0,0:0:0:0:
476,260,49552,2,0,P|412:240|348:260,1,135
256,332,50434,1,10,0:0:0:0:
163,259,50787,1,0,0:0:0:0:
68,188,51140,38,0,P|56:144|78:106,1,90,8|0,0:0|0:0,0:0:0:0:
176,43,51846,2,0,B|228:43|256:77|256:77|284:43|336:43,1,180,10|8,0:0|0:0,0:0:0:0:
434,107,52905,1,0,0:0:0:0:
474,217,53258,5,10,0:0:0:0:
395,130,53611,1,0,0:0:0:0:
434,239,53964,2,0,P|446:283|424:321,2,90,8|0|10,0:0|0:0|0:0,0:0:0:0:
395,130,55022,2,0,B|369:89|369:89|348:161|273:166,1,180,0|0,0:0|0:0,0:0:0:0:
185,89,56081,1,10,0:0:0:0:
164,204,56434,1,0,0:0:0:0:
214,310,56787,38,0,P|295:360|379:308,1,202.500007724762,4|0,0:0|0:0,0:0:0:0:
384,192,58199,5,8,0:0:0:0:
356,80,58552,2,0,L|344:36,2,45,0|8|4,0:0|0:0|0:3,0:0:0:0:
384,192,59258,1,4,1:0:0:0:
328,296,59611,6,0,P|287:278|236:296,1,90,4|2,0:0|0:0,0:0:0:0:
203,306,60140,1,4,0:3:0:0:
165,331,60316,2,0,P|141:293|145:249,1,90,8|2,0:0|0:0,0:0:0:0:
195,143,61022,1,0,0:0:0:0:
210,100,61198,1,8,0:0:0:0:
197,57,61375,2,0,P|238:70|280:55,2,90,2|8|2,0:0|0:0|0:0,0:0:0:0:
80,43,62434,6,0,P|45:97|75:154,1,135,4|0,0:0|0:0,0:0:0:0:
120,165,63140,2,0,P|183:142|247:160,1,135,8|0,0:0|0:0,0:0:0:0:
284,185,63846,1,4,0:3:0:0:
363,271,64199,1,4,0:3:0:0:
448,192,64552,1,8,0:0:0:0:
369,107,64905,37,4,0:3:0:0:
354,149,65081,1,8,0:0:0:0:
339,191,65258,2,0,P|334:146|292:111,1,90,4|2,0:0|0:0,0:0:0:0:
264,96,65787,1,4,0:3:0:0:
221,81,65964,2,0,B|186:65|186:65|155:104|98:93,1,135,8|4,0:0|0:3,0:0:0:0:
56,80,66669,2,0,P|32:118|36:162,1,90,0|2,0:0|0:0,0:0:0:0:
104,256,67375,2,0,P|128:218|124:174,1,90,8|2,0:0|0:0,0:0:0:0:
56,80,68081,6,0,P|93:55|137:58,1,90,4|2,0:0|0:0,0:0:0:0:
179,75,68611,1,4,0:3:0:0:
220,90,68787,2,0,P|264:92|300:67,1,90,8|2,0:0|0:0,0:0:0:0:
288,184,69493,1,0,0:0:0:0:
288,184,69846,1,8,0:3:0:0:
288,184,70199,38,0,P|348:212|359:276,1,135,8|8,0:0|0:0,0:0:0:0:
351,319,70905,6,0,P|358:274|394:246,1,90,4|2,0:0|0:0,0:0:0:0:
437,235,71434,1,4,0:3:0:0:
479,218,71611,2,0,P|494:176|478:133,1,90,8|2,0:0|0:0,0:0:0:0:
394,54,72316,1,0,0:0:0:0:
298,121,72669,1,2,0:0:0:0:
256,137,72845,1,0,0:0:0:0:
214,121,73022,2,0,P|171:109|130:125,1,90,8|0,0:0|0:0,0:0:0:0:
93,152,73552,1,4,0:3:0:0:
56,178,73728,38,0,L|24:309,1,135,4|0,0:0|0:0,0:0:0:0:
62,284,74434,2,0,B|93:261|93:261|137:295|184:273,1,135,8|0,0:0|0:0,0:0:0:0:
221,249,75140,2,0,P|262:234|305:247,1,90,8|2,0:3|0:0,0:0:0:0:
406,308,75846,2,0,P|447:320|490:306,1,90,8|2,0:0|0:0,0:0:0:0:
440,200,76552,6,0,P|471:170|480:126,1,90,4|2,0:0|0:0,0:0:0:0:
476,80,77081,1,4,0:3:0:0:
470,35,77258,1,8,0:0:0:0:
357,67,77611,1,2,0:0:0:0:
336,106,77787,2,0,P|274:143|220:121,1,135,4|2,0:3|0:0,0:0:0:0:
143,33,78669,1,8,0:0:0:0:
105,144,79022,37,4,0:3:0:0:
105,144,79199,1,8,0:0:0:0:
105,144,79375,2,0,P|145:128|188:140,2,90,4|2|8,0:0|0:0|0:0,0:0:0:0:
16,220,80434,2,0,L|0:176,2,45,2|0|4,0:0|0:0|0:0,0:0:0:0:
56,332,81140,1,2,0:0:0:0:
161,280,81493,6,0,B|196:266|234:278|234:278|264:231|324:234,1,180,8|4,0:0|0:0,0:0:0:0:
418,311,82552,1,0,0:0:0:0:
418,311,82728,2,0,P|370:352|313:323,1,135,4|8,0:0|0:0,0:0:0:0:
354,212,83611,38,0,P|377:150|347:92,2,135,4|4|4,0:0|0:0|0:0,0:0:0:0:
256,192,84846,12,0,88552,0:0:0:0:
