osu file format v14

[General]
AudioFilename: ED.mp3
AudioLeadIn: 2000
PreviewTime: 58733
Countdown: 0
SampleSet: Soft
StackLeniency: 0.7
Mode: 0
LetterboxInBreaks: 0
WidescreenStoryboard: 0

[Editor]
DistanceSpacing: 1.5
BeatDivisor: 4
GridSize: 4
TimelineZoom: 1.7

[Metadata]
Title:Utsukushiki Zankoku na Sekai
TitleUnicode:美しき残酷な世界
Artist:Hikasa Yoko
ArtistUnicode:日笠陽子
Creator:Citrus
Version:Hard
Source:進撃の巨人
Tags:Attack on Titan Shingeki no Kyojin ending
BeatmapID:303160
BeatmapSetID:89662

[Difficulty]
HPDrainRate:6
CircleSize:4
OverallDifficulty:7
ApproachRate:7.5
SliderMultiplier:2.4
SliderTickRate:1

[Events]
//Background and Video events
0,0,"BG.jpg",0,0
Video,-75,"ED.flv"
//Break Periods
2,11964,13375
//Storyboard Layer 0 (Background)
//Storyboard Layer 1 (Fail)
//Storyboard Layer 2 (Pass)
//Storyboard Layer 3 (Foreground)
//Storyboard Sound Samples

[TimingPoints]
317,705.882352941176,4,2,1,70,1,0
317,-133.333333333333,4,2,1,10,0,0
1022,-133.333333333333,4,2,1,20,0,0
1728,-133.333333333333,4,2,1,30,0,0
2434,-133.333333333333,4,2,1,40,0,0
5964,-133.333333333333,4,2,1,25,0,0
6669,-133.333333333333,4,2,1,35,0,0
7375,-133.333333333333,4,2,1,40,0,0
8081,-133.333333333333,4,2,1,45,0,0
11611,-133.333333333333,4,2,1,25,0,0
14434,-100,4,2,1,40,0,0
36140,-100,4,2,2,50,0,0
37022,-100,4,2,2,60,0,0
56787,-200,4,2,1,70,0,0
57846,-100,4,2,3,70,0,0
59258,-100,4,2,3,50,0,0
59611,-100,4,2,3,70,0,1
70728,-100,4,2,3,70,0,0
70905,-100,4,2,3,70,0,1
84316,-100,4,2,3,50,0,1
84669,-100,4,2,3,50,0,0
84846,-100,4,2,3,60,0,0
85022,-100,4,2,1,55,0,0
85728,-100,4,2,1,45,0,0
86434,-100,4,2,1,35,0,0
87140,-100,4,2,1,25,0,0
87846,-100,4,2,1,15,0,0
88552,-100,4,2,1,5,0,0

[Colours]
Combo1 : 128,128,64
Combo2 : 58,58,58
Combo3 : 194,194,194
Combo4 : 255,0,0

[HitObjects]
358,97,317,6,0,L|386:61,1,45.0000017166138,2|0,0:0|0:0,0:0:0:0:
386,193,669,2,0,L|414:157,1,45.0000017166138
326,277,1022,2,0,L|280:270,1,45.0000017166138,2|0,0:0|0:0,0:0:0:0:
256,348,1375,2,0,L|210:341,1,45.0000017166138,0|0,0:0|0:0,0:0:0:0:
204,224,1728,6,0,L|186:181,1,45.0000017166138,2|0,0:0|0:0,0:0:0:0:
50,122,2081,2,0,L|68:165,1,45.0000017166138,0|0,0:0|0:0,0:0:0:0:
216,176,2434,2,0,L|198:133,1,45.0000017166138,2|0,0:0|0:0,0:0:0:0:
62,74,2787,2,0,L|80:117,1,45.0000017166138,0|0,0:0|0:0,0:0:0:0:
108,215,3140,37,2,0:0:0:0:
158,184,3316,1,0,0:0:0:0:
216,176,3492,1,0,0:0:0:0:
272,193,3669,1,2,0:0:0:0:
272,193,5964,5,2,0:0:0:0:
216,176,6141,1,0,0:0:0:0:
158,184,6317,1,0,0:0:0:0:
108,215,6493,1,2,0:0:0:0:
79,116,6669,38,0,L|62:74,1,45.0000017166138,2|0,0:0|0:0,0:0:0:0:
143,64,7022,2,0,L|149:19,1,45.0000017166138
296,48,7375,2,0,L|340:58,1,45.0000017166138,2|0,0:0|0:0,0:0:0:0:
256,143,7728,2,0,L|299:130,1,45.0000017166138
444,160,8081,5,2,0:0:0:0:
504,216,8258,1,0,0:0:0:0:
412,266,8434,1,0,0:0:0:0:
449,339,8611,1,0,0:0:0:0:
333,329,8787,38,0,P|292:311|263:277,1,90.0000034332277,2|0,0:0|0:0,0:0:0:0:
105,111,9493,1,2,0:0:0:0:
147,154,9669,1,0,0:0:0:0:
175,207,9846,1,0,0:0:0:0:
158,353,10199,6,0,B|220:344|263:276|263:276|264:324|296:368|392:320|404:232,1,360.000013732911,2|2,0:0|0:0,0:0:0:0:
248,300,14434,38,0,P|274:246|261:188,1,120,2|0,0:0|0:0,0:0:0:0:
185,149,14964,1,0,0:0:0:0:
100,168,15140,2,0,P|132:217|189:235,2,120,0|0|2,0:0|0:0|0:0,0:0:0:0:
148,56,16199,1,0,0:0:0:0:
100,168,16552,1,0,0:0:0:0:
268,64,16905,1,0,0:0:0:0:
268,64,17081,6,0,P|328:56|388:64,1,120,2|2,0:0|0:0,0:0:0:0:
459,166,17611,2,0,P|399:174|339:166,1,120
268,64,18316,1,0,0:0:0:0:
100,168,18669,1,2,0:0:0:0:
100,168,19375,37,2,0:0:0:0:
220,244,19728,2,0,P|204:218|202:188,1,60,0|0,2:0|0:0,0:0:0:0:
284,192,20081,2,0,P|340:178|403:198,1,120,2|0,0:0|0:0,0:0:0:0:
448,232,20611,2,0,B|472:260|474:296|474:296|432:332,1,120,2|0,0:0|0:0,0:0:0:0:
389,366,21140,1,0,0:0:0:0:
329,368,21316,6,0,P|292:320|296:260,1,120,2|0,0:0|0:0,0:0:0:0:
328,212,21846,1,2,0:0:0:0:
436,92,22199,1,0,0:0:0:0:
280,60,22552,1,0,0:0:0:0:
436,92,22905,38,0,P|428:152|376:195,1,120,2|0,0:0|0:0,0:0:0:0:
328,212,23434,2,0,B|292:216|268:205|268:205|218:237,1,120,0|0,0:0|0:0,0:0:0:0:
165,266,23964,1,2,0:0:0:0:
48,88,24316,5,2,0:0:0:0:
99,117,24493,1,2,0:0:0:0:
158,127,24669,1,0,0:0:0:0:
217,118,24846,1,2,0:0:0:0:
270,90,25022,2,0,P|300:79|332:83,3,60,0|2|0|2,0:0|0:0|0:0|0:0,0:0:0:0:
386,97,25728,38,0,P|432:130|447:189,1,120,2|0,0:0|0:0,0:0:0:0:
312,300,26434,2,0,B|324:324|356:340|356:340|388:324|399:300,1,120,2|0,0:0|0:0,0:0:0:0:
432,248,26964,1,0,0:0:0:0:
386,97,27316,1,0,0:0:0:0:
386,97,27493,2,0,P|339:133|280:135,1,120,2|0,0:0|0:0,0:0:0:0:
58,75,28199,5,0,0:0:0:0:
58,75,28375,2,0,P|116:71|166:104,1,120,2|2,0:0|0:0,0:0:0:0:
222,212,28905,2,0,P|164:216|114:183,1,120,0|0,0:0|0:0,0:0:0:0:
58,75,29611,1,0,0:0:0:0:
44,280,29964,1,2,0:0:0:0:
44,280,30669,37,2,0:0:0:0:
164,264,31022,1,0,0:0:0:0:
212,300,31199,1,0,0:0:0:0:
256,340,31375,2,0,B|303:331|303:331|332:352|370:351,1,120,2|0,0:0|0:0,0:0:0:0:
431,350,31905,1,0,0:0:0:0:
462,298,32081,2,0,B|439:268|404:259|404:259|381:217,1,120,2|0,0:0|0:0,0:0:0:0:
258,92,32787,5,2,0:0:0:0:
381,217,33140,1,0,0:0:0:0:
256,340,33493,1,2,0:0:0:0:
133,215,33846,1,0,0:0:0:0:
258,92,34199,38,0,L|312:117,1,60,2|0,0:0|0:0,0:0:0:0:
258,92,34552,2,0,P|198:94|146:67,2,120
373,53,35611,1,2,0:0:0:0:
61,232,36140,5,2,0:0:0:0:
61,232,36316,2,0,P|85:217|104:193,2,60,2|0|2,0:0|0:0|0:0,0:0:0:0:
200,328,37022,38,0,B|236:329|258:344|258:344|312:320,1,120,8|0,0:0|0:0,0:0:0:0:
428,160,37728,2,0,P|373:180|343:231,1,120,10|0,0:0|0:0,0:0:0:0:
200,328,38434,2,0,P|210:270|181:218,1,120,8|0,0:0|0:0,0:0:0:0:
168,46,39140,2,0,P|212:83|271:84,1,120,8|0,0:0|0:0,0:0:0:0:
392,68,39846,5,8,0:0:0:0:
269,200,40199,1,0,0:0:0:0:
381,341,40552,2,0,P|325:321|269:341,1,120,10|0,0:0|0:0,0:0:0:0:
158,199,41258,1,8,0:0:0:0:
158,199,41434,2,0,P|214:219|270:199,1,120
311,157,41964,1,10,0:0:0:0:
310,46,42316,37,0,0:0:0:0:
310,46,42493,1,0,0:0:0:0:
310,46,42669,2,0,P|330:102|310:158,1,120,8|0,0:0|0:0,0:0:0:0:
158,253,43375,2,0,P|213:233|269:252,1,120,10|0,0:0|0:0,0:0:0:0:
426,340,44081,2,0,P|370:359|314:340,1,120,8|0,0:0|0:0,0:0:0:0:
456,227,44787,2,0,B|481:190|458:141|458:141|405:129|375:161,1,180,10|0,0:0|0:0,0:0:0:0:
332,205,45493,6,0,P|276:225|220:205,1,120,8|0,0:0|0:0,0:0:0:0:
220,95,46199,1,10,0:0:0:0:
220,95,46375,2,0,P|240:151|220:207,1,120
177,247,46905,1,8,0:0:0:0:
66,248,47258,1,0,0:0:0:0:
66,248,47434,1,0,0:0:0:0:
66,248,47611,2,0,P|121:267|177:247,1,120,10|2,0:0|0:0,0:0:0:0:
103,64,48316,38,0,B|100:125|100:125|121:182,1,120,8|0,0:0|0:0,0:0:0:0:
172,292,49022,1,10,0:0:0:0:
172,292,49199,2,0,L|292:287,1,120
350,284,49728,1,8,0:0:0:0:
419,186,50081,1,0,0:0:0:0:
350,284,50434,2,0,P|401:310|459:299,1,120,10|0,0:0|0:0,0:0:0:0:
425,79,51140,5,8,0:0:0:0:
260,253,51493,1,0,0:0:0:0:
66,150,51846,2,0,L|34:93,2,60,10|0|0,0:0|0:0|0:0,0:0:0:0:
108,192,52375,1,0,0:0:0:0:
163,216,52552,38,0,P|193:224|224:219,1,60,8|0,0:0|0:0,0:0:0:0:
279,202,52905,2,0,P|306:187|326:163,1,60
357,115,53258,2,0,P|342:172|368:226,1,120,10|0,0:0|0:0,0:0:0:0:
395,351,53964,6,0,P|351:309|292:305,1,120,8|0,0:0|0:0,0:0:0:0:
96,176,54669,2,0,P|104:147|120:122,2,60,10|0|0,0:0|0:0|0:0,0:0:0:0:
136,280,55375,2,0,P|220:308|304:280,1,180,8|0,0:0|0:0,0:0:0:0:
360,260,56081,2,0,P|304:280|248:260,1,120,10|0,0:0|0:0,0:0:0:0:
136,104,56787,38,0,B|160:148|136:192|112:236|136:280,1,180,4|0,0:0|0:0,0:0:0:0:
228,352,58022,5,0,0:0:0:0:
228,352,58111,1,0,0:0:0:0:
228,352,58199,1,8,0:0:0:0:
336,296,58375,2,0,L|392:316,2,60,0|0|8,0:0|0:0|0:0,0:0:0:0:
232,232,58905,37,4,0:3:0:0:
452,184,59258,1,4,1:0:0:0:
216,56,59611,22,0,L|236:116,1,60,4|0,0:0|0:0,0:0:0:0:
148,108,59964,2,0,L|128:48,1,60,2|4,0:0|0:3,0:0:0:0:
302,60,60316,2,0,P|312:120|340:172,1,120,8|2,0:0|0:0,0:0:0:0:
415,222,60846,6,0,P|425:195|429:164,1,60,4|0,0:3|0:0,0:0:0:0:
390,308,61199,1,8,0:0:0:0:
300,310,61375,2,0,B|272:308|244:328|244:328|220:304|188:304,2,120,2|8|2,0:0|0:0|0:0,0:0:0:0:
300,310,62258,1,4,0:3:0:0:
390,308,62434,37,4,0:0:0:0:
170,83,62787,1,2,0:0:0:0:
129,163,62964,1,0,0:0:0:0:
129,163,63052,1,0,0:0:0:0:
129,163,63140,2,0,P|189:175|237:142,1,120,8|2,0:0|0:0,0:0:0:0:
387,80,63669,5,0,0:0:0:0:
387,80,63758,1,0,0:0:0:0:
387,80,63846,2,0,L|368:136,1,60,4|8,0:3|0:0,0:0:0:0:
306,312,64199,2,0,L|287:256,1,60,4|4,0:3|0:3,0:0:0:0:
215,80,64552,2,0,L|196:136,1,60,8|0,0:0|0:0,0:0:0:0:
134,312,64905,2,0,L|112:256,1,60,4|8,0:3|0:0,0:0:0:0:
86,83,65258,37,4,0:0:0:0:
112,136,65434,1,0,0:0:0:0:
155,176,65611,1,2,0:0:0:0:
209,202,65787,1,4,0:3:0:0:
269,209,65964,2,0,P|209:202|160:234,1,120,8|2,0:0|0:0,0:0:0:0:
134,312,66493,1,4,0:3:0:0:
213,340,66669,6,0,L|224:371,3,30,0|0|0|0,0:0|0:0|0:0|0:0,0:0:0:0:
297,340,67022,2,0,L|308:371,3,30,2|0|0|0,0:0|0:0|0:0|0:0,0:0:0:0:
358,283,67375,2,0,B|396:235|396:235|396:176,1,120,8|2,0:0|0:0,0:0:0:0:
121,116,68081,38,0,L|101:60,1,60,4|0,0:0|0:0,0:0:0:0:
243,101,68434,2,0,L|263:157,1,60,2|4,0:0|0:3,0:0:0:0:
273,170,68699,1,0,0:0:0:0:
286,180,68787,2,0,P|341:197|396:176,1,120,8|2,0:0|0:0,0:0:0:0:
156,344,69493,6,0,P|185:330|207:313,1,60
164,203,69846,2,0,P|153:231|136:256,1,60,8|4,0:3|0:3,0:0:0:0:
244,48,70199,2,0,P|273:61|295:78,1,60,8|4,0:0|0:3,0:0:0:0:
252,187,70552,2,0,P|241:159|224:136,1,60,4|8,0:3|0:0,0:0:0:0:
256,280,70905,38,0,P|304:309|363:301,1,120,4|2,0:0|0:0,0:0:0:0:
440,206,71434,1,4,0:3:0:0:
440,206,71611,2,0,P|392:177|333:185,1,120,8|2,0:0|0:0,0:0:0:0:
149,213,72140,1,4,0:3:0:0:
149,213,72316,6,0,P|192:173|200:115,1,120,0|2,0:0|0:0,0:0:0:0:
92,288,72846,1,0,0:0:0:0:
92,288,72934,1,0,0:0:0:0:
92,288,73022,2,0,P|143:310|200:293,1,120,8|2,0:0|0:0,0:0:0:0:
272,232,73552,1,4,0:3:0:0:
300,148,73728,37,4,0:0:0:0:
136,76,74081,1,2,0:0:0:0:
222,49,74258,1,0,0:0:0:0:
222,49,74346,1,0,0:0:0:0:
222,49,74434,2,0,P|224:110|184:152,1,120,8|2,0:0|0:0,0:0:0:0:
92,288,74964,5,0,0:0:0:0:
92,288,75052,1,0,0:0:0:0:
92,288,75140,2,0,P|121:274|143:257,1,60,8|4,0:3|0:3,0:0:0:0:
208,320,75493,2,0,P|226:293|236:267,1,60,2|4,0:0|0:3,0:0:0:0:
324,289,75846,2,0,P|326:256|322:229,1,60,8|4,0:0|0:3,0:0:0:0:
408,203,76199,2,0,P|394:174|377:152,1,60,4|8,0:3|0:0,0:0:0:0:
364,142,76464,37,0,0:0:0:0:
352,132,76552,2,0,P|292:132|235:112,1,120,4|2,0:0|0:0,0:0:0:0:
164,56,77081,1,4,0:3:0:0:
83,14,77258,2,0,P|73:69|101:121,1,120,8|2,0:0|0:0,0:0:0:0:
168,224,77787,5,0,0:0:0:0:
168,224,77875,1,0,0:0:0:0:
168,224,77964,2,0,L|116:260,1,60,4|4,0:3|0:3,0:0:0:0:
124,376,78316,2,0,L|176:340,1,60,2|4,0:0|0:3,0:0:0:0:
376,288,78669,2,0,P|325:264|267:278,1,120,8|4,0:0|0:3,0:0:0:0:
182,116,79199,1,8,0:0:0:0:
182,116,79375,38,0,P|232:139|290:125,1,120,4|2,0:0|0:0,0:0:0:0:
362,64,79905,2,0,L|378:36,2,30,0|0|8,0:0|0:0|0:0,0:0:0:0:
453,241,80434,1,2,0:0:0:0:
376,288,80611,5,0,0:0:0:0:
376,288,80699,1,0,0:0:0:0:
376,288,80787,2,0,P|325:264|267:278,1,120,4|2,0:0|0:0,0:0:0:0:
162,337,81316,1,4,0:3:0:0:
162,337,81405,1,0,0:0:0:0:
162,337,81493,2,0,L|98:340,1,60,8|8,0:0|0:3,0:0:0:0:
176,220,81846,2,0,L|123:254,1,60,4|8,0:3|0:0,0:0:0:0:
60,80,82199,38,0,B|92:128|92:128|152:144,1,120,4|0,0:0|0:0,0:0:0:0:
240,120,82728,2,0,B|208:72|208:72|148:56,1,120,4|0,0:0|0:0,0:0:0:0:
60,80,83258,1,8,0:0:0:0:
122,255,83611,6,0,P|179:236|238:239,1,120,4|0,0:0|0:0,0:0:0:0:
322,203,84140,2,0,L|346:147,2,60,4|8|4,0:0|0:3|0:3,0:0:0:0:
322,203,84669,1,4,0:0:0:0:
256,192,84846,12,0,88552,0:0:0:0:
