osu file format v14

[General]
AudioFilename: ED.mp3
AudioLeadIn: 2000
PreviewTime: 58733
Countdown: 0
SampleSet: Soft
StackLeniency: 0.7
Mode: 0
LetterboxInBreaks: 0
WidescreenStoryboard: 0

[Editor]
DistanceSpacing: 1.3
BeatDivisor: 4
GridSize: 4
TimelineZoom: 1

[Metadata]
Title:Utsukushiki Zankoku na Sekai
TitleUnicode:美しき残酷な世界
Artist:Hikasa Yoko
ArtistUnicode:日笠陽子
Creator:Citrus
Version:Easy
Source:進撃の巨人
Tags:Attack on Titan Shingeki no Kyojin ending
BeatmapID:247192
BeatmapSetID:89662

[Difficulty]
HPDrainRate:3
CircleSize:3
OverallDifficulty:3
ApproachRate:4
SliderMultiplier:1.4
SliderTickRate:1

[Events]
//Background and Video events
0,0,"BG.jpg",0,0
Video,-75,"ED.flv"
//Break Periods
2,11964,13022
//Storyboard Layer 0 (Background)
//Storyboard Layer 1 (Fail)
//Storyboard Layer 2 (Pass)
//Storyboard Layer 3 (Foreground)
//Storyboard Sound Samples

[TimingPoints]
317,705.882352941176,4,2,1,70,1,0
317,-100,4,2,1,10,0,0
1022,-100,4,2,1,20,0,0
1728,-100,4,2,1,30,0,0
2434,-100,4,2,1,40,0,0
5964,-100,4,2,1,25,0,0
6669,-100,4,2,1,30,0,0
7375,-100,4,2,1,35,0,0
8081,-100,4,2,1,45,0,0
8081,-100,4,2,1,40,0,0
11611,-100,4,2,1,25,0,0
14434,-100,4,2,1,40,0,0
36140,-100,4,2,2,50,0,0
37022,-100,4,2,2,60,0,0
57846,-100,4,2,3,70,0,0
59258,-100,4,2,3,50,0,0
59611,-100,4,2,3,70,0,1
70728,-100,4,2,3,70,0,0
70905,-100,4,2,3,70,0,1
84669,-100,4,2,1,70,0,0
85022,-100,4,2,1,55,0,0
85728,-100,4,2,1,45,0,0
86434,-100,4,2,1,35,0,0
87140,-100,4,2,1,25,0,0
87846,-100,4,2,1,15,0,0
88552,-100,4,2,1,5,0,0

[Colours]
Combo1 : 128,128,64
Combo2 : 58,58,58
Combo3 : 194,194,194
Combo4 : 255,0,0

[HitObjects]
425,183,317,6,0,P|439:152|448:117,2,70,2|0|2,0:0|0:0|0:0,0:0:0:0:
481,255,1375,1,0,0:0:0:0:
393,279,1728,2,0,P|360:270|323:277,1,70,2|0,0:0|0:0,0:0:0:0:
243,318,2434,2,0,P|208:324|175:316,1,70,2|0,0:0|0:0,0:0:0:0:
92,278,3140,6,0,B|76:242|84:213|84:213|52:190,1,105,2|2,0:0|0:0,0:0:0:0:
104,32,5964,38,0,L|136:96,1,70,2|0,0:0|0:0,0:0:0:0:
208,152,6669,2,0,P|224:123|228:87,2,70,2|0|2,0:0|0:0|0:0,0:0:0:0:
124,188,7728,1,0,0:0:0:0:
36,168,8081,2,0,P|34:204|48:238,1,70,2|0,0:0|0:0,0:0:0:0:
103,306,8787,6,0,P|133:325|169:330,1,70,2|0,0:0|0:0,0:0:0:0:
227,262,9493,2,0,L|235:226,2,35,2|0|0,0:0|0:0|0:0,0:0:0:0:
279,338,10199,2,0,B|356:280|351:183|351:183|368:236|416:260,1,280,2|2,0:0|0:0,0:0:0:0:
84,124,14434,38,0,P|82:193|112:257,1,140,2|0,0:0|0:0,0:0:0:0:
194,217,15493,1,0,0:0:0:0:
188,308,15846,2,0,B|256:324|256:324|324:308,1,140,2|0,0:0|0:0,0:0:0:0:
318,217,16905,1,0,0:0:0:0:
399,257,17258,6,0,P|429:193|428:124,2,140,2|0|2,0:0|0:0|0:0,0:0:0:0:
256,144,19375,1,2,0:0:0:0:
74,160,20081,38,0,P|123:207|191:210,1,140,2|0,0:0|0:0,0:0:0:0:
256,144,21140,2,0,P|323:154|366:207,2,140,2|0|2,0:0|0:0|0:0,0:0:0:0:
193,210,22905,2,0,P|218:325|258:228,1,280,2|2,0:0|0:0,0:0:0:0:
391,112,25022,1,0,0:0:0:0:
391,112,25728,6,0,P|423:173|425:243,1,140,2|2,0:0|0:0,0:0:0:0:
491,306,26787,2,0,P|428:335|364:310,1,140,0|2,0:0|0:0,0:0:0:0:
320,232,27846,2,0,P|300:205|268:187,1,70
232,272,28552,38,0,P|202:259|165:259,1,70,2|0,0:0|0:0,0:0:0:0:
175,350,29258,2,0,P|106:333|73:276,1,140,0|2,0:0|0:0,0:0:0:0:
52,95,30669,1,2,0:0:0:0:
140,72,31022,1,0,0:0:0:0:
228,48,31375,6,0,L|288:84,1,70,2|0,0:0|0:0,0:0:0:0:
220,144,32081,2,0,L|280:180,1,70,2|0,0:0|0:0,0:0:0:0:
362,141,32787,2,0,P|410:190|414:257,2,140,2|0|2,0:0|0:0|0:0,0:0:0:0:
280,180,34552,37,0,0:0:0:0:
193,152,34905,2,0,P|161:142|125:146,2,70,0|0|2,0:0|0:0|0:0,0:0:0:0:
103,257,36140,6,0,P|152:273|202:263,1,105,2|2,0:0|0:0,0:0:0:0:
292,240,37022,38,0,P|360:224|428:240,1,140,8|10,0:0|0:0,0:0:0:0:
492,68,38434,2,0,P|424:84|356:68,1,140,8|10,0:0|0:0,0:0:0:0:
292,240,39846,6,0,P|224:224|156:240,1,140,8|10,0:0|0:0,0:0:0:0:
92,68,41258,2,0,P|160:84|228:68,1,140,8|10,0:0|0:0,0:0:0:0:
259,153,42316,1,0,0:0:0:0:
292,240,42669,37,8,0:0:0:0:
228,68,43375,1,10,0:0:0:0:
56,132,44081,1,8,0:0:0:0:
120,304,44787,1,10,0:0:0:0:
292,240,45493,6,0,B|356:212|356:212|402:160,1,140,8|10,0:0|0:0,0:0:0:0:
220,144,46905,2,0,B|155:171|155:171|109:223,1,140,8|10,0:0|0:0,0:0:0:0:
182,278,47964,1,2,0:0:0:0:
256,332,48316,37,8,0:0:0:0:
412,236,49022,1,10,0:0:0:0:
324,76,49728,2,0,P|256:60|187:75,1,140,8|10,0:0|0:0,0:0:0:0:
100,236,51140,5,8,0:0:0:0:
256,332,51846,1,10,0:0:0:0:
100,236,52552,2,0,P|145:183|210:156,1,140,8|10,0:0|0:0,0:0:0:0:
297,136,53611,1,0,0:0:0:0:
388,132,53964,38,0,P|385:201|352:263,1,140,8|10,0:0|0:0,0:0:0:0:
286,326,55022,1,0,0:0:0:0:
216,268,55375,2,0,P|150:242|81:249,2,140,8|10|4,0:0|0:0|0:0,0:0:0:0:
328,216,58199,5,8,0:0:0:0:
387,146,58552,2,0,P|405:119|414:83,2,70,2|4|4,0:0|0:3|1:0,0:0:0:0:
328,216,59611,6,0,P|268:248|208:216,1,140,4|8,0:0|0:0,0:0:0:0:
124,252,60669,2,0,P|115:218|123:183,2,70,2|2|2,0:0|0:0|0:0,0:0:0:0:
88,336,61728,2,0,P|121:344|156:336,1,70,8|2,0:0|0:0,0:0:0:0:
244,316,62434,5,4,0:0:0:0:
400,224,63140,1,8,0:0:0:0:
244,316,63846,2,0,P|209:319|176:308,1,70,0|2,0:0|0:0,0:0:0:0:
220,228,64552,2,0,P|188:213|165:187,1,70,8|2,0:0|0:0,0:0:0:0:
244,140,65258,38,0,P|205:80|147:45,1,140,4|8,0:0|0:0,0:0:0:0:
100,124,66316,1,2,0:0:0:0:
85,213,66669,2,0,L|123:272,1,70,0|2,0:0|0:0,0:0:0:0:
208,240,67375,2,0,L|170:181,1,70,8|2,0:0|0:0,0:0:0:0:
100,124,68081,6,0,P|161:89|225:108,1,140,4|8,0:0|0:0,0:0:0:0:
299,159,69140,1,2,0:0:0:0:
369,101,69493,2,0,P|386:131|390:166,1,70,0|8,0:0|0:3,0:0:0:0:
397,257,70199,2,0,B|372:258|347:273|347:273|325:253|302:250,1,105,8|8,0:0|0:0,0:0:0:0:
256,240,70905,38,0,P|210:189|214:122,1,140,4|8,0:0|0:0,0:0:0:0:
299,158,71964,1,2,0:0:0:0:
342,76,72316,2,0,L|411:65,2,70,0|2|8,0:0|0:0|0:0,0:0:0:0:
392,248,73728,5,4,0:0:0:0:
256,372,74434,1,8,0:0:0:0:
120,248,75140,2,0,P|99:219|92:185,1,70,0|2,0:0|0:0,0:0:0:0:
96,96,75846,2,0,P|102:61|121:32,1,70,8|2,0:0|0:0,0:0:0:0:
188,96,76552,38,0,P|252:115|320:88,1,140,4|8,0:0|0:0,0:0:0:0:
396,136,77611,1,2,0:0:0:0:
438,216,77964,2,0,P|453:248|451:282,1,70,0|2,0:0|0:0,0:0:0:0:
375,331,78669,2,0,P|359:298|361:264,1,70,8|2,0:0|0:0,0:0:0:0:
319,184,79375,6,0,B|284:188|256:212|256:212|228:188|193:184,2,140,4|8|4,0:0|0:0|0:0,0:0:0:0:
500,197,81493,1,8,0:0:0:0:
340,284,82199,38,0,B|340:230|340:230|318:183,1,105,4|4,0:0|0:0,0:0:0:0:
229,165,83081,2,0,L|193:156,1,35,0|8,0:0|0:0,0:0:0:0:
106,136,83611,2,0,B|105:189|105:189|127:237,2,105,4|4|4,0:0|0:0|0:0,0:0:0:0:
256,192,84846,12,0,88552,0:0:0:0:
