osu file format v9

[General]
AudioFilename: 06-.mp3
AudioLeadIn: 1500
PreviewTime: 51572
Countdown: 1
SampleSet: Normal
StackLeniency: 0.7
Mode: 0
LetterboxInBreaks: 1

[Editor]
DistanceSpacing: 1.2
BeatDivisor: 4
GridSize: 8

[Metadata]
Title:Tokimeki Sugar
Artist:Hikasa Yoko
Creator:taka1235
Version:Hard
Source:
Tags:gowww

[Difficulty]
HPDrainRate:5
CircleSize:4
OverallDifficulty:5
ApproachRate:7
SliderMultiplier:1.4
SliderTickRate:1

[Events]
//Background and Video events
0,0,"20091223_1570048.jpg"
//Break Periods
2,32279,40925
//Storyboard Layer 0 (Background)
//Storyboard Layer 1 (Fail)
//Storyboard Layer 2 (Pass)
//Storyboard Layer 3 (Foreground)
//Storyboard Sound Samples
//Background Colour Transformations
3,100,163,162,255

[TimingPoints]
100,304.568527918782,4,1,0,58,1,0
2764,-100,4,1,0,66,0,0
12511,-100,4,1,0,61,0,0
31394,-100,4,2,0,64,0,0
32003,-100,4,2,0,59,0,0
46318,-100,4,1,0,78,0,0
50277,-100,4,1,0,64,0,0
51572,-100,4,1,0,88,0,1
72358,-100,4,1,0,61,0,1
73501,-100,4,1,0,88,0,0
85150,-100,4,1,0,70,0,0
102663,-100,4,2,0,70,0,0
117130,-100,4,1,0,70,0,0
120937,-100,4,1,0,61,0,0
122231,-100,4,1,0,70,0,1
144160,-100,4,1,0,60,0,0

[Colours]
Combo1 : 162,255,255
Combo2 : 255,170,255
Combo3 : 181,255,181

[HitObjects]
64,88,404,1,0
136,40,708,1,0
216,56,1013,1,0
248,136,1317,1,0
224,216,1622,2,0,B|280:264|384:240,1,140
400,256,2079,2,0,B|408:304,2,35
408,216,2384,2,0,B|432:184|472:192,1,70
360,80,2841,6,0,B|296:48|200:48,1,140,2|8
160,16,3297,2,0,B|136:48|160:88,1,70
216,120,3602,1,0
216,120,3754,1,8
256,176,3907,6,0,B|320:152|416:144,1,140,2|0
448,192,4363,2,0,B|432:224|456:272,1,70,8|0
424,328,4668,2,0,B|344:320,1,70
288,336,4973,2,0,B|200:328,1,70,8|0
160,288,5277,6,0,B|200:224|272:192|368:248,2,210,2|0|0
96,312,6343,2,2,B|64:248|72:144,2,140
160,280,7105,2,0,B|192:256|248:264,1,70
288,208,7409,2,0,B|312:248|304:280,1,70,8|0
344,328,7714,6,0,B|392:312|488:296,2,140,2|8|0
280,304,8475,2,0,B|240:288|200:280,1,70,0|8
152,320,8780,2,0,B|128:232|208:184,1,140
256,160,9237,1,8
296,216,9389,2,0,B|448:240,1,140
464,176,9846,2,0,B|440:144|464:104,1,70,8|0
424,48,10150,6,0,B|352:8|272:32|240:104,2,210,2|0|0
384,104,11216,2,2,B|360:176|376:248,2,140
448,128,11978,6,0,B|456:168,2,35
440,56,12282,2,0,B|408:16|360:40,1,70
320,64,12587,6,0,B|248:96|160:40,3,140,0|8|0|8
120,96,13653,2,0,B|168:152|160:240,1,140
104,280,14110,6,0,B|64:256|48:208,1,70,10|0
184,256,14414,2,0,B|232:312|304:328,2,140,2|2|4
128,200,15176,6,0,B|104:168|128:120,2,70,0|8|0
192,160,15632,2,0,B|200:120|248:104,1,70
312,112,15937,1,8
280,184,16089,2,0,B|296:240|296:328,1,140
368,344,16546,6,0,B|400:328|408:280,1,70,2|0
288,320,16851,2,0,B|232:288|144:304,2,140,2|2|4
344,272,17612,6,0,B|392:280|416:240,1,70,0|8
488,248,17917,1,0
456,176,18069,2,0,B|424:144|432:96,2,70,0|0|8
488,104,18526,2,0,B|440:48|352:80,1,140
296,32,18983,2,0,B|328:64|328:120,1,70,8|0
248,96,19287,6,0,B|176:80,1,70,2|0
136,144,19592,2,0,B|48:120,1,70,10|0
128,80,19896,2,0,B|192:144|144:240,1,140,4|8
232,208,20353,2,0,B|160:224|112:304,1,140
64,344,20810,2,0,B|40:312|40:264,1,70,8|0
80,216,21115,5,0
112,144,21267,2,0,B|192:160,1,70,0|8
240,208,21572,1,0
184,256,21724,2,0,B|208:320,1,70
280,344,22028,1,8
280,344,22333,1,4
352,312,22485,6,0,B|432:296,1,70,0|8
464,240,22790,1,0
392,208,22942,2,0,B|360:128|416:56,1,140,0|8
480,72,23399,2,0,B|408:96|336:8,1,140
280,40,23856,6,0,B|272:72|272:112,1,70,10|0
352,152,24160,2,0,B|296:184|256:256,1,140,2|10
224,320,24617,1,0
160,272,24770,6,0,B|144:232|168:184,1,70
96,168,25074,2,0,B|240:192,2,140,8|0|8
96,88,25836,2,0,B|120:168|56:224,1,140
16,272,26292,6,0,B|48:288|80:320,1,70,10|0
160,344,26597,2,0,B|136:272|176:208,2,140,2|10|4
232,320,27358,1,0
288,264,27511,6,0,B|360:280,1,70,8|0
408,336,27815,1,0
488,320,27968,2,0,B|472:280|488:224,1,70,0|8
408,224,28272,2,0,B|448:152|408:80,1,140
488,64,28729,2,0,B|448:64|416:16,1,70,8|0
352,40,29034,5,2
288,80,29186,1,0
336,144,29338,1,8
96,224,29643,6,0,B|144:312|248:344|352:288,2,280,4|0|0
96,144,31013,5,0
168,176,31165,2,0,B|120:248|16:200,1,140,4|4
16,280,31622,2,0,B|104:320,2,70
16,280,32079,1,4
352,112,41825,6,0,B|208:96,2,140,4|2|0
400,80,42587,2,0,B|384:120|408:160,1,70,0|2
448,184,42891,1,0
400,208,43044,6,0,B|464:272|424:352,1,140,0|2
376,320,43501,1,0
344,272,43653,2,0,B|280:312,1,70
240,344,43957,2,0,B|160:304,1,70,2|0
120,328,44262,6,0,B|192:288|208:216|152:128,2,210,4|0|0
64,312,45328,1,0
96,264,45480,2,0,B|184:280|240:192,1,140,0|2
264,248,45937,2,0,B|200:200|208:112,1,140
168,80,46394,5,0
232,48,46546,1,0
288,88,46698,2,0,B|360:96,1,70,4|0
472,136,47003,2,0,B|392:144,1,70,8|0
304,192,47308,2,0,B|384:208,1,70
472,248,47612,2,0,B|400:264,1,70,8|0
352,328,47917,6,0,B|320:256|208:256,1,140,0|8
248,328,48374,1,0
184,296,48526,2,0,B|248:248|216:160,1,140,0|8
176,120,48983,1,0
128,64,49135,6,0,B|184:120|288:88,1,140,2|8
304,48,49592,2,0,B|288:88|344:120,1,70
400,112,49896,1,0
376,176,50049,1,8
304,176,50201,1,0
272,112,50353,6,0,B|192:96,1,70
160,144,50658,1,0
160,144,50810,1,0
104,120,50962,2,0,B|96:96|112:72,2,35
56,160,51267,2,0,B|80:192|72:240,1,70
24,328,51572,6,0,B|32:272|88:248|160:272,1,140,6|8
200,312,52028,2,0,B|144:288|136:240|160:184,1,140,6|0
240,160,52485,2,0,B|176:112,1,70,8|0
88,48,52790,6,0,B|40:64|24:128|72:184,1,140,6|8
136,192,53247,2,0,B|88:160|32:176|0:248,1,140,6|0
88,272,53704,1,8
88,272,53856,1,0
168,264,54008,6,0,B|184:296|192:336,2,70,0|0|8
208,192,54465,2,0,B|248:200|296:224,1,70
336,264,54770,2,0,B|352:232|360:184,2,70,0|8|0
256,288,55226,5,2
336,344,55379,1,0
416,296,55531,1,8
488,344,55683,2,0,B|408:248|480:128,1,210,0|2
468,148,56292,1,0
440,72,56445,5,4
272,40,56749,1,8
240,208,57054,1,0
408,240,57358,1,8
352,80,57663,2,0,B|240:48|152:96|136:208,1,280,2|8
256,320,58577,1,0
256,320,58881,6,0,B|272:224|368:168|496:240,1,280,4|0
400,80,59795,1,0
368,248,60100,2,0,B|272:328|208:136|80:232,1,280
48,272,60861,2,0,B|72:312,2,35
32,192,61165,1,0
