osu file format v9

[General]
AudioFilename: Vibration.mp3
AudioLeadIn: 0
PreviewTime: 47913
Countdown: 0
SampleSet: Normal
StackLeniency: 0.5
Mode: 0
LetterboxInBreaks: 1

[Editor]
Bookmarks: 17080,38413,47746,71913,81080,102413,111746,135913,160246,171746,194580
DistanceSpacing: 1.2
BeatDivisor: 2
GridSize: 8

[Metadata]
Title:Seishun Vibration
Artist:Hikasa Yoko
Creator:wring
Version:Easy
Source:K-ON!!
Tags:akiyama mio miccoliasms HTT

[Difficulty]
HPDrainRate:2
CircleSize:3
OverallDifficulty:3
ApproachRate:3
SliderMultiplier:0.8
SliderTickRate:1

[Events]
//Background and Video events
0,0,"0a45d64d.jpg"
//Break Periods
2,71113,78473
2,135446,147473
//Storyboard Layer 0 (Background)
//Storyboard Layer 1 (Fail)
//Storyboard Layer 2 (Pass)
//Storyboard Layer 3 (Foreground)
//Storyboard Sound Samples
//Background Colour Transformations
3,100,163,162,255

[TimingPoints]
-753,333.333333333333,4,1,1,65,1,0
5663,-100,4,1,1,60,0,0
11080,-100,4,1,2,60,0,1
11413,-100,4,1,1,65,0,0
16330,-100,4,1,0,65,0,0
16746,-100,4,1,2,65,0,0
19080,-100,4,1,1,65,0,0
41830,-100,4,1,2,50,0,0
43163,-100,4,1,1,65,0,0
47830,-100,4,1,2,65,0,0
48580,-100,4,1,2,65,0,1
48663,-100,4,1,1,65,0,1
48913,-100,4,1,1,70,0,0
67163,-100,4,1,2,65,0,0
67996,-100,4,2,0,65,0,0
68330,-100,4,1,1,70,0,0
70830,-100,4,2,0,30,0,0
70996,-100,4,1,1,65,0,0
79746,-100,4,1,0,65,0,0
80746,-100,4,1,2,65,0,0
82996,-100,4,1,1,65,0,0
105830,-100,4,1,2,50,0,0
107163,-100,4,1,1,65,0,0
111830,-100,4,1,2,65,0,0
112580,-100,4,1,2,65,0,1
112663,-100,4,1,1,70,0,1
112913,-100,4,1,1,70,0,0
131163,-100,4,1,2,65,0,0
131996,-100,4,2,0,65,0,0
132330,-100,4,1,1,70,0,0
135163,-100,4,2,0,30,0,0
135330,-100,4,1,1,65,0,0
169996,-100,4,1,2,65,0,0
172330,-100,4,1,1,65,0,0
173246,-100,4,1,1,65,0,1
173580,-100,4,1,1,70,0,0
191163,-100,4,1,2,70,0,0
191996,-100,4,2,0,65,0,0
192330,-100,4,1,1,70,0,0
198413,-100,4,1,1,60,0,0
198913,-100,4,1,1,50,0,0
199413,-100,4,1,1,40,0,0
199913,-100,4,1,1,30,0,0
200413,-100,4,1,1,20,0,0
200913,-100,4,1,1,10,0,0
201413,-100,4,2,0,5,0,0
201913,-100,4,1,1,0,0,0

[Colours]
Combo1 : 230,110,230
Combo2 : 230,110,110
Combo3 : 230,230,110
Combo4 : 201,69,105

[HitObjects]
416,72,5913,6,0,B|352:200|208:160|208:160,1,240,0|8
168,72,7246,2,0,B|24:96|48:248|48:248,1,240,0|8
120,312,8580,2,0,B|232:224|344:288|344:288,1,240,0|8
440,256,9913,2,0,B|416:144|304:128|304:128,1,200,0|8
302,127,11080,6,2,B|232:232|112:176|112:176,1,200,2|0
280,296,12580,1,0
96,256,13246,2,0,B|192:256|216:160,1,160
384,256,14580,2,0,B|472:216|440:112,1,160
256,72,15913,1,2
256,72,16413,2,0,B|256:192|256:192,1,120,2|4
192,264,17246,6,0,B|152:176|48:192|48:192,2,160
256,80,19246,1,8
320,264,19913,2,0,B|360:176|464:192|464:192,2,160,8|0|8
144,192,21913,1,4
256,32,22580,5,8
368,192,23246,1,0
256,352,23913,2,0,B|256:272|256:272,3,80,0|8|0|8
344,104,25580,2,0,B|432:120|448:216|448:216,1,160,8|8
448,312,26580,2,0,B|448:352,2,40,0|0|8
360,264,27246,5,0
360,264,27580,1,8
264,264,27913,2,0,B|216:240|136:272|96:248,2,160,0|8|0
200,80,29913,5,0
200,80,30246,1,8
104,80,30580,2,0,B|112:184|208:176|208:176,1,160,0|0
296,128,31580,2,0,B|336:128|368:160,1,80,8|0
432,88,32246,2,0,B|400:48|344:24|280:32,1,160,8|8
192,48,33246,5,0
192,48,33580,1,8
168,144,33913,2,0,B|200:192|248:216|312:208,1,160,0|8
128,288,35246,1,0
320,288,35913,1,0
224,120,36580,2,0,B|192:88|192:88|120:88|120:88|72:48,2,160,8|0|4
224,216,38246,1,8
312,176,38580,6,0,B|312:224|312:224|344:280|344:280|344:328,1,160,0|0
440,304,39580,2,0,B|440:256|440:256|408:200|408:200|408:152,1,160,8|0
344,80,40580,1,8
256,48,40913,2,0,B|216:32|176:40,2,80,8|0|8
256,144,41913,6,0,B|256:224,3,80
184,288,43247,6,0,B|224:328|256:320|288:328|328:288,1,160,8|0
328,96,44580,2,0,B|288:56|256:64|224:56|184:96,1,160,8|0
112,272,45913,2,0,B|152:264|168:216,1,80,0|8
128,128,46580,2,0,B|40:152|24:240|24:240,2,160,0|8|4
224,136,48247,1,0
224,136,48580,1,4
256,224,48913,6,0,B|416:224,2,160,8|0|8
192,296,50580,2,0,B|152:288|128:248,1,80,0|8
160,160,51246,1,0
256,136,51580,2,0,B|248:72|312:16|368:40,2,160,8|0|8
352,160,53247,5,8
440,136,53580,2,0,B|432:224|512:272|512:272,1,160,8|8
448,344,54580,1,0
368,288,54913,2,0,B|296:240|208:264|208:264,1,160,8|8
120,280,55913,1,0
24,288,56246,2,0,B|24:336|64:352,2,80,8|0|8
64,200,57246,2,0,B|120:136|104:48|104:48,1,160,0|8
296,40,58580,6,0,B|440:112,1,160,0|8
360,168,59580,1,8
280,224,59913,2,0,B|424:296,1,160,0|8
232,296,61246,6,0,B|200:296|200:296|112:336|112:336|64:336,2,160,0|8|0
168,224,62913,1,8
104,152,63246,2,0,B|136:152|136:152|224:112|224:112|272:112,1,160,0|0
336,64,64246,6,0,B|416:64|416:64,2,80,8|0|8
336,160,65246,2,0,B|336:320,1,160,0|0
240,320,66247,1,8
144,320,66580,2,0,B|96:320,2,40,0|0|8
192,240,67247,5,0
192,240,67580,1,0
192,144,67913,1,0
192,144,68246,1,0
256,192,68580,12,4,70913
216,288,79913,5,2
216,288,80413,2,0,B|256:240|240:168,1,120,2|4
320,120,81246,6,0,B|360:208|464:192|464:192,2,160
256,304,83246,1,8
192,120,83913,2,0,B|152:208|48:192|48:192,2,160,8|0|8
368,192,85913,1,4
256,352,86580,5,0
144,192,87246,1,0
256,32,87913,2,0,B|256:112|256:112,3,80,0|8|0|8
168,280,89580,2,0,B|80:264|64:168|64:168,1,160,8|8
64,72,90580,2,0,B|64:32,2,40,0|0|8
152,120,91246,5,0
152,120,91580,1,8
248,120,91913,2,0,B|336:128|392:64|392:64,2,160,0|8|0
312,304,93913,5,0
312,304,94246,1,8
408,304,94580,2,0,B|400:200|304:208|304:208,1,160,0|0
216,256,95580,2,0,B|176:256|144:224,1,80,8|0
80,296,96246,2,0,B|112:336|168:360|232:352,1,160,8|8
320,336,97246,5,8
320,336,97580,1,8
344,240,97913,2,0,B|312:192|264:168|200:176,1,160,8|8
384,96,99246,5,0
192,96,99913,1,0
288,264,100580,2,0,B|320:296|320:296|392:296|392:296|440:336,2,160,8|0|4
200,304,102246,1,8
200,208,102580,6,0,B|200:160|200:160|168:104|168:104|168:56,1,160,0|0
72,80,103580,2,0,B|72:128|72:128|104:184|104:184|104:232,1,160,8|0
160,312,104580,1,8
256,336,104913,2,0,B|336:336|336:336,2,80,8|0|8
256,240,105913,6,0,B|256:160,3,80
328,96,107247,6,0,B|288:56|256:64|224:56|184:96,1,160,8|0
184,288,108580,2,0,B|224:328|256:320|288:328|328:288,1,160,8|0
400,112,109913,2,0,B|360:120|344:168,1,80,0|8
384,256,110580,2,0,B|472:232|488:144|488:144,2,160,0|8|4
288,248,112247,1,0
288,248,112580,1,4
256,160,112913,6,0,B|96:160,2,160,8|0|8
320,88,114580,2,0,B|360:96|384:136,1,80,0|8
352,224,115246,1,0
256,248,115580,2,0,B|248:312|312:368|368:344,2,160,8|0|8
160,224,117247,5,0
88,288,117580,2,0,B|8:240|16:152|16:152,1,160,8|8
48,64,118580,1,0
136,96,118913,2,0,B|208:144|296:120|296:120,1,160,8|8
384,104,119913,1,0
480,88,120246,2,0,B|480:40|440:24,2,80,8|0|8
448,176,121246,2,0,B|392:240|408:328|408:328,1,160,0|8
216,344,122580,6,0,B|72:272,1,160,0|8
152,216,123580,1,8
232,160,123913,2,0,B|88:88,1,160,0|8
280,88,125246,6,0,B|312:88|312:88|400:48|400:48|448:48,2,160,0|8|0
344,160,126913,1,8
408,232,127246,2,0,B|376:232|376:232|288:272|288:272|240:272,1,160,0|0
176,320,128246,6,0,B|96:320|96:320,2,80,8|0|8
176,224,129246,2,0,B|176:64,1,160,0|0
272,64,130247,1,8
368,64,130580,2,0,B|416:64,2,40,0|0|8
320,144,131247,5,0
320,144,131580,1,0
320,240,131913,1,0
320,240,132246,1,0
256,192,132580,12,4,135246
256,224,148913,5,4
256,224,149246,1,0
392,264,149746,2,0,B|368:352|256:408|144:352|120:264,1,360,4|0
88,72,151913,6,0,B|128:192|256:232|256:232|384:192|424:72,1,480
432,264,154580,6,0,B|360:280|312:256|288:224|256:72|256:72|224:224|208:256|152:288|80:264,1,600,0|0
256,192,157246,12,0,159913
256,144,160413,6,0,B|136:144,1,120,4|8
40,144,161246,1,0
40,144,161746,2,0,B|56:264|144:304|144:304,1,200,8|0
240,320,162913,1,8
336,320,163246,2,0,B|416:320|416:320,2,80,0|8|0
336,224,164246,2,0,B|256:200|256:96|256:96,1,160,8|4
320,32,165246,5,0
320,32,165580,1,8
416,48,165913,2,0,B|464:120|416:200|416:200,1,160,0|8
288,344,167246,2,0,B|336:272|288:192|288:192,1,160,0|8
160,48,168580,2,0,B|112:120|160:200|160:200,2,160,0|8|4
208,48,170080,6,0,B|288:48,2,80
320,200,171413,2,0,B|400:200,2,80
256,328,172580,5,4
256,328,172913,2,0,B|256:168,2,160,8|0|8
352,320,174580,2,0,B|400:320|424:280,2,80,0|8|0
344,224,175580,2,0,B|376:168|312:112|344:64,2,160,8|0|8
264,168,177247,5,0
192,112,177580,2,0,B|168:200|80:216|80:216,1,160,8|8
40,304,178580,1,0
136,304,178913,6,0,B|208:264|296:288|296:288,1,160,8|8
384,296,179913,1,0
464,240,180246,2,0,B|464:192|488:152,2,80,8|0|8
376,192,181246,2,0,B|320:128|336:40|336:40,1,160,0|8
144,40,182580,6,0,B|144:200,1,160,0|8
48,200,183580,1,8
96,280,183913,2,0,B|256:280,1,160,0|8
336,104,185246,6,0,B|360:128|360:128|456:112|456:112|480:136,2,160,0|8|0
256,48,186913,1,8
176,104,187246,2,0,B|152:128|152:128|56:112|56:112|32:136,1,160,0|0
72,224,188246,6,0,B|152:224|152:224,2,80,8|0|8
112,312,189246,1,0
208,312,189580,1,8
304,312,189913,1,0
400,312,190247,1,8
352,232,190580,2,0,B|392:232,2,40,0|0|8
256,232,191246,5,0
304,144,191579,1,0
256,56,191912,1,0
208,144,192246,2,0,B|136:136|80:208|96:280,2,200
384,72,194580,5,8
384,72,194913,1,8
440,152,195246,2,0,B|464:200|448:272|416:304,2,160,4|0|8
256,112,197246,5,8
256,208,197580,1,8
256,192,197913,12,0,201913
