osu file format v12

[General]
AudioFilename: K-ON!! - Listen [ED1].mp3
AudioLeadIn: 1000
PreviewTime: 44973
Countdown: 0
SampleSet: Normal
StackLeniency: 0.7
Mode: 0
LetterboxInBreaks: 0

[Editor]
Bookmarks: 12090,34033,45005,72433,75176,83405,105347,116319,139633,154719
DistanceSpacing: 0.9
BeatDivisor: 4
GridSize: 4

[Metadata]
Title:Listen!!
TitleUnicode:Listen!!
Artist:Hikasa Yoko
ArtistUnicode:日笠 陽子
Creator:CDFA
Version:Easy
Source:K-ON!!
Tags:OzzyOzrock -kevincela- Lybydose Lizzehb Lilac MarioBros777 Kurisuchianu Lunah LoweH Derekku SuperMICrophone lesslunatic
BeatmapID:130013
BeatmapSetID:24610

[Difficulty]
HPDrainRate:3
CircleSize:3
OverallDifficulty:3
ApproachRate:4
SliderMultiplier:0.600000005960464
SliderTickRate:1

[Events]
//Background and Video events
0,0,"Strawberry-5-k-on-14626929-1024-768.jpg",0,0
//Break Periods
2,75144,82053
2,138430,147881
//Storyboard Layer 0 (Background)
//Storyboard Layer 1 (Fail)
//Storyboard Layer 2 (Pass)
//Storyboard Layer 3 (Foreground)
//Storyboard Sound Samples
//Background Colour Transformations
3,100,163,162,255

[TimingPoints]
1087.32321758132,342.857142857143,4,1,1,61,1,0
12230,-100,4,1,2,61,0,0
12573,-100,4,1,1,61,0,0
13601,-100,4,1,2,61,0,0
13944,-100,4,1,1,61,0,0
14973,-100,4,1,2,61,0,0
15315,-100,4,1,1,61,0,0
17715,-100,4,1,2,61,0,0
18744,-100,4,1,1,61,0,0
19773,-100,4,1,2,61,0,0
20458,-100,4,1,1,61,0,0
23201,-100,4,1,2,61,0,0
23544,-100,4,1,1,61,0,0
24573,-100,4,1,2,61,0,0
24915,-100,4,1,1,61,0,0
25944,-100,4,1,2,61,0,0
26287,-100,4,1,1,61,0,0
28687,-100,4,1,2,61,0,0
29030,-100,4,1,1,61,0,0
30058,-100,4,1,2,61,0,0
30401,-100,4,1,1,61,0,0
32801,-100,4,1,2,61,0,0
34173,-100,4,1,1,61,0,0
36230,-100,4,1,2,61,0,0
36573,-100,4,1,1,61,0,0
36915,-100,4,1,2,61,0,0
37258,-100,4,1,1,61,0,0
42401,-100,4,1,2,61,0,0
42744,-100,4,1,1,61,0,0
43087,-100,4,1,2,61,0,0
43430,-100,4,1,1,61,0,0
44973,-100,4,1,1,61,0,1
45144,-100,4,1,2,61,0,1
45487,-100,4,1,1,61,0,1
46515,-100,4,1,2,61,0,1
46858,-100,4,1,1,61,0,1
47887,-100,4,1,2,61,0,1
48230,-100,4,1,1,61,0,1
50630,-100,4,1,2,61,0,1
50973,-100,4,1,1,61,0,1
51315,-100,4,1,2,61,0,1
51658,-100,4,1,1,61,0,1
53030,-100,4,1,2,61,0,1
54744,-100,4,1,1,61,0,1
55087,-100,4,1,2,61,0,1
55430,-100,4,1,1,61,0,1
56115,-100,4,1,2,61,0,1
56458,-100,4,1,1,61,0,1
56801,-100,4,1,2,61,0,1
57144,-100,4,1,1,61,0,1
58858,-100,4,1,2,61,0,1
59201,-100,4,1,1,61,0,1
60230,-100,4,1,2,61,0,1
60573,-100,4,1,1,61,0,1
65373,-100,4,1,1,61,0,0
66915,-100,4,1,1,61,0,1
67087,-100,4,1,2,61,0,1
67430,-100,4,1,1,61,0,1
68458,-100,4,1,2,61,0,1
68801,-100,4,1,1,61,0,1
69830,-100,4,1,2,61,0,1
70173,-100,4,1,1,61,0,1
72401,-100,4,1,1,61,0,0
83544,-100,4,1,2,61,0,0
83887,-100,4,1,1,61,0,0
84915,-100,4,1,2,61,0,0
85258,-100,4,1,1,61,0,0
86287,-100,4,1,2,61,0,0
86630,-100,4,1,1,61,0,0
89030,-100,4,1,2,61,0,0
89373,-100,4,1,1,61,0,0
90401,-100,4,1,2,61,0,0
90744,-100,4,1,1,61,0,0
92458,-100,4,1,2,61,0,0
92801,-100,4,1,1,61,0,0
93144,-100,4,1,2,61,0,0
94858,-100,4,1,1,61,0,0
95887,-100,4,1,2,61,0,0
96230,-100,4,1,1,61,0,0
97258,-100,4,1,2,61,0,0
100001,-100,4,1,1,61,0,0
100687,-100,4,1,2,61,0,0
102058,-100,4,1,1,61,0,0
104544,-100,4,1,2,61,0,0
104971,-100,4,1,1,61,0,0
105315,-100,4,1,1,61,0,0
113715,-100,4,1,2,61,0,0
114058,-100,4,1,1,61,0,0
114401,-100,4,1,2,61,0,0
114744,-100,4,1,1,61,0,0
115430,-100,4,1,2,61,0,0
115773,-100,4,1,1,61,0,0
116287,-100,4,1,1,61,0,1
116458,-100,4,1,2,61,0,1
116801,-100,4,1,1,61,0,1
117830,-100,4,1,2,61,0,1
118173,-100,4,1,1,61,0,1
119201,-100,4,1,2,61,0,1
119544,-100,4,1,1,61,0,1
121944,-100,4,1,2,61,0,1
122287,-100,4,1,1,61,0,1
122630,-100,4,1,2,61,0,1
122973,-100,4,1,1,61,0,1
124515,-100,4,1,2,61,0,1
126058,-100,4,1,1,61,0,1
126401,-100,4,1,2,61,0,1
126744,-100,4,1,1,61,0,1
127430,-100,4,1,2,61,0,1
127773,-100,4,1,1,61,0,1
128115,-100,4,1,2,61,0,1
128458,-100,4,1,1,61,0,1
130001,-100,4,1,2,61,0,1
130858,-100,4,1,1,61,0,1
131201,-100,4,1,2,61,0,1
132230,-100,4,1,1,61,0,1
136687,-100,4,1,1,61,0,0
154858,-100,4,1,2,61,0,0
155201,-100,4,1,1,61,0,0
155544,-100,4,1,2,61,0,0
155887,-100,4,1,1,61,0,0
156230,-100,4,1,2,61,0,0
156573,-100,4,1,1,61,0,0
158973,-100,4,1,2,61,0,0
159315,-100,4,1,1,61,0,0
163773,-100,4,1,2,61,0,0
164115,-100,4,1,1,61,0,0
164801,-100,4,1,2,61,0,0
165144,-100,4,1,1,61,0,0
176287,-100,4,1,1,5,0,0
177315,342.857142857143,4,1,2,61,1,1
178857,-100,4,1,1,61,0,1
180229,-100,4,1,2,61,0,1
180572,-100,4,1,1,61,0,1
181257,-100,4,1,1,61,0,1
181600,-100,4,1,2,61,0,1
182286,-100,4,1,1,61,0,1
182629,-100,4,1,2,61,0,1
183657,-100,4,1,1,61,0,1
184000,-100,4,1,2,61,0,1
185715,-100,4,1,1,61,0,1
187086,-100,4,1,2,61,0,1
187772,-100,4,1,1,61,0,1
189486,-100,4,1,2,61,0,1
191200,-100,4,1,1,61,0,1
192572,-100,4,1,2,61,0,1
192915,-100,4,1,1,61,0,1
193600,-100,4,1,2,61,0,1
195486,-100,4,1,1,61,0,1
197715,-100,4,1,1,61,0,0
199257,-100,4,1,1,61,0,1
199429,-100,4,1,2,61,0,1
199772,-100,4,1,1,61,0,1
203543,-100,4,1,2,61,0,1
208857,-100,4,1,2,61,0,0
210229,-100,4,1,2,61,0,0
210314,-100,4,1,1,61,0,0
210743,-100,4,1,2,61,0,0
210828,-100,4,1,1,61,0,0
211772,-100,4,1,2,61,0,0
212115,-100,4,1,1,61,0,0
213143,-100,4,1,2,61,0,0
213486,-100,4,1,1,61,0,0
214172,-100,4,1,2,61,0,0
214515,-100,4,1,1,61,0,0
215886,-100,4,1,2,61,0,0
216229,-100,4,1,1,61,0,0

[Colours]
Combo1 : 58,58,58
Combo2 : 170,170,255
Combo3 : 223,223,255
Combo4 : 141,3,3

[HitObjects]
256,52,12058,2,0,B|256:248,1,180.000001788139,4|8,0:0|0:0,0:0:0:0:
256,292,13430,2,0,B|288:332|324:336|380:320,1,120.000001192093
416,296,14458,1,8,0:0:0:0:
448,240,14801,6,0,B|460:188|432:136|388:120|348:116,1,180.000001788139,0|8,0:0|0:0,0:0:0:0:
288,116,16173,1,0,0:0:0:0:
256,200,16687,2,0,B|256:264,1,60.0000005960464,2|2,0:0|0:0,0:0:0:0:
180,308,17544,6,0,B|180:340|148:364|148:364|112:372|72:352,2,120.000001192093
180,248,19258,1,8,0:0:0:0:
168,188,19601,2,0,B|152:140|180:104|232:108,1,120.000001192093
288,108,20630,5,8,0:0:0:0:
400,64,21315,1,8,0:0:0:0:
472,164,22001,2,0,B|472:228,2,60.0000005960464,8|0|8,0:0|0:0|0:0,0:0:0:0:
421,133,23030,6,0,B|376:110|331:133|286:155|242:133,1,180.000001788139,4|8,0:0|0:0,0:0:0:0:
192,96,24401,2,0,B|112:48,2,90.0000008940696,0|2|8,0:0|0:0|0:0,0:0:0:0:
212,152,25773,6,0,B|208:180|232:216|280:228|304:216,1,120.000001192093
352,212,26801,1,8,0:0:0:0:
380,160,27144,1,0,0:0:0:0:
460,200,27658,2,2,B|489:147,1,60.0000005960464
484,56,28515,6,0,P|444:24|368:20,1,120.000001192093
317,17,29544,1,8,0:0:0:0:
256,24,29887,2,0,B|224:24|192:56|136:48,1,120.000001192093
104,96,30915,1,8,0:0:0:0:
76,148,31258,2,0,B|76:212,1,60.0000005960464,0|8,0:0|0:0,0:0:0:0:
56,264,31944,5,0,0:0:0:0:
90,311,32287,1,8,0:0:0:0:
146,331,32630,2,0,B|262:359,2,120.000001192093,4|8|4,0:0|0:0|0:0,0:0:0:0:
120,276,34344,5,0,0:0:0:0:
80,232,34687,1,0,0:0:0:0:
72,172,35030,1,4,0:0:0:0:
128,156,35372,1,0,0:0:0:0:
184,180,35715,1,0,0:0:0:0:
237,212,36058,6,4,B|297:232|369:212,2,120.000001192093
181,188,37773,1,8,0:0:0:0:
120,188,38115,1,0,0:0:0:0:
154,104,38630,2,0,B|218:104,1,60.0000005960464,2|2,0:0|0:0,0:0:0:0:
301,132,39487,5,4,0:0:0:0:
301,192,39829,1,0,0:0:0:0:
300,252,40173,1,0,0:0:0:0:
265,300,40515,2,4,B|232:300|232:300|204:300,2,60.0000005960464,4|0|0,0:0|0:0|0:0,0:0:0:0:
325,296,41544,5,4,0:0:0:0:
385,308,41887,1,8,0:0:0:0:
432,272,42230,2,0,B|444:208|404:128|300:132,1,210.000002086162,4|4,0:0|0:0,0:0:0:0:
248,176,43944,2,0,P|184:208|136:192,1,120.000001192093,8|8,0:0|0:0,0:0:0:0:
96,160,44973,6,0,P|88:80|176:64,1,180.000001788139,4|8,0:0|0:0,0:0:0:0:
224,72,46344,2,4,B|256:64|288:100|332:84,2,90.0000008940696,4|4|8,0:0|0:0|0:0,0:0:0:0:
168,56,47715,6,0,P|96:40|32:120,1,180.000001788139,4|8,0:0|0:0,0:0:0:0:
24,168,49087,1,0,0:0:0:0:
44,220,49430,1,8,0:0:0:0:
88,252,49773,1,0,0:0:0:0:
196,248,50458,6,0,B|316:268|444:244,1,240.000002384186,4|4,0:0|0:0,0:0:0:0:
468,204,52173,2,0,B|484:148,2,60.0000005960464,8|0|8,0:0|0:0|0:0,0:0:0:0:
504,244,53201,2,0,B|480:284|424:300|380:284,2,120.000001192093
492,192,54915,1,8,0:0:0:0:
484,132,55258,2,0,B|424:116,1,60.0000005960464,8|8,0:0|0:0,0:0:0:0:
368,96,55944,6,4,B|256:52|256:52|144:100,1,240.000002384186
96,132,57658,2,0,B|64:152|24:148,2,60.0000005960464,8|0|8,0:0|0:0|0:0,0:0:0:0:
152,108,58687,6,0,B|256:168,1,120.000001192093,4|0,0:0|0:0,0:0:0:0:
308,200,59715,1,8,0:0:0:0:
348,244,60058,2,0,B|348:280|332:316|304:336|260:328,1,120.000001192093
224,312,61087,5,8,0:0:0:0:
168,292,61430,2,0,B|132:280|108:296,2,60.0000005960464,4|8|0,0:0|0:0|0:0,0:0:0:0:
224,312,62458,2,0,B|256:260,1,60.0000005960464,8|0,0:0|0:0,0:0:0:0:
183,192,63315,6,0,B|256:150|328:192,1,150.000001490116,4|4,0:0|0:0,0:0:0:0:
380,296,64858,2,0,P|420:296|440:252,1,90.0000008940696,4|4,0:0|0:0,0:0:0:0:
256,40,66915,6,4,B|256:172,1,120.000001192093
256,220,67944,1,8,0:0:0:0:
256,280,68287,2,4,B|316:300|380:276,1,120.000001192093
428,252,69315,1,8,0:0:0:0:
456,200,69658,6,4,B|464:136|440:96|396:84,1,120.000001192093
360,88,70687,1,8,0:0:0:0:
300,92,71030,2,0,B|264:92|228:92,2,60.0000005960464,4|8|4,0:0|0:0|0:0,0:0:0:0:
324,148,72058,1,8,0:0:0:0:
280,188,72401,1,0,0:0:0:0:
72,192,83373,6,0,B|128:176|192:192,1,120.000001192093,4|0,0:0|0:0,0:0:0:0:
244,220,84401,1,8,0:0:0:0:
296,252,84744,2,0,B|336:252|360:252|400:252,2,90.0000008940696,0|0|8,0:0|0:0|0:0,0:0:0:0:
256,204,86115,6,0,B|256:64,1,120.000001192093
214,40,87144,1,8,0:0:0:0:
155,28,87487,2,0,P|120:33|93:85,1,90.0000008940696,0|2,0:0|0:0,0:0:0:0:
91,136,88344,1,2,0:0:0:0:
168,192,88858,6,0,B|160:252|176:300|224:312|280:304,1,180.000001788139,0|8,0:0|0:0,0:0:0:0:
324,284,90230,2,0,B|348:264|380:260|408:268,2,90.0000008940696,0|0|8,0:0|0:0|0:0,0:0:0:0:
284,328,91601,1,0,0:0:0:0:
228,344,91944,2,0,B|140:384|48:372|24:344|24:344,1,210.000002086162,8|2,0:0|0:0,0:0:0:0:
8,296,93487,2,0,L|0:232,1,60.0000005960464,2|2,0:0|0:0,0:0:0:0:
40,168,94344,6,0,B|100:152|136:224|224:184,1,180.000001788139,4|8,0:0|0:0,0:0:0:0:
264,176,95715,2,0,B|352:148|452:180,1,180.000001788139,0|8,0:0|0:0,0:0:0:0:
456,232,97087,2,0,B|452:316|376:336,2,120.000001192093
384,192,98973,2,2,B|316:192,1,60.0000005960464
240,184,99830,5,4,0:0:0:0:
188,156,100173,1,8,0:0:0:0:
136,184,100515,2,0,B|80:177|52:208|48:256,1,120.000001192093,0|4,0:0|0:0,0:0:0:0:
96,328,101715,1,4,0:0:0:0:
184,348,102230,1,8,0:0:0:0:
244,336,102573,1,0,0:0:0:0:
300,312,102915,5,8,0:0:0:0:
412,240,103601,1,8,0:0:0:0:
332,152,104287,2,0,B|296:140|264:156,2,60.0000005960464,8|8|8,0:0|0:0|0:0,0:0:0:0:
352,208,105315,6,0,B|352:256|304:304|256:308|256:308|208:304|160:256|160:208,1,300.000002980232,4|12,0:0|0:0,0:0:0:0:
192,156,107373,2,0,B|224:152|248:156|256:172,2,60.0000005960464,0|8|0,0:0|0:0|0:0,0:0:0:0:
136,140,108401,5,8,0:0:0:0:
51,224,109087,1,8,0:0:0:0:
136,308,109773,2,0,B|144:340|176:344|188:344,2,60.0000005960464,8|2|8,0:0|0:0|0:0,0:0:0:0:
160,252,110801,6,0,B|160:203|208:155|256:151|256:151|304:155|352:203|352:251,1,300.000002980232,4|12,0:0|0:0,0:0:0:0:
300,284,112858,1,0,0:0:0:0:
256,324,113201,1,8,0:0:0:0:
212,284,113544,2,4,B|196:216|224:156|296:136|360:172,1,240.000002384186
416,184,115258,5,8,0:0:0:0:
476,176,115601,1,8,0:0:0:0:
492,120,115944,1,8,0:0:0:0:
484,64,116287,6,4,B|416:56|388:128|308:100,1,180.000001788139,4|8,0:0|0:0,0:0:0:0:
256,80,117658,2,4,B|224:72|192:108|148:92,2,90.0000008940696,4|4|8,0:0|0:0|0:0,0:0:0:0:
316,76,119029,6,0,B|412:64|504:80,1,180.000001788139,4|8,0:0|0:0,0:0:0:0:
496,140,120401,1,4,0:0:0:0:
480,200,120744,1,8,0:0:0:0:
424,224,121087,1,0,0:0:0:0:
304,232,121772,6,0,B|184:252|56:228,1,240.000002384186,4|4,0:0|0:0,0:0:0:0:
20,192,123487,2,0,B|4:136,2,60.0000005960464,8|0|8,0:0|0:0|0:0,0:0:0:0:
56,240,124515,6,0,B|80:280|136:296|180:280,2,120.000001192093
28,188,126229,1,8,0:0:0:0:
28,128,126572,2,0,B|88:112,1,60.0000005960464,8|8,0:0|0:0,0:0:0:0:
144,96,127258,6,4,B|256:52|256:52|364:100,1,240.000002384186
416,132,128972,2,0,B|448:144|480:132,2,60.0000005960464,8|0|8,0:0|0:0|0:0,0:0:0:0:
360,108,130001,6,0,B|256:168,1,120.000001192093,4|0,0:0|0:0,0:0:0:0:
204,200,131029,1,8,0:0:0:0:
164,244,131372,2,0,B|164:280|180:316|208:336|252:328,1,120.000001192093
288,312,132401,5,8,0:0:0:0:
344,292,132744,2,0,B|380:280|404:296,2,60.0000005960464,4|8|0,0:0|0:0|0:0,0:0:0:0:
294,257,133772,2,0,B|262:205,1,60.0000005960464,8|0,0:0|0:0,0:0:0:0:
328,144,134629,6,0,B|256:113|177:144,1,150.000001490116,4|4,0:0|0:0,0:0:0:0:
88,218,136173,2,0,P|62:173|70:118,1,90.0000008940696,4|4,0:0|0:0,0:0:0:0:
256,32,138230,5,4,0:0:0:0:
256,192,149201,12,4,153315,0:0:0:0:
160,192,154687,6,4,B|160:256|192:320|256:352|304:352,2,210.000002086162,4|4|12,0:0|0:0|0:0,0:0:0:0:
188,140,157430,1,0,0:0:0:0:
240,108,157773,2,0,B|276:96|304:108,2,60.0000005960464,8|0|8,0:0|0:0|0:0,0:0:0:0:
188,140,158801,2,0,B|348:260,1,180.000001788139,0|8,0:0|0:0,0:0:0:0:
380,284,160173,6,0,B|444:316,1,60.0000005960464,4|8,0:0|0:0,0:0:0:0:
440,252,160858,2,8,B|376:220,1,60.0000005960464,0|8,0:0|0:0,0:0:0:0:
388,164,161544,2,0,B|452:196,1,60.0000005960464,0|8,0:0|0:0,0:0:0:0:
440,132,162230,2,8,B|376:100,1,60.0000005960464,0|8,0:0|0:0,0:0:0:0:
332,72,162915,5,4,0:0:0:0:
272,72,163258,2,12,B|176:124|100:4|20:68,1,240.000002384186,8|12,0:0|0:0,0:0:0:0:
20,112,164973,1,8,0:0:0:0:
36,168,165315,1,8,0:0:0:0:
93,149,165658,5,4,0:0:0:0:
112,92,166001,1,8,0:0:0:0:
112,92,166344,2,4,B|172:72|236:96,2,120.000001192093
224,192,168401,2,4,B|348:192,1,120.000001192093
424,280,169773,6,4,B|368:312|304:276,2,120.000001192093
452,228,171487,1,0,0:0:0:0:
456,168,171830,2,4,B|400:136|336:168,2,120.000001192093
400,276,173887,1,4,0:0:0:0:
256,192,174230,12,0,176544,0:0:0:0:
40,192,177315,6,0,B|52:156|78:126|112:124|140:128|144:136,2,120.000001192093
40,252,179029,1,8,0:0:0:0:
82,294,179372,1,0,0:0:0:0:
135,266,179715,1,8,0:0:0:0:
184,232,180057,6,0,B|248:216|292:284|364:256,2,180.000001788139,0|8|0,0:0|0:0|0:0,0:0:0:0:
124,244,182457,1,8,0:0:0:0:
72,216,182800,6,0,B|64:176|80:136|112:120|140:112,1,120.000001192093,4|0,0:0|0:0,0:0:0:0:
179,96,183829,1,8,0:0:0:0:
232,68,184172,2,0,B|293:53|359:73,2,120.000001192093
180,96,185886,5,8,0:0:0:0:
148,148,186229,1,0,0:0:0:0:
188,192,186572,1,8,0:0:0:0:
236,228,186915,2,0,B|280:348,1,120.000001192093,4|8,0:0|0:0,0:0:0:0:
328,368,187943,1,8,0:0:0:0:
376,332,188286,1,4,0:0:0:0:
256,268,188972,5,8,0:0:0:0:
164,192,189657,2,0,B|220:160|287:190,2,120.000001192093
120,232,191372,5,8,0:0:0:0:
64,256,191715,1,0,0:0:0:0:
20,216,192057,1,8,0:0:0:0:
72,184,192400,2,0,B|80:124|132:112|156:120|176:128,1,120.000001192093
216,136,193429,5,8,0:0:0:0:
268,164,193772,2,0,B|328:184|392:168,2,120.000001192093
328,96,195657,6,4,B|328:248,1,150.000001490116
208,252,197200,2,0,L|208:360,1,90.0000008940696,4|4,0:0|0:0,0:0:0:0:
256,136,198915,5,8,0:0:0:0:
256,196,199257,2,0,B|372:244,1,120.000001192093,4|0,0:0|0:0,0:0:0:0:
419,270,200286,2,8,B|480:288|520:216,2,120.000001192093
364,244,202000,6,0,B|312:284,1,60.0000005960464,0|8,0:0|0:0,0:0:0:0:
260,304,202686,2,0,B|228:316|200:308,1,60.0000005960464,0|8,0:0|0:0,0:0:0:0:
148,284,203372,2,4,B|88:248|24:284,2,120.000001192093,4|4|4,0:0|0:0|0:0,0:0:0:0:
256,335,205429,5,4,0:0:0:0:
375,316,206115,1,4,0:0:0:0:
379,197,206800,1,4,0:0:0:0:
336,88,207486,2,0,B|272:64|232:112|232:112|176:168|120:136,1,240.000002384186,0|4,0:0|0:0,0:0:0:0:
256,336,210229,6,0,L|256:232,2,90.0000008940696,8|8|8,0:0|0:0|0:0,0:0:0:0:
311,358,211600,2,0,P|352:360|437:249,1,180.000001788139,4|8,0:0|0:0,0:0:0:0:
456,207,212972,2,0,B|464:171|448:139|408:123,2,90.0000008940696,0|2|8,0:0|0:0|0:0,0:0:0:0:
400,228,214343,6,0,B|368:288,1,60.0000005960464,8|8,0:0|0:0,0:0:0:0:
322,315,215029,2,0,B|294:331|266:315,1,60.0000005960464,0|8,0:0|0:0,0:0:0:0:
222,271,215715,2,0,B|194:263|174:299|130:279,2,90.0000008940696,0|2|8,0:0|0:0|0:0,0:0:0:0:
267,232,217086,1,4,0:0:0:0:
256,192,217429,12,4,219829,0:0:0:0:
