osu file format v12

[General]
AudioFilename: K-ON!! - Listen [ED1].mp3
AudioLeadIn: 1000
PreviewTime: 44973
Countdown: 0
SampleSet: Normal
StackLeniency: 0.7
Mode: 0
LetterboxInBreaks: 0

[Editor]
Bookmarks: 12058,44973,46687,47373,75144,83373,116287,139601,154687,177315,208857
DistanceSpacing: 0.9
BeatDivisor: 4
GridSize: 8

[Metadata]
Title:Listen!!
TitleUnicode:Listen!!
Artist:Hikasa Yoko
ArtistUnicode:日笠 陽子
Creator:CDFA
Version:Collab
Source:K-ON!!
Tags:OzzyOzrock -kevincela- Lybydose Lizzehb Lilac MarioBros777 Kurisuchianu Lunah LoweH Derekku SuperMICrophone lesslunatic
BeatmapID:83603
BeatmapSetID:24610

[Difficulty]
HPDrainRate:7
CircleSize:4
OverallDifficulty:7
ApproachRate:8
SliderMultiplier:2.1
SliderTickRate:1

[Events]
//Background and Video events
0,0,"Strawberry-5-k-on-14626929-1024-768.jpg",0,0
//Break Periods
2,75344,82451
2,139801,148451
//Storyboard Layer 0 (Background)
//Storyboard Layer 1 (Fail)
//Storyboard Layer 2 (Pass)
//Storyboard Layer 3 (Foreground)
Sprite,Foreground,Centre,"Storyboard\Lybydose.png",320,240 S,0,11899,12058,2,1 M,0,12058,44630,453,120 S,0,44630,44801,1,0
Sprite,Foreground,Centre,"Storyboard\Lilac.png",320,240 S,0,83201,83373,2,1 M,0,83373,115944,453,120 S,0,115944,116115,1,0
Sprite,Foreground,Centre,"Storyboard\Derekku.png",320,240 S,0,177144,177315,2,1 M,0,177315,208515,453,120 S,0,208515,208686,1,0
Sprite,Foreground,Centre,"Storyboard\Lunah.png",320,240 S,0,154515,154687,2,1 M,0,154687,176372,453,120 S,0,176372,176544,1,0
Sprite,Foreground,Centre,"Storyboard\BassChan.png",320,240 S,0,44801,44973,2,1 M,0,44973,74973,453,120 S,0,74973,75144,1,0
Sprite,Foreground,Centre,"Storyboard\CDFA.png",320,240 S,0,208686,208857,2,1 M,0,208857,219657,453,120 S,0,219657,219829,1,0
Sprite,Foreground,Centre,"Storyboard\Kurisuchianu.png",320,240 S,0,116115,116287,2,1 M,0,116287,138058,453,120 S,0,138058,138229,1,0
//Storyboard Sound Samples
//Background Colour Transformations
3,100,163,162,255

[TimingPoints]
1087,342.857142857143,4,1,1,70,1,0
13000,-100,4,1,2,70,0,0
13171,-100,4,1,2,70,0,0
13944,-100,4,2,1,80,0,0
14458,-100,4,1,2,61,0,0
16598,-100,4,2,1,80,0,0
17115,-100,4,1,2,70,0,0
22087,-100,4,2,1,81,0,0
22773,-100,4,1,2,70,0,0
24915,-100,4,2,1,80,0,0
25430,-100,4,1,2,70,0,0
27658,-100,4,2,1,80,0,0
28173,-100,4,1,2,70,0,0
33915,-100,4,1,1,60,0,0
36915,-100,4,1,0,70,0,0
39401,-100,4,1,1,60,0,0
42401,-100,4,1,1,70,0,0
44971,-100,4,1,1,70,0,1
55857,-100,4,1,1,70,0,0
55943,-100,4,1,1,70,0,1
66828,-100,4,1,1,70,0,0
66914,-100,4,1,1,70,0,1
72314,-100,4,1,1,70,0,0
72400,-100,4,1,1,70,0,1
72486,-100,4,1,1,70,0,0
72487,-100,4,2,1,70,0,0
74373,-100,4,1,2,70,0,0
75058,-100,4,1,1,70,0,0
116286,-100,4,1,1,70,0,1
127171,-100,4,1,1,70,0,0
127257,-100,4,1,1,70,0,1
138228,-100,4,1,1,70,0,0
163387,-100,4,1,0,0,0,0
163473,-100,4,1,1,70,0,0
163944,-100,4,1,1,60,0,0
165658,-100,4,1,1,70,0,0
176287,-100,4,2,1,5,0,0
177315,342.857142857143,4,1,1,100,1,1
177400,-100,4,1,1,70,0,1
180057,-100,4,1,1,100,0,1
180143,-100,4,1,1,70,0,1
182800,-100,4,1,1,100,0,1
182886,-100,4,1,1,70,0,1
185543,-100,4,1,1,100,0,1
185629,-100,4,1,1,70,0,1
186743,-100,4,1,1,100,0,1
187086,-100,4,1,1,70,0,1
187429,-100,4,1,1,100,0,1
187515,-100,4,1,1,70,0,1
188200,-100,4,1,1,70,0,0
188286,-100,4,1,1,100,0,1
188372,-100,4,1,1,70,0,1
191029,-100,4,1,1,100,0,1
191115,-100,4,1,1,70,0,1
193772,-100,4,1,1,100,0,1
193857,-100,4,1,1,70,0,1
194972,-100,4,1,1,100,0,1
195057,-100,4,1,1,70,0,1
196515,-100,4,1,1,100,0,1
196600,-100,4,1,1,70,0,1
196772,-100,4,1,2,70,0,1
197715,-100,4,1,1,100,0,1
197800,-100,4,1,1,70,0,1
199172,-100,4,1,1,70,0,0
199257,-100,4,1,1,100,0,1
199343,-100,4,1,1,70,0,1
200629,-100,4,1,1,100,0,1
200715,-100,4,1,1,70,0,1
202000,-100,4,1,1,100,0,1
202086,-100,4,1,1,70,0,1
203372,-100,4,1,1,100,0,1
203457,-100,4,1,1,70,0,1
204743,-100,4,1,1,100,0,1
204829,-100,4,1,1,70,0,1
205429,-100,4,1,1,100,0,1
205515,-100,4,1,1,70,0,1
206115,-100,4,1,1,100,0,1
206200,-100,4,1,1,70,0,1
206800,-100,4,1,1,100,0,1
206886,-100,4,1,2,70,0,1
207486,-100,4,1,1,100,0,1
207572,-100,4,1,1,70,0,1
208515,-100,4,1,1,100,0,1
208772,-100,4,1,1,100,0,0
208857,-100,4,1,1,70,0,1
208943,-100,4,2,1,70,0,0
210143,-100,4,1,2,61,0,0
210314,-100,4,1,1,61,0,0
210657,-100,4,1,2,61,0,0
210828,-100,4,1,1,61,0,0

[Colours]
Combo1 : 58,58,58
Combo2 : 170,170,255
Combo3 : 223,223,255
Combo4 : 141,3,3

[HitObjects]
184,96,12058,2,0,B|142:58|82:48|33:85|14:139,2,210,6|2|4,0:0|0:0|0:0,0:0:0:0:
134,163,12915,1,0,0:0:0:0:
125,246,13087,1,8,0:0:0:0:
168,317,13258,1,0,0:0:0:0:
250,332,13429,1,0,0:0:0:0:
328,288,13601,2,0,B|370:326|430:336|479:299|498:245,1,210,0|4,0:0|0:0,0:0:0:0:
320,96,14287,1,4,0:0:0:0:
256,232,14629,5,0,0:0:0:0:
256,232,14801,2,0,B|256:24,2,210,2|2|2,0:0|0:0|0:0,0:0:0:0:
336,224,15658,1,0,0:0:0:0:
306,298,15829,2,0,B|248:327|194:292,1,105,8|0,0:0|0:0,0:0:0:0:
176,224,16172,1,0,0:0:0:0:
112,280,16344,1,0,0:0:0:0:
408,280,16687,1,4,0:0:0:0:
112,280,17029,1,4,0:0:0:0:
32,136,17372,5,0,0:0:0:0:
37,64,17544,2,0,B|109:80|113:136|109:192|37:208,1,210,2|2,0:0|0:0,0:0:0:0:
200,192,18229,1,0,0:0:0:0:
236,280,18401,1,0,0:0:0:0:
320,236,18572,1,8,0:0:0:0:
364,320,18744,1,0,0:0:0:0:
448,280,18915,1,2,0:0:0:0:
474,207,19087,2,0,B|403:192|399:136|403:80|475:64,2,210
448,280,19944,6,0,B|512:376,2,105,0|0|2,0:0|0:0|0:0,0:0:0:0:
392,344,20458,1,0,0:0:0:0:
312,320,20629,2,0,B|216:376|112:320,1,210,2|0,0:0|0:0,0:0:0:0:
112,224,21144,2,0,B|215:168|311:224,1,210,2|0,0:0|0:0,0:0:0:0:
216,272,21658,5,2,0:0:0:0:
216,272,21829,1,2,0:0:0:0:
120,40,22172,1,4,0:0:0:0:
392,40,22515,1,4,0:0:0:0:
432,112,22687,1,2,0:0:0:0:
408,192,22858,1,0,0:0:0:0:
328,224,23029,6,0,B|496:384,2,210,4|2|2,0:0|0:0|0:0,0:0:0:0:
256,168,23887,1,0,0:0:0:0:
256,168,24058,2,0,B|256:288,1,105,8|0,0:0|0:0,0:0:0:0:
184,224,24401,1,0,0:0:0:0:
184,224,24572,2,0,B|16:384,1,210,0|4,0:0|0:0,0:0:0:0:
256,376,25258,1,4,0:0:0:0:
472,192,25601,5,0,0:0:0:0:
430,118,25772,2,0,B|392:64|328:24|248:49,2,210,0|2|2,0:0|0:0|0:0,0:0:0:0:
384,192,26629,1,0,0:0:0:0:
296,192,26801,1,8,0:0:0:0:
216,144,26972,1,0,0:0:0:0:
216,240,27144,1,0,0:0:0:0:
248,334,27315,2,0,B|328:360|392:320|432:264,1,210,0|4,0:0|0:0,0:0:0:0:
256,40,28001,1,4,0:0:0:0:
104,120,28344,21,0,0:0:0:0:
64,192,28515,1,4,0:0:0:0:
64,192,28858,1,4,0:0:0:0:
64,192,29201,1,0,0:0:0:0:
80,276,29372,1,0,0:0:0:0:
140,332,29544,1,8,0:0:0:0:
224,348,29715,1,0,0:0:0:0:
308,336,29887,1,0,0:0:0:0:
255,272,30058,2,0,B|199:273|147:241|134:181|155:128,2,210
240,176,30915,1,0,0:0:0:0:
304,120,31087,1,0,0:0:0:0:
382,278,31258,6,0,B|312:200,1,105,2|0,0:0|0:0,0:0:0:0:
388,167,31601,2,0,B|409:114|396:54|344:22|288:24,1,210,2|0,0:0|0:0,0:0:0:0:
224,72,32115,2,0,B|120:136|16:72,1,210,2|0,0:0|0:0,0:0:0:0:
120,24,32629,1,2,0:0:0:0:
120,24,32801,2,0,B|120:240,1,210,2|4,0:0|0:0,0:0:0:0:
256,280,33487,1,4,0:0:0:0:
256,280,33572,1,0,0:0:0:0:
256,280,33658,1,10,0:0:0:0:
256,280,33829,1,8,0:0:0:0:
469,368,34001,5,12,0:0:0:0:
362,368,34172,1,8,0:0:0:0:
256,368,34344,1,8,0:0:0:0:
148,368,34515,1,8,0:0:0:0:
42,368,34687,1,12,0:0:0:0:
42,368,35029,5,12,0:0:0:0:
148,368,35201,1,8,0:0:0:0:
256,368,35372,1,8,0:0:0:0:
362,368,35544,1,8,0:0:0:0:
469,368,35715,1,12,0:0:0:0:
469,368,36058,5,12,0:0:0:0:
383,268,36229,1,8,0:0:0:0:
256,246,36401,1,8,0:0:0:0:
127,268,36572,1,8,0:0:0:0:
42,368,36744,1,14,0:0:0:0:
256,368,37086,5,2,0:0:0:0:
200,40,37429,1,0,0:0:0:0:
256,112,37601,1,0,0:0:0:0:
312,40,37772,1,2,0:0:0:0:
400,192,38115,1,2,0:0:0:0:
456,88,38286,2,0,B|512:191|456:287,1,210,2|4,0:0|0:0,0:0:0:0:
56,287,38972,2,2,B|0:191|56:88,1,210,6|0,0:0|0:0,0:0:0:0:
96,352,39486,5,12,0:0:0:0:
176,272,39658,1,8,0:0:0:0:
256,192,39829,1,8,0:0:0:0:
336,104,40001,1,8,0:0:0:0:
416,16,40172,1,12,0:0:0:0:
416,16,40515,5,12,0:0:0:0:
336,104,40686,1,8,0:0:0:0:
256,192,40858,1,8,0:0:0:0:
176,272,41029,1,8,0:0:0:0:
96,352,41201,1,12,0:0:0:0:
209,81,41544,5,12,0:0:0:0:
366,145,41715,1,8,0:0:0:0:
302,302,41886,1,8,0:0:0:0:
145,238,42058,1,8,0:0:0:0:
256,96,42229,1,12,0:0:0:0:
352,232,42401,1,0,0:0:0:0:
344,71,42572,6,0,B|312:24|256:0|199:24|169:71,1,210,8|0,0:0|0:0,0:0:0:0:
416,160,43086,1,0,0:0:0:0:
256,264,43258,1,2,0:0:0:0:
96,160,43429,1,4,0:0:0:0:
96,160,43772,1,4,0:0:0:0:
64,248,43944,1,0,0:0:0:0:
120,328,44115,1,0,0:0:0:0:
216,344,44286,2,0,B|296:336,3,52.5
296,296,44629,2,0,B|336:256,3,52.5
376,280,44972,6,0,B|456:264|496:160|448:72,1,210,4|8,0:0|0:0,0:0:0:0:
384,160,45486,1,0,0:0:0:0:
296,128,45658,1,0,0:0:0:0:
200,136,45829,2,0,B|216:56|320:16|408:64,1,210,4|0,0:0|0:0,0:0:0:0:
456,80,46344,1,0,0:0:0:0:
440,176,46515,1,0,0:0:0:0:
408,264,46686,1,8,0:0:0:0:
360,344,46858,2,2,B|360:328|360:328|344:328|344:328|344:344|344:344|328:344|328:344|328:328|328:328|312:328|312:328|312:344|312:344|296:344|296:344|296:328|296:328|280:328|280:328|280:344|280:344|264:344|264:344|264:328|264:328|248:328|248:328|248:344|248:344|232:344|232:344,1,210
176,288,47372,2,0,B|96:216,1,105,8|0,0:0|0:0,0:0:0:0:
96,120,47715,5,4,0:0:0:0:
184,152,47886,2,0,B|264:224,1,105,0|8,0:0|0:0,0:0:0:0:
328,136,48229,1,0,0:0:0:0:
400,200,48401,2,0,B|504:272,1,105
328,136,48915,1,6,0:0:0:0:
160,72,49258,2,2,B|32:160|184:264,1,210
328,312,49944,5,0,0:0:0:0:
264,248,50115,1,8,0:0:0:0:
192,312,50286,1,0,0:0:0:0:
128,248,50458,2,0,B|40:168,2,105,4|0|8,0:0|0:0|0:0,0:0:0:0:
152,152,50972,1,0,0:0:0:0:
248,168,51144,2,0,B|328:96,1,105,0|2,0:0|0:0,0:0:0:0:
400,272,51658,5,2,0:0:0:0:
80,48,52001,1,2,0:0:0:0:
176,48,52172,1,8,0:0:0:0:
248,112,52344,2,0,B|264:112|264:112|264:128|264:128|248:128|248:128|248:144|248:144|264:144|264:144|264:160|264:160|248:160|248:160|248:176|248:176|264:176|264:176|264:192|264:192|248:192|248:192|248:208|248:208|264:208,1,210
360,192,52858,6,0,B|360:312|216:312,1,210,8|0,0:0|0:0,0:0:0:0:
152,248,53372,2,0,B|56:184,1,105,0|8,0:0|0:0,0:0:0:0:
48,88,53715,1,0,0:0:0:0:
144,88,53886,1,0,0:0:0:0:
200,168,54058,1,0,0:0:0:0:
88,320,54401,5,2,0:0:0:0:
416,80,54744,1,2,0:0:0:0:
64,240,55086,1,2,0:0:0:0:
256,248,55429,2,0,B|256:192,2,52.5,0|8|0,0:0|0:0|0:0,0:0:0:0:
256,344,55772,1,0,0:0:0:0:
336,296,55944,5,4,0:0:0:0:
408,240,56115,1,0,0:0:0:0:
415,146,56286,1,8,0:0:0:0:
408,240,56458,2,0,B|368:128|232:144,1,210
239,237,56972,1,8,0:0:0:0:
255,332,57144,2,0,P|346:332|408:237,1,210
415,146,57658,1,8,0:0:0:0:
415,146,57829,1,0,0:0:0:0:
164,302,58172,1,0,0:0:0:0:
164,302,58344,1,8,0:0:0:0:
304,152,58686,6,0,B|304:40,2,105,0|0|8,0:0|0:0|0:0,0:0:0:0:
256,248,59201,2,2,B|382:263|422:151,1,210
256,248,59886,2,2,B|216:136|80:152,1,210
64,240,60401,2,0,B|2:219|2:163,2,105,8|0|0,0:0|0:0|0:0,0:0:0:0:
248,296,61086,5,8,0:0:0:0:
168,248,61258,1,0,0:0:0:0:
256,208,61429,1,4,0:0:0:0:
120,120,61772,2,0,B|208:48|336:104,1,210,8|0,0:0|0:0,0:0:0:0:
224,168,62286,1,0,0:0:0:0:
168,248,62458,1,8,0:0:0:0:
136,336,62629,2,0,B|232:400|336:336,1,210
408,272,63144,1,8,0:0:0:0:
455,189,63315,5,4,0:0:0:0:
288,96,63658,2,0,B|232:64|184:96,1,105,0|4,0:0|0:0,0:0:0:0:
232,176,64001,2,0,B|176:208|128:176,1,105,0|4,0:0|0:0,0:0:0:0:
256,192,64344,12,4,65372,0:0:0:0:
264,192,65715,5,0,0:0:0:0:
344,136,65886,1,0,0:0:0:0:
355,232,66058,1,4,0:0:0:0:
224,80,66401,1,0,0:0:0:0:
152,16,66572,1,8,0:0:0:0:
64,56,66744,1,0,0:0:0:0:
137,114,66915,1,4,0:0:0:0:
72,272,67258,2,12,B|192:352|320:192|489:255,1,420
352,144,68286,6,0,B|240:104,1,105,4|0,0:0|0:0,0:0:0:0:
256,200,68629,2,0,B|144:240,1,105,12|0,0:0|0:0,0:0:0:0:
152,328,68972,2,0,B|40:288,1,105,4|0,0:0|0:0,0:0:0:0:
5,211,69315,1,10,0:0:0:0:
5,116,69486,1,0,0:0:0:0:
99,114,69658,2,0,B|99:218,2,105,0|0|8,0:0|0:0|0:0,0:0:0:0:
264,64,70344,6,0,B|360:160|232:248,1,210,0|8,0:0|0:0,0:0:0:0:
224,144,70858,1,0,0:0:0:0:
176,144,70944,1,8,0:0:0:0:
128,144,71029,1,0,0:0:0:0:
104,48,71201,2,0,B|40:64|24:136,1,105,0|8,0:0|0:0,0:0:0:0:
56,208,71544,1,0,0:0:0:0:
120,280,71715,1,0,0:0:0:0:
216,280,71886,1,0,0:0:0:0:
120,280,72058,1,8,0:0:0:0:
56,208,72229,1,0,0:0:0:0:
56,208,72315,1,8,0:0:0:0:
56,208,72401,1,4,0:0:0:0:
152,192,72572,6,0,B|232:120,1,105,0|2,0:0|0:0,0:0:0:0:
312,168,72915,1,0,0:0:0:0:
376,240,73086,1,0,0:0:0:0:
432,160,73258,2,0,B|368:64,1,105,0|2,0:0|0:0,0:0:0:0:
184,64,73772,1,0,0:0:0:0:
112,128,73944,1,0,0:0:0:0:
112,224,74115,2,0,B|112:352,1,105,2|0,0:0|0:0,0:0:0:0:
192,272,74458,5,8,0:0:0:0:
224,240,74544,1,8,0:0:0:0:
256,208,74629,1,8,0:0:0:0:
320,144,74801,1,8,0:0:0:0:
360,168,74886,1,8,0:0:0:0:
400,192,74972,1,8,0:0:0:0:
472,248,75144,1,4,0:0:0:0:
96,64,83201,5,0,0:0:0:0:
144,144,83372,2,0,B|280:144,1,105,4|0,0:0|0:0,0:0:0:0:
336,232,83715,2,0,B|216:232,1,105,8|0,0:0|0:0,0:0:0:0:
112,264,84058,5,0,0:0:0:0:
168,336,84229,1,0,0:0:0:0:
256,360,84401,1,8,0:0:0:0:
344,328,84572,1,0,0:0:0:0:
408,264,84744,2,0,B|472:232|456:152,1,105
400,112,85086,1,8,0:0:0:0:
328,56,85258,2,0,B|264:24|152:48|152:152,2,210
304,144,86115,6,0,B|304:256,1,105,4|0,0:0|0:0,0:0:0:0:
216,336,86458,2,0,B|216:224,1,105,8|0,0:0|0:0,0:0:0:0:
208,136,86801,2,0,P|168:56|56:48,1,210,0|8,0:0|0:0,0:0:0:0:
8,128,87315,1,0,0:0:0:0:
40,224,87487,1,0,0:0:0:0:
40,224,87658,1,0,0:0:0:0:
256,224,88001,5,2,0:0:0:0:
472,224,88344,1,2,0:0:0:0:
408,48,88687,5,0,0:0:0:0:
300,47,88858,2,0,B|280:11|209:12|201:77,1,105,4|0,0:0|0:0,0:0:0:0:
212,141,89201,2,0,B|232:177|303:176|311:111,1,105,8|0,0:0|0:0,0:0:0:0:
352,224,89544,1,0,0:0:0:0:
296,296,89715,1,0,0:0:0:0:
224,240,89887,1,8,0:0:0:0:
168,312,90058,1,0,0:0:0:0:
72,232,90229,6,0,B|16:192|32:120,1,105,4|0,0:0|0:0,0:0:0:0:
28,142,90744,1,4,0:0:0:0:
184,32,91087,1,0,0:0:0:0:
256,88,91258,1,8,0:0:0:0:
328,32,91429,1,0,0:0:0:0:
360,168,91601,2,4,B|120:168,2,210
256,328,92629,1,8,0:0:0:0:
182,309,92801,6,0,B|184:253|260:220|337:252|333:336,2,210,0|0|2,0:0|0:0|0:0,0:0:0:0:
216,88,93829,1,2,0:0:0:0:
256,152,94001,1,8,0:0:0:0:
296,88,94172,1,0,0:0:0:0:
376,40,94344,6,0,B|440:40|488:112,1,105
352,112,94687,2,0,B|416:112|464:184,1,105,8|0,0:0|0:0,0:0:0:0:
448,248,95029,1,0,0:0:0:0:
392,328,95201,1,0,0:0:0:0:
320,264,95372,1,8,0:0:0:0:
256,336,95544,1,0,0:0:0:0:
168,368,95715,2,0,B|56:384|-24:248|64:144,1,315,0|2,0:0|0:0,0:0:0:0:
256,40,96572,5,2,0:0:0:0:
256,40,96658,1,2,0:0:0:0:
256,40,96744,1,10,0:0:0:0:
312,111,96915,5,0,0:0:0:0:
313,111,97001,1,0,0:0:0:0:
312,112,97087,2,0,B|392:192,1,105
296,216,97429,2,0,B|384:312,1,105,8|0,0:0|0:0,0:0:0:0:
440,232,97772,2,0,B|504:304|440:408|336:360,1,210,0|8,0:0|0:0,0:0:0:0:
256,352,98287,1,0,0:0:0:0:
160,360,98458,2,0,B|96:352|72:288,1,105
152,64,98972,2,2,B|256:16|256:104|368:48,2,210
200,144,99829,5,4,0:0:0:0:
312,144,100001,1,0,0:0:0:0:
152,216,100172,1,8,0:0:0:0:
360,216,100344,1,0,0:0:0:0:
212,301,100515,2,0,B|258:351|300:301,3,105,0|0|8|0,0:0|0:0|0:0|0:0,0:0:0:0:
384,336,101201,5,0,0:0:0:0:
384,336,101372,1,0,0:0:0:0:
128,48,101715,1,0,0:0:0:0:
400,48,102058,1,0,0:0:0:0:
328,128,102229,1,8,0:0:0:0:
256,192,102401,1,0,0:0:0:0:
176,256,102572,2,0,B|232:360|352:368,3,210,0|8|0|8,0:0|0:0|0:0|0:0,0:0:0:0:
432,328,103772,1,0,0:0:0:0:
472,240,103944,5,0,0:0:0:0:
456,200,104029,1,0,0:0:0:0:
416,184,104115,1,0,0:0:0:0:
376,208,104201,1,0,0:0:0:0:
352,248,104287,1,8,0:0:0:0:
304,264,104372,1,0,0:0:0:0:
256,248,104458,1,0,0:0:0:0:
240,200,104544,2,0,B|296:152,5,52.5,0|0|0|0|0|8,0:0|0:0|0:0|0:0|0:0|0:0,0:0:0:0:
184,16,105315,5,2,0:0:0:0:
320,16,105487,1,2,0:0:0:0:
152,88,105658,1,2,0:0:0:0:
360,88,105829,1,2,0:0:0:0:
256,152,106001,1,2,0:0:0:0:
184,368,106344,5,2,0:0:0:0:
320,368,106515,1,2,0:0:0:0:
152,296,106687,1,2,0:0:0:0:
360,296,106858,1,2,0:0:0:0:
256,232,107029,1,2,0:0:0:0:
448,192,107372,6,2,B|320:192,1,105
64,192,107715,2,2,B|192:192,1,105
256,192,108058,1,6,0:0:0:0:
256,192,108401,1,8,0:0:0:0:
333,80,108744,6,0,B|324:18|257:0|184:17|180:96,1,210,0|8,0:0|0:0,0:0:0:0:
256,352,109429,2,0,B|256:240,1,105
72,192,109944,1,2,0:0:0:0:
256,136,110287,1,2,0:0:0:0:
440,192,110629,1,2,0:0:0:0:
440,192,110801,5,2,0:0:0:0:
408,280,110972,1,2,0:0:0:0:
320,240,111144,1,2,0:0:0:0:
256,312,111315,1,2,0:0:0:0:
256,312,111487,1,2,0:0:0:0:
72,192,111829,5,2,0:0:0:0:
104,104,112001,1,2,0:0:0:0:
192,144,112172,1,2,0:0:0:0:
256,72,112344,1,2,0:0:0:0:
256,72,112515,1,2,0:0:0:0:
432,144,112858,6,2,B|464:176|464:224|416:256,1,105
384,312,113201,2,2,B|336:352|272:344,1,105
216,288,113544,2,0,B|168:224|248:136|320:184,2,210,4|8|0,0:0|0:0|0:0,0:0:0:0:
288,256,114401,1,0,0:0:0:0:
288,256,114572,1,8,0:0:0:0:
288,256,114744,2,2,B|168:184|208:-8|392:-16|448:96,1,420,6|2,0:0|0:0,0:0:0:0:
434,74,115601,1,0,0:0:0:0:
432,168,115772,5,0,0:0:0:0:
389,184,115858,1,0,0:0:0:0:
373,232,115944,1,8,0:0:0:0:
390,272,116029,1,0,0:0:0:0:
430,287,116115,1,0,0:0:0:0:
478,273,116201,1,0,0:0:0:0:
496,232,116287,6,10,P|488:112|400:88,1,210,6|8,0:0|0:0,0:0:0:0:
389,184,116801,2,0,P|344:264|224:216,1,210,0|0,0:0|0:0,0:0:0:0:
304,176,117315,1,8,0:0:0:0:
352,96,117487,2,2,P|260:86|204:182,1,210
168,264,118001,1,8,0:0:0:0:
160,360,118172,2,2,P|72:280|104:192,1,210
208,96,118687,1,8,0:0:0:0:
320,208,118858,1,8,0:0:0:0:
408,248,119029,6,2,B|368:288|368:288|312:296,1,105
256,368,119372,1,8,0:0:0:0:
200,296,119544,2,2,B|144:296|96:320|96:320|136:280|152:216,1,210
64,184,120058,1,8,0:0:0:0:
144,128,120229,2,2,B|116:79|71:49|71:49|125:64|189:46,1,210
256,120,120744,1,8,0:0:0:0:
368,128,120915,2,2,B|396:79|441:49|441:49|387:64|340:50,1,210
192,192,121429,1,8,0:0:0:0:
368,304,121601,1,8,0:0:0:0:
440,248,121772,6,0,P|336:216|272:280,1,210,0|8,0:0|0:0,0:0:0:0:
496,200,122287,2,2,P|352:136|304:152,1,210
208,256,122801,1,8,0:0:0:0:
96,320,122972,2,2,B|152:304|152:304|120:256|152:208|152:208|80:192,1,210
208,256,123487,1,8,0:0:0:0:
320,320,123658,2,2,B|264:304|264:304|296:256|264:208|264:208|311:197,1,210
448,192,124172,1,8,0:0:0:0:
376,88,124344,1,8,0:0:0:0:
256,112,124515,6,0,P|184:112|144:152,2,105,0|0|8,0:0|0:0|0:0,0:0:0:0:
224,200,125029,2,2,P|232:248|368:304,1,210
320,216,125544,1,8,0:0:0:0:
416,232,125715,2,2,P|408:184|274:127,1,210
176,120,126229,2,8,P|136:80|112:24,2,105
96,168,126744,1,0,0:0:0:0:
69,212,126829,1,0,0:0:0:0:
36,243,126915,1,8,0:0:0:0:
81,271,127001,1,8,0:0:0:0:
123,302,127086,1,8,0:0:0:0:
158,341,127172,1,8,0:0:0:0:
200,360,127258,6,2,B|216:384|248:384|248:384|296:384|320:336|400:368,1,210,4|8,0:0|0:0,0:0:0:0:
328,288,127772,2,2,P|366:205|474:200,1,210
259,287,128286,1,8,0:0:0:0:
319,151,128458,2,2,P|353:124|510:135,1,210
426,277,128972,1,8,0:0:0:0:
474,200,129144,2,2,P|366:205|328:288,1,210
319,151,129658,1,8,0:0:0:0:
136,120,130001,6,2,B|72:144|72:144|32:136,2,105,0|0|8,0:0|0:0|0:0,0:0:0:0:
72,56,130515,2,2,P|160:24|272:88,1,210,2|2,0:0|0:0,0:0:0:0:
176,160,131029,1,8,0:0:0:0:
312,152,131201,2,2,P|288:240|176:256,1,210
176,160,131715,1,8,0:0:0:0:
53,152,131887,2,2,P|77:240|182:259,1,210
288,237,132401,5,8,0:0:0:0:
177,349,132572,1,8,0:0:0:0:
336,352,132744,2,0,B|392:312|392:312|480:320|504:240,1,210,0|8,0:0|0:0,0:0:0:0:
408,216,133258,2,0,P|424:144|408:64,1,105,2|8,0:0|0:0,0:0:0:0:
336,152,133601,1,2,0:0:0:0:
350,49,133772,1,8,0:0:0:0:
264,88,133944,2,4,B|200:38|136:94|136:94|105:31,1,210
0,56,134458,1,8,0:0:0:0:
16,152,134629,2,0,P|72:240|184:232,1,210,2|2,0:0|0:0,0:0:0:0:
264,240,135144,1,8,0:0:0:0:
264,240,135315,1,8,0:0:0:0:
360,256,135487,5,4,0:0:0:0:
360,256,135658,2,10,L|432:168,1,105
392,336,136001,1,0,0:0:0:0:
392,336,136172,2,10,L|504:272,1,105
496,208,136515,1,0,0:0:0:0:
384,112,136687,1,12,0:0:0:0:
256,192,136858,12,4,139601,0:0:0:0:
256,192,149201,12,8,154344,0:0:0:0:
64,312,154687,5,4,0:0:0:0:
448,312,155029,1,8,0:0:0:0:
256,32,155372,1,0,0:0:0:0:
208,112,155544,1,0,0:0:0:0:
304,112,155715,1,8,0:0:0:0:
400,112,155887,2,0,B|456:112|496:184|456:256|392:256,1,210,0|0,0:0|0:0,0:0:0:0:
304,256,156401,5,8,0:0:0:0:
208,256,156572,1,0,0:0:0:0:
112,256,156744,1,0,0:0:0:0:
160,176,156915,1,0,0:0:0:0:
208,256,157087,1,8,0:0:0:0:
304,256,157258,5,0,0:0:0:0:
304,256,157344,1,0,0:0:0:0:
304,256,157429,1,0,0:0:0:0:
400,256,157601,1,0,0:0:0:0:
400,256,157772,2,0,B|424:200|408:144,1,105,8|0,0:0|0:0,0:0:0:0:
256,40,158115,2,0,B|232:96|248:152,1,105
96,256,158458,2,0,B|72:200|88:144,1,105,8|0,0:0|0:0,0:0:0:0:
24,88,158801,5,0,0:0:0:0:
32,56,158887,1,0,0:0:0:0:
48,32,158972,1,0,0:0:0:0:
80,16,159058,1,0,0:0:0:0:
112,16,159144,1,8,0:0:0:0:
144,16,159229,1,0,0:0:0:0:
168,32,159315,1,0,0:0:0:0:
184,64,159401,1,0,0:0:0:0:
192,96,159487,5,0,0:0:0:0:
208,128,159572,1,0,0:0:0:0:
240,144,159658,1,0,0:0:0:0:
272,144,159744,1,0,0:0:0:0:
296,128,159829,1,8,0:0:0:0:
312,104,159915,1,0,0:0:0:0:
344,88,160001,1,0,0:0:0:0:
376,88,160087,1,0,0:0:0:0:
400,104,160172,5,4,0:0:0:0:
456,200,160344,1,0,0:0:0:0:
432,296,160515,2,0,B|376:280|376:312|312:296,1,105,8|0,0:0|0:0,0:0:0:0:
80,296,160858,2,0,B|136:280|136:312|200:296,1,105,0|0,0:0|0:0,0:0:0:0:
256,240,161201,2,0,B|224:192|296:192|256:144,1,105,8|0,0:0|0:0,0:0:0:0:
200,72,161544,6,0,B|136:72|120:128,1,105,0|0,0:0|0:0,0:0:0:0:
320,72,161887,2,0,B|384:72|400:128,1,105,8|0,0:0|0:0,0:0:0:0:
312,184,162229,2,0,B|376:184|392:240,1,105,0|0,0:0|0:0,0:0:0:0:
200,184,162572,2,0,B|136:184|120:240,1,105,8|0,0:0|0:0,0:0:0:0:
66,316,162915,5,0,0:0:0:0:
170,323,163087,2,0,B|218:259|218:411|258:315|258:315|458:315,1,315,2|2,0:0|0:0,0:0:0:0:
400,192,163944,6,0,B|424:144,3,52.5,8|0|0|0,0:0|0:0|0:0|0:0,0:0:0:0:
424,96,164287,2,0,B|392:48,3,52.5
344,56,164629,2,0,B|272:56,3,52.5,8|0|0|0,0:0|0:0|0:0|0:0,0:0:0:0:
248,56,164972,2,0,B|176:88,3,52.5
160,104,165315,2,0,B|112:176,4,52.5,8|0|0|0|12,0:0|0:0|0:0|0:0|0:0,0:0:0:0:
160,240,165829,5,0,0:0:0:0:
200,328,166001,2,0,B|304:328,1,105,8|0,0:0|0:0,0:0:0:0:
440,224,166344,2,0,B|320:224,1,105,8|0,0:0|0:0,0:0:0:0:
192,128,166687,2,0,B|296:128,1,105,8|0,0:0|0:0,0:0:0:0:
424,16,167029,6,0,B|304:16,1,105,8|0,0:0|0:0,0:0:0:0:
152,16,167372,2,0,B|80:16|80:96,1,105,8|0,0:0|0:0,0:0:0:0:
248,104,167715,2,0,B|320:104|320:184,1,105,8|0,0:0|0:0,0:0:0:0:
152,208,168058,2,0,B|64:280,1,105,8|0,0:0|0:0,0:0:0:0:
248,296,168401,6,0,B|256:360|328:368,1,105,8|0,0:0|0:0,0:0:0:0:
344,200,168744,2,0,B|408:208|408:272,2,105,8|0|8,0:0|0:0|0:0,0:0:0:0:
192,128,169258,1,0,0:0:0:0:
336,40,169429,6,0,B|472:40,1,105,8|0,0:0|0:0,0:0:0:0:
440,208,169772,1,8,0:0:0:0:
352,352,169944,1,0,0:0:0:0:
184,352,170115,1,8,0:0:0:0:
72,208,170287,1,0,0:0:0:0:
176,80,170458,6,0,B|224:192,1,105,8|0,0:0|0:0,0:0:0:0:
336,80,170801,2,0,B|288:192,1,105,8|0,0:0|0:0,0:0:0:0:
256,264,171144,5,12,0:0:0:0:
256,264,171315,1,0,0:0:0:0:
400,264,171487,1,8,0:0:0:0:
400,264,171658,1,0,0:0:0:0:
456,128,171829,5,8,0:0:0:0:
456,128,172001,1,0,0:0:0:0:
328,48,172172,1,8,0:0:0:0:
328,48,172344,1,0,0:0:0:0:
200,128,172515,5,12,0:0:0:0:
200,128,172687,1,0,0:0:0:0:
256,264,172858,2,0,B|144:264,1,105,8|0,0:0|0:0,0:0:0:0:
400,264,173201,6,0,B|528:264,1,105,8|0,0:0|0:0,0:0:0:0:
320,184,173544,2,0,B|336:128|280:96,1,105,8|0,0:0|0:0,0:0:0:0:
200,56,173887,5,12,0:0:0:0:
120,152,174058,1,0,0:0:0:0:
200,248,174229,1,8,0:0:0:0:
280,152,174401,1,0,0:0:0:0:
368,56,174572,1,8,0:0:0:0:
456,152,174744,1,0,0:0:0:0:
368,248,174915,1,8,0:0:0:0:
280,152,175087,1,0,0:0:0:0:
200,248,175258,1,8,0:0:0:0:
256,192,175344,12,0,176544,0:0:0:0:
300,192,177315,5,4,0:0:0:0:
16,120,177657,1,8,0:0:0:0:
16,264,177829,1,0,0:0:0:0:
308,120,178172,2,0,B|348:128|376:152|388:192|376:232|348:256|308:264,3,210
16,120,179543,1,0,0:0:0:0:
84,252,179715,1,8,0:0:0:0:
220,192,179886,1,0,0:0:0:0:
256,48,180057,5,4,0:0:0:0:
292,192,180229,1,0,0:0:0:0:
428,252,180400,1,8,0:0:0:0:
496,120,180572,1,0,0:0:0:0:
204,264,180915,2,0,B|164:256|136:232|124:192|136:152|164:128|204:120,3,210
496,264,182286,1,0,0:0:0:0:
428,132,182457,1,8,0:0:0:0:
292,192,182629,1,0,0:0:0:0:
256,204,182715,1,0,0:0:0:0:
220,192,182800,5,4,0:0:0:0:
256,48,182972,1,0,0:0:0:0:
292,192,183143,1,8,0:0:0:0:
256,336,183315,2,0,B|218:296|158:312|158:312|142:252|89:240,1,210
20,116,183829,1,8,0:0:0:0:
160,76,184000,2,0,B|212:92|256:48|256:48|300:92|352:76,1,210
492,116,184515,1,8,0:0:0:0:
421,240,184686,2,0,B|369:252|353:312|353:312|293:296|256:336,1,210
220,192,185200,1,8,0:0:0:0:
256,48,185372,1,0,0:0:0:0:
256,48,185457,1,0,0:0:0:0:
256,48,185543,5,4,0:0:0:0:
292,192,185715,1,0,0:0:0:0:
420,240,185886,1,8,0:0:0:0:
400,100,186057,1,0,0:0:0:0:
112,100,186400,1,0,0:0:0:0:
220,192,186571,1,8,0:0:0:0:
92,240,186742,1,0,0:0:0:0:
256,48,187086,1,4,0:0:0:0:
420,240,187429,1,4,0:0:0:0:
92,240,187772,1,0,0:0:0:0:
116,256,187857,1,0,0:0:0:0:
144,272,187943,1,8,0:0:0:0:
172,288,188029,1,0,0:0:0:0:
200,304,188115,1,0,0:0:0:0:
228,320,188200,1,0,0:0:0:0:
256,336,188286,5,4,0:0:0:0:
388,284,188457,1,0,0:0:0:0:
428,148,188629,1,8,0:0:0:0:
328,48,188800,2,0,B|320:88|296:116|256:128|216:116|192:88|184:48,4,210
327,335,190515,1,0,0:0:0:0:
428,236,190686,1,8,0:0:0:0:
388,100,190857,1,0,0:0:0:0:
256,48,191029,5,4,0:0:0:0:
124,100,191200,1,0,0:0:0:0:
84,236,191372,1,8,0:0:0:0:
184,336,191543,2,0,B|192:296|216:268|256:256|296:268|320:296|328:336,4,210
184,48,193257,1,0,0:0:0:0:
84,148,193429,1,8,0:0:0:0:
124,284,193600,1,0,0:0:0:0:
256,336,193772,5,4,0:0:0:0:
404,80,194115,1,8,0:0:0:0:
108,80,194457,1,0,0:0:0:0:
200,144,194629,1,0,0:0:0:0:
312,144,194800,1,8,0:0:0:0:
404,80,194972,5,4,0:0:0:0:
200,292,195315,1,0,0:0:0:0:
312,292,195486,1,8,0:0:0:0:
256,384,195657,1,0,0:0:0:0:
256,0,196000,1,0,0:0:0:0:
312,92,196171,1,8,0:0:0:0:
200,92,196342,1,0,0:0:0:0:
108,96,196515,6,0,B|64:248|148:364|256:388|256:388|364:364|448:248|404:96,1,735,4|4,0:0|0:0,0:0:0:0:
256,336,198057,1,0,0:0:0:0:
256,232,198229,1,0,0:0:0:0:
304,132,198400,1,0,0:0:0:0:
256,336,198743,1,0,0:0:0:0:
256,232,198915,1,0,0:0:0:0:
208,132,199086,1,0,0:0:0:0:
72,112,199257,5,4,0:0:0:0:
208,40,199429,1,0,0:0:0:0:
280,176,199600,1,8,0:0:0:0:
144,248,199772,1,0,0:0:0:0:
216,120,199943,1,0,0:0:0:0:
352,48,200115,1,0,0:0:0:0:
424,184,200286,1,8,0:0:0:0:
288,256,200457,1,0,0:0:0:0:
360,128,200629,5,4,0:0:0:0:
496,56,200800,1,0,0:0:0:0:
504,84,200886,1,0,0:0:0:0:
512,112,200972,1,8,0:0:0:0:
512,272,201143,1,0,0:0:0:0:
504,300,201229,1,0,0:0:0:0:
496,328,201315,1,0,0:0:0:0:
360,256,201486,1,0,0:0:0:0:
388,264,201572,1,0,0:0:0:0:
416,272,201657,1,8,0:0:0:0:
416,112,201829,1,0,0:0:0:0:
388,120,201915,1,0,0:0:0:0:
360,128,202000,5,4,0:0:0:0:
224,56,202172,1,0,0:0:0:0:
152,192,202343,1,8,0:0:0:0:
288,264,202515,1,0,0:0:0:0:
216,136,202686,1,0,0:0:0:0:
80,64,202857,1,0,0:0:0:0:
8,200,203029,1,8,0:0:0:0:
144,272,203200,1,0,0:0:0:0:
116,284,203286,1,0,0:0:0:0:
88,296,203372,5,4,0:0:0:0:
228,376,203543,1,0,0:0:0:0:
256,372,203629,1,0,0:0:0:0:
284,376,203715,1,8,0:0:0:0:
424,296,203886,1,0,0:0:0:0:
396,284,203972,1,0,0:0:0:0:
368,272,204057,1,0,0:0:0:0:
216,224,204229,1,0,0:0:0:0:
212,196,204315,1,0,0:0:0:0:
228,172,204400,1,8,0:0:0:0:
256,160,204486,1,0,0:0:0:0:
284,172,204572,1,0,0:0:0:0:
300,196,204657,1,0,0:0:0:0:
296,224,204743,6,0,B|280:320|128:344,1,210,4|8,0:0|0:0,0:0:0:0:
68,224,205257,1,0,0:0:0:0:
216,224,205429,2,0,B|232:320|384:344,1,210,4|8,0:0|0:0,0:0:0:0:
444,224,205943,1,0,0:0:0:0:
336,124,206115,6,0,B|280:92|256:56|256:56|232:92|176:124,1,210,4|8,0:0|0:0,0:0:0:0:
256,224,206629,1,0,0:0:0:0:
384,216,206800,2,0,B|316:252|256:380|256:380|196:252|128:216,1,420,4|4,0:0|0:0,0:0:0:0:
256,192,207657,12,8,208515,0:0:0:0:
256,32,208857,5,4,0:0:0:0:
32,192,209200,1,2,0:0:0:0:
256,352,209543,1,2,0:0:0:0:
480,192,209886,1,2,0:0:0:0:
256,96,210229,5,8,0:0:0:0:
256,96,210315,1,0,0:0:0:0:
256,96,210400,1,0,0:0:0:0:
256,96,210486,1,0,0:0:0:0:
96,192,210743,1,0,0:0:0:0:
96,192,210829,1,0,0:0:0:0:
96,192,210915,1,0,0:0:0:0:
96,192,211000,1,0,0:0:0:0:
256,320,211257,1,8,0:0:0:0:
256,320,211343,1,8,0:0:0:0:
256,320,211429,1,8,0:0:0:0:
256,320,211515,1,8,0:0:0:0:
256,320,211600,6,0,B|256:192,1,105,4|0,0:0|0:0,0:0:0:0:
192,160,211943,2,0,B|192:288,1,105,8|0,0:0|0:0,0:0:0:0:
128,320,212286,2,0,B|128:192,1,105
64,160,212629,2,0,B|64:288,1,105,8|0,0:0|0:0,0:0:0:0:
0,320,212972,2,0,B|0:192,1,105
0,128,213315,2,0,B|0:0,1,105,8|2,0:0|0:0,0:0:0:0:
64,192,213829,5,2,0:0:0:0:
64,192,214000,1,8,0:0:0:0:
256,320,214343,6,0,B|256:192,1,105
320,160,214686,2,0,B|320:288,1,105,8|0,0:0|0:0,0:0:0:0:
384,320,215029,2,0,B|384:192,1,105
448,160,215372,2,0,B|448:288,1,105,8|0,0:0|0:0,0:0:0:0:
512,320,215715,2,0,B|512:192,1,105
512,128,216057,2,4,B|512:0,1,105,8|0,0:0|0:0,0:0:0:0:
448,192,216572,5,0,0:0:0:0:
448,192,216743,1,8,0:0:0:0:
256,192,217086,12,6,219829,0:0:0:0:
