osu file format v5

[General]
AudioFilename: Dear you bond _ Kizuna LYRICS!.mp3
AudioLeadIn: 0
PreviewTime: -1
Countdown: 1
SampleSet: Normal
StackLeniency: 0.7
Mode: 0
LetterboxInBreaks: 1
EditorDistanceSpacing: 0.800000011920929

[Metadata]
Title:Dear You Bond
Artist:Higurashi cast
Creator:haruhifan
Version:Normal
Source:
Tags:

[Difficulty]
HPDrainRate:5
CircleSize:5
OverallDifficulty:5
SliderMultiplier:2.3
SliderTickRate:3

[Events]
//Background and Video events
0,0,"higurashiom9.jpg"
//Break Periods
//Storyboard Layer 0 (Background)
//Storyboard Layer 1 (Failing)
//Storyboard Layer 2 (Passing)
//Storyboard Layer 3 (Foreground)
//Storyboard Sound Samples
//Background Colour Transformations
3,100,163,162,255

[TimingPoints]
0,999.7,4,1,0,100,1,0
0,-100,4,1,0,100,0,0

[Colours]
Combo1 : 255,221,226
Combo2 : 255,156,108
Combo3 : 114,210,239
Combo4 : 134,19,147
Combo5 : 131,205,86

[HitObjects]
96,64,25492,1,0
160,256,26991,1,0
320,224,28491,1,0
128,192,29990,1,0
384,320,31490,1,0
160,192,32990,1,0
352,320,34489,1,0
192,288,35989,1,0
256,192,37488,1,0
416,96,38988,5,0
192,96,39738,6,0,B,1,97.5
256,192,60731,12,0,62231
96,128,62981,5,0
192,192,64480,1,0
320,224,65980,1,0
256,160,67479,1,0
160,96,69729,1,0
96,96,71228,1,0
96,192,72728,1,0
160,96,74977,1,0
256,224,76477,1,0
288,128,77976,1,0
224,128,80225,1,0
160,224,81725,1,0
416,96,83225,1,0
128,64,83974,1,0
192,192,84724,1,0
192,192,85474,1,0
320,160,86224,1,0
224,128,86973,1,0
128,96,87723,1,0
128,224,88473,1,0
256,256,89223,1,0
288,160,89973,1,0
128,96,90722,1,0
352,96,92222,1,0
352,160,92972,1,0
224,192,93721,1,0
128,128,94471,1,0
352,224,95221,1,0
256,96,96720,1,0
128,96,97470,1,0
128,224,98220,1,0
320,224,98970,1,0
448,128,100469,1,0
448,256,101219,1,0
128,128,101969,1,0
256,128,102719,1,0
352,224,103468,1,0
384,128,104968,1,0
128,96,105718,1,0
192,352,106468,1,0
256,192,107967,5,0
160,160,108717,1,0
384,320,110216,1,0
288,96,110966,1,0
160,160,112466,1,0
224,320,113965,1,0
224,192,115465,1,0
384,32,116964,1,0
96,64,117714,1,0
160,352,119214,1,0
480,352,119963,1,0
128,224,120713,1,0
416,160,122213,1,0
96,96,122963,1,0
448,32,124462,1,0
64,320,125212,1,0
192,128,126711,1,0
352,160,127461,1,0
64,96,128211,1,0
256,128,130460,5,0
192,288,131210,1,0
96,128,132710,1,0
320,192,134209,1,0
96,224,134959,1,0
288,96,135709,1,0
160,64,136459,1,0
320,320,137208,1,0
480,160,137958,1,0
224,256,138708,1,0
128,224,139458,1,0
320,320,140207,1,0
352,192,140957,1,0
416,320,141707,1,0
96,352,142457,1,0
224,192,143956,1,0
320,160,144706,1,0
32,32,146206,1,0
256,96,149205,1,0
256,128,149955,1,0
256,224,150704,1,0
64,128,152204,1,0
96,96,155203,1,0
96,192,155953,1,0
352,160,159702,1,0
128,256,160451,1,0
192,128,161201,1,0
352,96,161951,1,0
160,256,162701,1,0
224,96,164950,1,0
224,128,165700,1,0
192,224,166450,1,0
96,128,167199,1,0
160,160,167949,1,0
320,128,168699,1,0
288,224,169449,1,0
512,256,170198,1,0
96,64,171698,1,0
448,64,173198,1,0
256,288,173947,1,0
352,192,176197,1,0
192,96,176946,1,0
320,256,178446,1,0
192,288,179196,1,0
160,96,181445,5,0
352,288,182195,1,0
192,256,182945,1,0
256,192,183694,1,0
352,160,184444,1,0
352,224,185194,1,0
320,256,185944,1,0
288,256,186693,1,0
320,160,188943,1,0
256,160,189693,1,0
288,96,190442,1,0
352,192,191192,1,0
288,224,192692,5,0
224,192,193441,1,0
288,128,194941,5,0
384,288,196441,1,0
160,192,197940,1,0
288,160,198690,1,0
256,256,199440,1,0
160,96,200939,1,0
256,192,202439,1,0
384,256,203189,1,0
256,256,203938,1,0
192,128,204688,1,0
352,96,206188,1,0
352,128,206937,1,0
352,160,207687,1,0
320,192,208437,1,0
256,192,209187,1,0
288,96,209937,1,0
256,320,210686,1,0
128,288,211436,1,0
320,256,212186,1,0
448,320,212936,1,0
192,256,213685,1,0
160,128,214435,5,0
256,128,215185,1,0
384,64,215935,1,0
416,256,216684,1,0
352,256,218184,1,0
224,224,218934,1,0
128,128,219684,1,0
320,128,220433,1,0
384,288,221183,1,0
224,288,221933,1,0
288,128,222683,1,0
352,128,223432,1,0
192,192,224182,1,0
224,128,224932,1,0
288,64,227181,1,0
224,96,227931,1,0
192,96,228681,1,0
192,224,230180,1,0
320,160,232430,1,0
288,192,233180,1,0
256,224,233929,1,0
192,160,234679,1,0
256,128,235429,1,0
320,192,236179,1,0
256,256,236928,1,0
160,224,237678,1,0
256,128,239927,1,0
352,256,240677,1,0
288,256,241427,1,0
224,224,242177,1,0
192,160,242927,1,0
256,128,243676,1,0
256,224,244426,1,0
128,160,245176,1,0
96,64,245926,1,0
64,32,246675,1,0
448,0,248175,1,0
352,192,248925,1,0
160,192,249675,1,0
160,128,250424,1,0
256,128,251174,1,0
320,128,251924,1,0
384,96,252674,5,0
256,128,254173,1,0
288,96,254923,1,0
352,64,255673,1,0
384,128,257172,1,0
384,192,258672,1,0
320,224,259422,1,0
288,256,260171,1,0
192,128,261671,1,0
160,160,262421,1,0
192,224,263171,1,0
256,256,264670,1,0
256,128,266170,1,0
128,224,267669,1,0
352,128,269169,1,0
288,256,270668,1,0
224,160,271418,1,0
352,96,272168,1,0
352,224,272918,1,0
192,160,277416,5,0
320,320,278916,1,0
352,192,280415,1,0
224,192,282665,5,0
288,256,284164,1,0
224,160,295411,1,0
192,160,303658,1,0
352,224,305158,1,0
224,256,305908,1,0
320,160,306657,1,0
384,64,308157,1,0
416,288,310406,1,0
160,160,317904,1,0
352,64,318654,1,0
256,160,319404,1,0
160,128,320153,1,0
256,256,320903,1,0
32,288,321653,1,0
384,256,322403,1,0
416,64,323153,1,0
96,64,323902,1,0
192,192,324652,1,0
128,128,325402,1,0
256,96,326152,1,0
256,192,326901,1,0
160,256,327651,1,0
384,96,329151,5,0
352,160,329901,5,0
320,192,330650,1,0
288,224,331400,1,0
256,256,332150,1,0
192,192,332900,1,0
160,128,333649,1,0
192,64,334399,1,0
256,64,335149,1,0
384,64,335899,1,0
192,160,338148,1,0
288,224,338898,1,0
160,288,339648,1,0
384,288,340397,1,0
320,128,341147,1,0
128,96,342647,1,0
256,224,344146,1,0
416,320,345646,1,0
416,96,346396,1,0
192,192,347145,1,0
256,64,348645,1,0
192,256,350144,1,0
128,64,351644,1,0
256,320,353144,1,0
224,192,354643,1,0
352,96,356143,1,0
96,96,357642,1,0
352,160,358392,1,0
224,96,359142,1,0
192,224,360641,1,0
64,128,362141,1,0
416,192,362891,1,0
224,160,363640,1,0
160,128,371888,5,0
384,224,373387,1,0
256,224,374887,1,0
320,192,375637,1,0
288,96,376387,1,0
160,160,377886,1,0
288,256,379386,1,0
352,192,380885,1,0
256,160,381635,1,0
