osu file format v5

[General]
AudioFilename: Hanyuu2.mp3
AudioLeadIn: 0
PreviewTime: -1
Countdown: 1
SampleSet: Normal
StackLeniency: 0.7
Mode: 0
LetterboxInBreaks: 1
EditorBookmarks: 14784,22815,66847,110344

[Metadata]
Title:Hanyuu Nanodesu -remix-
Artist:Higurashi TV Character Song
Creator:pokedigi
Version:Normal
Source:
Tags:

[Difficulty]
HPDrainRate:4
CircleSize:4
OverallDifficulty:5
SliderMultiplier:1.4
SliderTickRate:2

[Events]
//Background and Video events
0,0,"hanyuu_hard.jpg"
//Break Periods
2,36406,42720
2,56977,66719
2,88689,109573
//Storyboard Layer 0 (Background)
//Storyboard Layer 1 (Failing)
//Storyboard Layer 2 (Passing)
//Storyboard Layer 3 (Foreground)
//Storyboard Sound Samples
//Background Colour Transformations
3,100,163,162,255

[TimingPoints]
14795,428.571428571429,4,1,0,100

[HitObjects]
88,112,23366,1,0
168,112,23580,1,0
248,112,23795,2,0,B|352:144|280:224,2,140
192,264,25080,1,0
152,104,25509,1,0
232,88,25723,1,0
392,128,26152,5,0
448,184,26366,1,0
320,280,26795,2,2,B|168:280,2,140
176,200,28080,1,0
216,128,28295,1,0
256,56,28509,1,0
424,64,28937,1,0
376,128,29152,1,0
424,192,29366,1,4
88,272,30223,5,0
168,272,30437,1,0
248,264,30652,2,0,B|297:288|353:267|328:168,2,140
160,120,31937,1,0
152,288,32366,1,0
232,288,32580,1,0
392,288,33009,5,0
440,216,33223,1,0
312,112,33652,2,2,B|96:112,1,210
104,184,34509,1,0
136,256,34723,1,0
184,328,34937,1,0
224,256,35152,1,0
328,128,35580,1,0
392,184,35795,1,0
360,256,36009,1,0
328,336,36223,1,6
104,112,43937,5,0
160,168,44152,1,0
216,112,44366,2,2,B|296:104,1,70
312,184,44794,1,2
192,296,45223,2,2,B|344:280,1,140
400,232,45866,2,2,B|400:80,1,140
240,136,46723,5,2
200,64,46937,1,2
56,160,47366,1,0
88,232,47580,1,0
128,304,47794,1,0
296,304,48223,1,0
344,240,48437,1,0
400,176,48652,1,0
352,112,48866,1,0
304,48,49080,1,2
176,48,49509,1,0
112,104,49723,1,2
168,168,49937,1,4
56,336,50794,5,0
136,336,51009,2,2,B|288:336,1,140
304,256,51652,2,2,B|152:256,1,140
80,256,52294,1,0
80,168,52509,2,2,B|224:168,1,140
304,168,53152,1,2
344,328,53580,5,0
344,328,53794,1,0
440,208,54223,2,2,B|320:208|232:112,1,210
184,80,55080,1,0
104,80,55294,1,0
32,232,55723,1,2
192,296,56152,2,4,B|282:416|360:280,1,210
272,112,67937,6,2,B|280:200|360:232,1,140
368,64,68794,2,2,B|432:88|440:184,1,140
376,328,69652,1,0
208,328,70080,1,0
144,272,70294,2,2,B|144:112,1,140
144,48,70937,1,0
288,120,71366,6,2,B|280:208|200:240,1,140
191,72,72223,2,2,B|128:96|120:192,1,140
184,336,73080,2,0,B|264:336,3,70
352,184,74794,6,2,B|344:96|264:64,1,140
152,176,75652,2,2,B|160:264|240:296,1,140
352,184,76509,2,2,B|344:96,2,70
408,240,77152,2,2,B|351:290|272:304,1,140
200,280,77794,1,0
48,208,78223,6,2,B|48:64,1,140
128,64,78866,1,0
208,64,79080,2,0,B|304:64|368:88|392:152,1,210
384,224,79937,1,0
320,280,80152,1,0
256,328,80366,1,0
200,264,80580,1,2
256,192,81223,12,0,83794
88,112,84437,5,0
168,112,84652,1,0
248,112,84866,1,0
328,112,85080,2,2,B|328:256,1,140
328,336,85723,1,0
248,336,85937,2,2,B|80:336,2,140
392,256,87223,1,2
392,88,87652,1,2
152,168,88294,1,0
152,168,88509,1,4
48,72,110794,6,2,B|88:48|136:80,1,70
136,144,111223,2,2,B|176:168|224:136,1,70
224,64,111652,2,2,B|264:40|312:72,1,70
376,64,112080,1,2
456,64,112294,1,2
456,144,112509,2,2,B|456:221|386:291|296:296,1,210
184,208,113580,1,0
184,208,113794,1,0
104,352,114223,6,2,B|128:312|96:264,1,70
40,240,114652,2,0,B|112:192,1,70
40,144,115080,1,0
96,88,115294,1,0
176,56,115509,2,2,B|272:56,1,70
328,56,115937,2,2,B|328:208,1,140
408,200,116580,1,2
64,232,117652,6,2,B|104:208|152:240,1,70
144,312,118080,2,2,B|184:336|232:304,1,70
224,232,118509,2,2,B|264:208|312:240,1,70
328,304,118937,2,2,B|368:328|416:296,1,70
432,232,119366,1,0
384,160,119580,2,2,B|270:59|104:152,1,280
80,72,120652,1,0
64,232,121080,5,0
112,296,121294,1,0
168,232,121509,1,0
216,296,121723,2,2,B|320:296,1,70
368,296,122152,2,2,B|368:144,1,140
368,72,122794,2,2,B|296:72,1,70
296,152,123223,1,0
216,152,123437,1,0
72,72,123866,2,6,B|64:168|120:216,1,140
192,208,124509,6,2,B|87:286|48:99|144:12|216:168|317:349|456:267|394:44|256:168,1,560
256,192,127509,12,0,131366
