osu file format v5

[General]
AudioFilename: Hanyuu2.mp3
AudioLeadIn: 0
PreviewTime: -1
Countdown: 1
SampleSet: Normal
StackLeniency: 0.7
Mode: 0
LetterboxInBreaks: 1
EditorBookmarks: 14784,22815,66847,110344

[Metadata]
Title:Hanyuu Nanodesu -remix-
Artist:Higurashi TV Character Song
Creator:pokedigi
Version:Hard
Source:
Tags:

[Difficulty]
HPDrainRate:6
CircleSize:5
OverallDifficulty:5
SliderMultiplier:1.4
SliderTickRate:2

[Events]
//Background and Video events
0,0,"hanyuu_hard.jpg"
//Break Periods
2,36406,42720
2,56977,66719
2,88689,109573
//Storyboard Layer 0 (Background)
//Storyboard Layer 1 (Failing)
//Storyboard Layer 2 (Passing)
//Storyboard Layer 3 (Foreground)
//Storyboard Sound Samples
//Background Colour Transformations
3,100,163,162,255

[TimingPoints]
14795,428.571428571429,4,1,0,100

[HitObjects]
96,112,23366,1,0
40,200,23580,1,0
144,200,23795,1,0
88,288,24009,1,0
192,288,24223,2,2,B|270:275|288:168,1,140
280,88,24866,1,0
384,88,25080,1,0
448,176,25295,1,0
384,264,25509,1,0
320,344,25723,2,2,B|144:344,1,140
96,272,26366,5,0
96,272,26580,1,0
144,176,26795,2,2,B|190:195|192:256,3,70
264,152,27652,1,0
336,72,27866,1,0
392,160,28080,2,2,B|397:194|341:218,1,70
256,256,28509,1,0
320,336,28723,2,4,B|218:404|211:282|120:336,1,210
40,312,29580,1,0
40,312,29795,1,0
40,312,30009,1,0
40,208,30223,5,0
40,104,30437,1,0
128,40,30652,2,2,B|172:43|189:91,2,70
344,56,31509,5,0
296,152,31723,1,0
400,152,31937,1,0
344,240,32152,1,0
448,240,32366,1,0
392,328,32580,2,2,B|306:292|224:320,1,140
152,336,33223,1,0
152,336,33437,1,0
56,280,33652,6,2,B|72:224|112:216,1,70
184,168,34080,2,2,B|240:168|280:192,1,70
352,200,34509,1,0
456,200,34723,1,0
408,296,34937,1,0
304,296,35152,1,2
200,104,35580,6,4,B|269:191|313:46|400:136,1,210
104,112,43937,5,0
160,200,44152,1,0
216,112,44366,1,0
272,200,44580,1,0
328,112,44794,1,0
384,320,45223,2,2,B|480:320,2,70
272,320,45866,2,2,B|176:320,2,70
368,128,46723,6,0,B|408:216|312:240,1,140
256,160,47366,1,2
192,256,47580,1,2
128,160,47794,1,2
80,64,48009,1,0
192,64,48223,1,0
304,64,48437,1,0
264,160,48652,1,0
304,256,48866,1,2
200,280,49080,2,4,B|136:336|56:280,2,140
112,216,50152,5,0
112,216,50366,1,0
112,216,50580,1,0
120,112,50794,1,0
192,40,51009,1,0
264,112,51223,2,2,B|344:112,1,70
440,112,51652,1,0
440,112,51866,1,0
400,208,52080,2,2,B|312:208,1,70
280,304,52509,1,0
176,304,52723,1,0
64,304,52937,1,0
64,200,53152,1,2
256,96,53580,5,0
256,96,53794,1,0
256,96,54009,1,0
216,192,54223,2,2,B|304:192,3,70
384,232,55080,1,0
304,304,55294,1,0
200,304,55509,1,0
120,232,55723,1,2
248,56,56152,2,4,B|322:143|168:144|256:248,1,210
32,160,67937,6,2,B|40:248|120:280,1,140
200,312,68580,2,0,B|229:295|272:312,1,70
368,320,69009,2,2,B|432:296|440:208,1,140
432,104,69652,1,0
344,168,69866,1,0
256,104,70080,1,0
176,176,70294,2,2,B|48:104,1,140
56,208,70937,1,0
208,352,71366,6,2,B|296:344|328:264,1,140
400,216,72009,2,0,B|417:187|400:144,1,70
312,96,72437,2,2,B|288:32|200:24,1,140
96,32,73080,1,0
96,136,73294,1,0
200,136,73509,1,0
200,240,73723,1,0
384,344,74152,1,0
384,344,74366,1,4
464,144,74794,6,2,B|456:56|376:24,1,140
288,64,75437,2,0,B|259:47|216:64,1,70
120,32,75866,2,2,B|56:56|48:144,1,140
48,248,76509,1,0
104,336,76723,1,0
160,248,76937,1,0
208,336,77152,2,2,B|368:336,1,140
408,248,77794,1,0
312,56,78223,6,2,B|168:56,1,140
96,128,78866,2,2,B|128:184|184:160,1,70
256,168,79294,2,2,B|320:176|328:208,2,70
248,272,79937,1,0
144,272,80152,1,0
144,168,80366,1,0
144,64,80580,1,2
344,112,81009,2,0,B|415:177|336:248,1,140
256,192,81866,12,0,83795
88,112,84437,5,0
176,48,84652,1,0
280,48,84866,1,0
360,112,85080,2,2,B|320:216|176:216,1,210
88,216,85937,2,2,B|128:304|304:304,1,210
368,288,86795,2,2,B|468:283|424:168,1,140
272,64,87866,2,4,B|195:95|224:184,1,140
248,280,88509,1,4
80,120,110794,6,2,B|40:192|88:264,1,140
160,320,111437,1,0
160,216,111652,2,6,B|160:72,1,140
264,72,112294,1,4
264,176,112509,2,2,B|264:224|328:216,2,70
264,72,113152,2,6,B|344:72|416:136|432:216,1,210
264,320,114223,5,0
312,224,114437,1,0
360,320,114652,1,0
408,224,114866,2,2,B|408:128|336:72|256:72,1,210
232,168,115723,2,2,B|308:192|312:272,1,140
216,272,116366,1,0
216,272,116580,1,4
480,120,117223,5,0
288,56,117652,1,0
240,144,117866,1,0
152,96,118080,2,2,B|120:130|112:168,1,70
80,248,118509,2,2,B|34:309|97:370|160:304,2,140
128,160,119580,2,2,B|192:224,1,70
256,272,120009,2,2,B|336:208|264:120,1,140
224,64,120652,1,2
424,56,121080,5,4
424,160,121294,1,0
416,264,121509,2,2,B|328:264,1,70
240,264,121937,2,2,B|240:160,1,70
240,88,122366,2,2,B|168:88,1,70
64,88,122795,1,0
144,144,123009,1,0
64,208,123223,1,6
144,272,123437,2,2,B|360:272,1,210
320,72,124509,6,4,B|168:72,1,140
104,144,125152,1,0
184,208,125366,2,2,B|336:208,3,140
392,136,126866,1,0
432,224,127080,2,2,B|445:278|395:330|320:304,1,140
256,192,127937,12,0,129652
256,96,130723,2,4,B|167:186|354:185|240:280,1,210
