osu file format v5

[General]
AudioFilename: High and Mighty Color - Break now!.mp3
AudioLeadIn: 1989
PreviewTime: -1
Countdown: 0
SampleSet: Normal
StackLeniency: 0.7
Mode: 0
LetterboxInBreaks: 1
EditorBookmarks: 11680,27780,41986,59665,82394,107334,117751

[Metadata]
Title:Break now!
Artist:High and Mighty Color
Creator:Nharox
Version:Hard
Source:
Tags:

[Difficulty]
HPDrainRate:7
CircleSize:5
OverallDifficulty:7
SliderMultiplier:1.4
SliderTickRate:1

[Events]
//Background and Video events
0,0,"HAMC.png"
//Break Periods
2,40667,41146
2,57721,58830
2,77614,81567
2,98142,99251
//Storyboard Layer 0 (Background)
//Storyboard Layer 1 (Failing)
//Storyboard Layer 2 (Passing)
//Storyboard Layer 3 (Foreground)
//Storyboard Sound Samples
//Background Colour Transformations
3,100,163,162,255

[TimingPoints]
679,315.789473684211,4,1,0,100,1

[Colours]
Combo1 : 255,220,23
Combo2 : 255,132,9

[HitObjects]
256,192,678,5,0
256,192,835,5,0
256,192,993,5,0
256,192,1151,5,0
128,192,1625,5,0
256,320,2257,5,0
384,192,2888,5,0
256,192,3204,5,0
256,192,3362,5,0
256,192,3520,5,0
256,192,3678,5,0
256,64,4151,5,0
128,192,4783,5,0
256,320,5414,5,0
256,192,5730,5,0
256,192,5888,5,0
256,192,6046,5,0
256,192,6204,5,0
384,192,6678,5,0
256,64,7309,5,0
128,192,7941,5,0
256,192,8256,5,0
256,192,8414,5,0
256,192,8572,5,0
256,192,8730,5,0
256,320,9204,5,0
256,320,9835,5,0
256,192,10151,12,4,11257
96,64,11730,5,0
96,160,12046,5,0
96,256,12362,5,0
96,320,12520,5,0
192,320,12835,5,0
192,160,13309,5,4
224,128,13467,5,4
256,160,13625,5,4
224,192,13783,5,4
352,288,14257,5,0
352,192,14572,5,0
352,288,14888,5,0
352,192,15204,5,0
352,288,15520,5,0
256,256,15835,5,4
224,288,15993,5,4
192,256,16151,5,4
224,224,16309,5,4
160,64,16783,5,0
96,160,17099,5,0
160,256,17414,5,0
160,192,17572,5,0
64,224,17888,5,0
224,224,18362,5,4
256,192,18520,5,4
256,256,18678,5,4
288,224,18835,5,4
256,64,19309,5,0
256,160,19625,5,0
352,96,19941,5,0
352,192,20257,5,0
352,288,20572,5,0
256,256,20888,5,4
160,224,21204,5,4
64,192,21521,6,0,B|96:160|128:128|160:128|192:160|224:192|256:192|288:160|322:124,1,280
311,134,22310,5,8
311,134,22468,5,8
311,134,22626,5,8
352,192,22783,6,0,B|288:224|288:224|128:224|128:224|76:270,1,280
91,256,23573,5,8
91,256,23731,5,8
91,256,23889,5,8
96,320,24047,6,0,B|128:288|160:256|192:256|224:288|256:320|288:320|320:288|354:252,1,280
343,262,24836,5,8
343,262,24994,5,8
343,262,25152,5,8
343,262,25310,5,12
208,195,25941,5,0
304,195,26099,5,0
256,32,26414,5,0
256,192,26415,12,4,27205
256,352,27835,5,4
301,193,28467,5,0
205,193,28625,5,0
256,32,28941,5,0
256,192,28942,12,4,29731
128,192,30046,5,0
160,192,30204,5,0
192,192,30362,5,0
224,192,30520,5,8
256,192,30678,5,0
288,192,30835,5,0
320,192,30993,5,0
352,192,31151,5,8
384,192,31309,5,4
256,192,31941,5,0
256,32,32572,5,0
256,192,33204,5,0
256,352,33835,5,0
160,256,34151,5,0
160,256,34309,5,0
192,224,34467,5,0
192,224,34625,5,0
224,256,34783,5,0
224,256,34941,5,0
256,224,35099,5,0
256,192,35257,5,8
256,224,35414,5,0
288,256,35572,5,0
288,256,35730,5,0
320,224,35888,5,0
320,224,36046,5,0
352,256,36204,5,8
352,256,36363,5,4
256,192,36993,5,0
96,192,37625,5,0
256,192,38257,5,0
416,192,38888,5,0
256,64,39204,5,0
256,96,39362,5,0
256,128,39520,5,0
256,160,39678,5,8
256,192,39835,5,0
256,224,39993,5,0
256,256,40151,5,0
256,288,40309,5,8
256,320,40467,5,4
160,64,42046,5,0
256,96,42362,5,0
160,128,42678,5,0
160,64,42835,5,0
256,96,43151,5,0
256,256,43625,5,4
304,256,43783,5,4
304,208,43941,5,4
256,208,44099,5,4
96,224,44572,5,0
160,320,44888,5,0
224,224,45204,5,0
160,128,45520,5,0
96,224,45835,5,0
192,224,46151,5,4
240,224,46309,5,4
240,272,46467,5,4
192,272,46625,5,4
352,256,47099,5,0
448,256,47414,5,0
398,157,47730,5,0
397,101,47888,5,0
397,211,48204,5,0
224,192,48678,5,4
224,240,48835,5,4
272,240,48993,5,4
272,192,49151,5,4
160,96,49625,5,0
64,96,49941,5,0
64,192,50257,5,0
160,192,50572,5,0
160,288,50888,5,0
64,288,51204,5,4
64,192,51520,5,4
160,192,51835,6,0,B|128:192|96:192|64:160|64:128|64:96|96:64|128:64|160:64|192:96|192:128,1,280
224,160,52625,5,8
224,160,52783,5,8
224,160,52941,5,8
256,192,53099,6,0,B|256:160|224:160|224:192|224:224|256:224|288:224|281:156,2,140
288,160,53888,5,8
288,160,54046,5,8
288,160,54204,5,8
320,128,54362,6,0,B|320:96|320:64|352:32|384:32|416:32|448:64|448:96|448:128|416:160|384:160,1,280
367,192,55151,5,8
367,192,55309,5,8
367,192,55467,5,8
367,192,55625,5,12
95,140,56257,5,0
95,236,56414,5,0
255,193,56730,5,0
256,192,56731,12,4,57521
480,320,59730,5,0
384,320,60046,5,0
288,320,60362,5,0
192,320,60678,5,0
128,320,60835,5,0
32,320,61151,5,0
192,320,61625,5,4
32,64,62257,5,0
128,64,62572,5,0
224,64,62888,5,0
320,64,63204,5,0
384,64,63362,5,0
480,64,63678,5,0
320,64,64151,5,4
256,192,64467,12,4,66362
256,145,66993,5,4
256,145,67309,5,4
256,241,67625,5,2
256,241,67941,5,2
160,192,68257,5,0
160,192,68414,5,0
160,192,68572,5,0
160,192,68730,5,0
64,192,69046,5,0
64,192,69204,5,0
160,192,69520,5,4
160,192,69835,5,4
256,192,70151,5,2
256,192,70467,5,2
352,192,70783,5,0
352,192,70941,5,0
352,192,71099,5,0
352,192,71257,5,0
448,192,71572,5,0
320,64,72046,5,4
320,64,72362,5,4
224,64,72678,5,2
224,64,72993,5,2
274,161,73309,5,0
274,161,73467,5,0
274,161,73625,5,0
274,161,73783,5,0
273,271,74099,5,0
273,271,74257,5,0
160,288,74572,5,4
160,288,74888,5,4
64,288,75204,5,2
64,288,75520,5,2
109,188,75835,5,0
109,188,75993,5,0
109,188,76151,5,0
109,188,76309,5,0
106,77,76625,5,0
256,128,77099,5,4
256,256,77414,5,4
352,320,82467,5,0
256,288,82783,5,0
352,256,83099,5,0
352,192,83257,5,0
352,96,83572,5,0
192,128,84046,5,4
192,192,84204,5,4
192,128,84362,5,4
192,192,84520,5,4
32,160,84993,5,0
32,256,85309,5,0
96,160,85625,5,0
96,256,85941,5,0
64,160,86257,5,0
160,192,86572,5,4
160,128,86730,5,4
160,192,86888,5,4
160,128,87046,5,4
320,96,87520,5,0
320,192,87835,5,0
320,288,88151,5,0
320,224,88309,5,0
320,128,88625,5,0
160,192,89099,5,4
224,192,89257,5,4
160,192,89414,5,4
224,192,89572,5,4
256,32,90046,5,0
256,128,90362,5,0
256,224,90678,5,0
256,320,90993,5,0
256,224,91309,5,0
256,128,91625,5,4
256,32,91941,5,4
224,128,92257,6,0,B|224:32|224:32|160:32|160:32|160:96|160:96|201:55|201:55|192:64,1,280,0|0
200,56,93047,5,8
200,56,93205,5,8
200,56,93363,5,8
272,128,93521,6,0,B|272:32|272:32|336:32|336:32|336:96|336:96|295:55|295:55|304:64,1,280
297,56,94310,5,8
297,56,94468,5,8
297,56,94626,5,8
256,128,94783,6,0,B|224:160|224:160|256:160|256:160|224:192|224:192|256:192|256:192|224:224|224:224|256:224|256:224|224:256|224:256|256:256,1,280
226,256,95573,5,8
226,256,95731,5,8
226,256,95889,5,8
226,256,96047,5,12
208,80,96678,5,0
304,80,96835,5,0
256,224,97151,5,0
256,192,97152,12,4,97942
32,192,100151,5,0
96,256,100467,5,0
160,192,100783,5,0
96,128,101099,5,0
96,192,101257,5,0
96,288,101572,5,0
96,128,102046,5,4
352,192,102678,5,0
416,256,102993,5,0
480,192,103309,5,0
416,128,103625,5,0
416,192,103783,5,0
416,288,104099,5,0
416,128,104572,5,4
256,192,104888,12,4,106783
256,239,107414,5,4
256,239,107730,5,4
256,143,108046,5,2
256,143,108362,5,2
352,192,108678,5,0
352,192,108835,5,0
352,192,108993,5,0
352,192,109151,5,0
448,192,109467,5,0
448,192,109625,5,0
352,192,109941,5,4
352,192,110257,5,4
256,192,110572,5,2
256,192,110888,5,2
160,192,111204,5,0
160,192,111362,5,0
160,192,111520,5,0
160,192,111678,5,0
64,192,111993,5,0
192,320,112467,5,4
192,320,112783,5,4
288,320,113099,5,2
288,320,113414,5,2
238,223,113730,5,0
238,223,113888,5,0
238,223,114046,5,0
238,223,114204,5,0
239,113,114520,5,0
239,113,114678,5,0
352,96,114993,5,4
352,96,115309,5,4
448,96,115625,5,2
448,96,115941,5,2
403,196,116257,5,0
403,196,116414,5,0
403,196,116572,5,0
403,196,116730,5,0
406,307,117046,5,0
256,256,117520,5,4
256,128,117835,5,4
