osu file format v14

[General]
AudioFilename: M.A.M.A.mp3
AudioLeadIn: 0
PreviewTime: 113718
Countdown: 0
SampleSet: Soft
StackLeniency: 0.7
Mode: 3
LetterboxInBreaks: 0
SpecialStyle: 0
WidescreenStoryboard: 1

[Editor]
DistanceSpacing: 0.8
BeatDivisor: 8
GridSize: 32
TimelineZoom: 2.3

[Metadata]
Title:M.A.M.A.
TitleUnicode:M.A.M.A.
Artist:High Speed Music Team Sharpnel
ArtistUnicode:高速音楽隊シャープネル
Creator:arcwinolivirus
Version:SHD
Source:
Tags:Sharpnelsound SRPC-0005 DJ Sharpnel Rave ☆ Spector Hellknight10 Ravenous Red Flower
BeatmapID:429552
BeatmapSetID:176446

[Difficulty]
HPDrainRate:8
CircleSize:4
OverallDifficulty:8
ApproachRate:5
SliderMultiplier:1.4
SliderTickRate:1

[Events]
//Background and Video events
0,0,"bgmama.jpg",0,0
//Break Periods
//Storyboard Layer 0 (Background)
//Storyboard Layer 1 (Fail)
//Storyboard Layer 2 (Pass)
//Storyboard Layer 3 (Foreground)
//Storyboard Sound Samples

[TimingPoints]
-110,342.857142857143,4,2,1,40,1,0
23204,-100,4,2,1,30,0,0
24575,-100,4,2,1,20,0,0
25947,-100,4,2,1,40,0,0
35890,-100,4,2,1,30,0,0
36918,-100,4,2,1,40,0,0
113718,-100,4,2,1,40,0,1
130175,-100,4,2,1,30,0,0
132918,-100,4,2,1,20,0,0

[HitObjects]
64,192,3232,128,0,4004:0:0:0:0:
448,192,3232,128,0,4004:0:0:0:0:
192,192,4004,128,0,4090:0:0:0:0:
320,192,4004,1,0,0:0:0:0:
448,192,4090,1,0,0:0:0:0:
64,192,4175,1,0,0:0:0:0:
320,192,4261,1,0,0:0:0:0:
64,192,4347,1,8,0:0:0:0:
192,192,4347,1,0,0:0:0:0:
448,192,4432,1,0,0:0:0:0:
64,192,4518,1,0,0:0:0:0:
320,192,4604,1,0,0:0:0:0:
192,192,4690,1,0,0:0:0:0:
448,192,4775,1,0,0:0:0:0:
64,192,4861,1,0,0:0:0:0:
320,192,4947,1,0,0:0:0:0:
64,192,5032,1,8,0:0:0:0:
192,192,5032,1,0,0:0:0:0:
448,192,5118,1,0,0:0:0:0:
192,192,5204,1,0,0:0:0:0:
320,192,5290,1,0,0:0:0:0:
192,192,5375,1,0,0:0:0:0:
448,192,5375,128,0,5461:0:0:0:0:
64,192,5461,1,0,0:0:0:0:
320,192,5547,1,0,0:0:0:0:
192,192,5632,1,0,0:0:0:0:
320,192,5718,1,8,0:0:0:0:
448,192,5718,1,0,0:0:0:0:
64,192,5804,1,0,0:0:0:0:
448,192,5890,1,0,0:0:0:0:
192,192,5975,1,0,0:0:0:0:
320,192,6061,1,0,0:0:0:0:
64,192,6147,1,0,0:0:0:0:
448,192,6232,1,0,0:0:0:0:
192,192,6318,1,0,0:0:0:0:
448,192,6404,1,8,0:0:0:0:
320,192,6404,1,0,0:0:0:0:
64,192,6490,1,0,0:0:0:0:
448,192,6575,1,0,0:0:0:0:
64,192,6661,1,0,0:0:0:0:
192,192,6747,1,0,0:0:0:0:
320,192,6747,128,0,6832:0:0:0:0:
448,192,6832,1,0,0:0:0:0:
64,192,6918,1,0,0:0:0:0:
192,192,7004,1,0,0:0:0:0:
320,192,7090,1,8,0:0:0:0:
448,192,7090,1,0,0:0:0:0:
64,192,7175,1,0,0:0:0:0:
448,192,7261,1,0,0:0:0:0:
192,192,7347,1,0,0:0:0:0:
320,192,7432,1,0,0:0:0:0:
64,192,7518,1,0,0:0:0:0:
448,192,7604,1,0,0:0:0:0:
192,192,7690,1,0,0:0:0:0:
320,192,7775,1,8,0:0:0:0:
448,192,7775,1,0,0:0:0:0:
64,192,7861,1,0,0:0:0:0:
320,192,7947,1,0,0:0:0:0:
64,192,8032,1,0,0:0:0:0:
448,192,8118,1,0,0:0:0:0:
192,192,8118,128,0,8204:0:0:0:0:
320,192,8204,1,0,0:0:0:0:
64,192,8290,1,0,0:0:0:0:
448,192,8375,1,0,0:0:0:0:
320,192,8461,1,8,0:0:0:0:
192,192,8461,1,0,0:0:0:0:
448,192,8547,1,0,0:0:0:0:
192,192,8632,1,0,0:0:0:0:
64,192,8632,128,0,8975:0:0:0:0:
448,192,8718,1,0,0:0:0:0:
320,192,8804,1,0,0:0:0:0:
448,192,8890,1,0,0:0:0:0:
192,192,8975,1,0,0:0:0:0:
320,192,9061,1,0,0:0:0:0:
192,192,9147,1,8,0:0:0:0:
64,192,9147,1,0,0:0:0:0:
448,192,9232,1,0,0:0:0:0:
192,192,9318,1,0,0:0:0:0:
448,192,9404,1,0,0:0:0:0:
64,192,9490,1,0,1:0:0:0:
192,192,9490,1,0,0:0:0:0:
320,192,9575,1,0,0:0:0:0:
64,192,9661,1,0,0:0:0:0:
448,192,9747,1,0,0:0:0:0:
192,192,9832,1,8,0:0:0:0:
320,192,9832,1,0,0:0:0:0:
64,192,9918,1,0,0:0:0:0:
448,192,10004,1,0,0:0:0:0:
192,192,10090,1,0,0:0:0:0:
320,192,10175,1,0,1:0:0:0:
448,192,10175,1,0,0:0:0:0:
64,192,10261,1,0,0:0:0:0:
448,192,10347,1,0,0:0:0:0:
64,192,10432,1,0,1:0:0:0:
320,192,10432,1,0,0:0:0:0:
192,192,10518,1,8,0:0:0:0:
448,192,10518,1,0,0:0:0:0:
64,192,10604,1,0,0:0:0:0:
320,192,10690,1,0,1:0:0:0:
448,192,10690,1,0,0:0:0:0:
192,192,10775,1,0,0:0:0:0:
448,192,10861,1,0,1:0:0:0:
64,192,10861,1,0,0:0:0:0:
320,192,10947,1,0,0:0:0:0:
192,192,11032,1,0,0:0:0:0:
448,192,11118,1,0,0:0:0:0:
64,192,11204,1,8,0:0:0:0:
192,192,11204,1,0,0:0:0:0:
320,192,11290,1,0,0:0:0:0:
64,192,11375,1,0,0:0:0:0:
448,192,11461,1,0,0:0:0:0:
320,192,11547,1,0,1:0:0:0:
192,192,11547,1,0,0:0:0:0:
64,192,11632,1,0,0:0:0:0:
448,192,11718,1,0,0:0:0:0:
192,192,11804,1,0,0:0:0:0:
320,192,11890,1,8,0:0:0:0:
448,192,11890,1,0,0:0:0:0:
64,192,11975,1,0,0:0:0:0:
320,192,12061,1,0,1:0:0:0:
192,192,12061,1,0,0:0:0:0:
448,192,12147,1,0,0:0:0:0:
320,192,12232,1,0,1:0:0:0:
64,192,12232,1,0,0:0:0:0:
192,192,12318,1,0,0:0:0:0:
448,192,12404,1,0,0:0:0:0:
64,192,12490,1,0,0:0:0:0:
320,192,12575,1,8,0:0:0:0:
192,192,12575,1,0,0:0:0:0:
448,192,12661,1,0,0:0:0:0:
64,192,12747,1,0,0:0:0:0:
320,192,12832,1,0,0:0:0:0:
64,192,12918,1,0,1:0:0:0:
192,192,12918,1,0,0:0:0:0:
448,192,13004,1,0,0:0:0:0:
64,192,13090,1,0,0:0:0:0:
448,192,13175,1,0,1:0:0:0:
192,192,13175,1,0,0:0:0:0:
64,192,13261,1,8,0:0:0:0:
320,192,13261,1,0,0:0:0:0:
448,192,13347,1,0,0:0:0:0:
192,192,13432,1,0,1:0:0:0:
64,192,13432,1,0,0:0:0:0:
320,192,13518,1,0,0:0:0:0:
64,192,13604,1,0,1:0:0:0:
448,192,13604,1,0,0:0:0:0:
192,192,13690,1,0,0:0:0:0:
320,192,13775,1,0,0:0:0:0:
64,192,13861,1,0,0:0:0:0:
320,192,13947,1,8,0:0:0:0:
448,192,13947,1,0,0:0:0:0:
192,192,14032,1,0,0:0:0:0:
448,192,14118,1,0,0:0:0:0:
64,192,14204,1,0,0:0:0:0:
192,192,14290,1,0,1:0:0:0:
320,192,14290,1,0,0:0:0:0:
448,192,14375,1,0,0:0:0:0:
64,192,14461,1,0,0:0:0:0:
320,192,14547,1,0,0:0:0:0:
64,192,14632,128,8,14804:0:0:0:0:
448,192,14632,1,0,0:0:0:0:
192,192,14718,1,0,0:0:0:0:
448,192,14804,1,0,1:0:0:0:
320,192,14804,1,0,0:0:0:0:
192,192,14890,1,0,0:0:0:0:
64,192,14975,1,0,1:0:0:0:
448,192,14975,1,0,0:0:0:0:
320,192,15061,1,0,0:0:0:0:
64,192,15147,1,0,0:0:0:0:
192,192,15232,1,0,0:0:0:0:
64,192,15318,1,8,0:0:0:0:
448,192,15318,128,0,15490:0:0:0:0:
320,192,15404,1,0,0:0:0:0:
64,192,15490,1,0,0:0:0:0:
192,192,15575,1,0,0:0:0:0:
64,192,15661,1,0,1:0:0:0:
448,192,15661,1,0,0:0:0:0:
320,192,15747,1,0,0:0:0:0:
192,192,15832,1,0,0:0:0:0:
64,192,15832,128,0,16004:0:0:0:0:
320,192,15918,1,0,1:0:0:0:
448,192,15918,1,0,0:0:0:0:
320,192,16004,1,8,0:0:0:0:
448,192,16004,1,0,0:0:0:0:
192,192,16090,1,0,0:0:0:0:
448,192,16175,1,0,1:0:0:0:
64,192,16175,1,0,0:0:0:0:
320,192,16261,1,0,0:0:0:0:
64,192,16347,1,0,1:0:0:0:
448,192,16347,1,0,0:0:0:0:
192,192,16432,1,0,0:0:0:0:
448,192,16518,1,0,0:0:0:0:
192,192,16604,1,0,0:0:0:0:
320,192,16690,1,8,0:0:0:0:
64,192,16690,128,0,16861:0:0:0:0:
448,192,16775,1,0,0:0:0:0:
192,192,16861,1,0,0:0:0:0:
448,192,16947,1,0,0:0:0:0:
192,192,17032,1,0,1:0:0:0:
64,192,17032,1,0,0:0:0:0:
320,192,17118,1,0,0:0:0:0:
64,192,17204,1,0,0:0:0:0:
448,192,17204,128,0,17375:0:0:0:0:
320,192,17290,1,0,0:0:0:0:
64,192,17375,1,8,0:0:0:0:
192,192,17375,1,0,0:0:0:0:
320,192,17461,1,0,0:0:0:0:
64,192,17547,1,0,1:0:0:0:
192,192,17547,1,0,0:0:0:0:
448,192,17632,1,0,0:0:0:0:
64,192,17718,1,0,1:0:0:0:
192,192,17718,1,0,0:0:0:0:
320,192,17804,1,0,0:0:0:0:
448,192,17890,1,0,0:0:0:0:
320,192,17975,1,0,0:0:0:0:
64,192,18061,1,8,0:0:0:0:
448,192,18061,128,0,18232:0:0:0:0:
192,192,18147,1,0,0:0:0:0:
64,192,18232,1,0,0:0:0:0:
320,192,18318,1,0,0:0:0:0:
192,192,18404,1,0,1:0:0:0:
448,192,18404,1,0,0:0:0:0:
320,192,18490,1,0,0:0:0:0:
192,192,18575,1,0,0:0:0:0:
64,192,18575,128,0,18747:0:0:0:0:
448,192,18661,1,0,1:0:0:0:
320,192,18661,1,0,0:0:0:0:
448,192,18747,1,8,0:0:0:0:
320,192,18747,1,0,0:0:0:0:
192,192,18832,1,0,0:0:0:0:
448,192,18918,1,0,1:0:0:0:
64,192,18918,1,0,0:0:0:0:
320,192,19004,1,0,0:0:0:0:
448,192,19090,1,0,1:0:0:0:
192,192,19090,1,0,0:0:0:0:
320,192,19175,1,0,0:0:0:0:
64,192,19261,1,0,0:0:0:0:
320,192,19347,1,0,0:0:0:0:
448,192,19432,128,8,19604:0:0:0:0:
192,192,19432,1,0,0:0:0:0:
64,192,19518,1,0,0:0:0:0:
320,192,19604,1,0,0:0:0:0:
192,192,19690,1,0,0:0:0:0:
448,192,19775,1,0,1:0:0:0:
320,192,19775,128,0,19947:0:0:0:0:
64,192,19861,1,0,0:0:0:0:
192,192,19947,128,0,20290:0:0:0:0:
448,192,20032,1,0,0:0:0:0:
320,192,20118,1,8,0:0:0:0:
64,192,20118,1,0,0:0:0:0:
448,192,20204,1,0,0:0:0:0:
64,192,20290,1,0,1:0:0:0:
320,192,20290,1,0,0:0:0:0:
448,192,20375,1,0,0:0:0:0:
64,192,20461,1,0,1:0:0:0:
320,192,20461,1,0,0:0:0:0:
192,192,20547,1,0,0:0:0:0:
320,192,20632,1,0,1:0:0:0:
448,192,20632,1,0,0:0:0:0:
64,192,20718,1,0,0:0:0:0:
192,192,20804,1,8,0:0:0:0:
320,192,20804,128,0,20975:0:0:0:0:
448,192,20890,1,0,0:0:0:0:
192,192,20975,1,0,1:0:0:0:
64,192,20975,1,0,0:0:0:0:
448,192,21061,1,0,0:0:0:0:
320,192,21147,1,0,1:0:0:0:
192,192,21147,1,0,0:0:0:0:
64,192,21232,1,0,0:0:0:0:
320,192,21318,1,0,1:0:0:0:
192,192,21318,128,0,21490:0:0:0:0:
448,192,21404,1,0,0:0:0:0:
64,192,21404,1,0,1:0:0:0:
448,192,21490,1,8,0:0:0:0:
320,192,21490,1,0,0:0:0:0:
64,192,21575,1,0,0:0:0:0:
192,192,21661,1,0,1:0:0:0:
320,192,21661,1,0,0:0:0:0:
448,192,21747,1,0,0:0:0:0:
64,192,21832,1,0,1:0:0:0:
320,192,21832,1,0,0:0:0:0:
192,192,21918,1,0,0:0:0:0:
448,192,22004,1,0,1:0:0:0:
64,192,22004,1,0,0:0:0:0:
320,192,22090,1,0,0:0:0:0:
448,192,22175,1,8,0:0:0:0:
192,192,22175,128,0,22347:0:0:0:0:
320,192,22261,1,0,0:0:0:0:
64,192,22347,1,0,1:0:0:0:
448,192,22347,1,0,0:0:0:0:
192,192,22432,1,0,0:0:0:0:
320,192,22518,1,0,1:0:0:0:
64,192,22518,1,0,0:0:0:0:
192,192,22604,1,0,0:0:0:0:
64,192,22690,1,0,1:0:0:0:
448,192,22690,128,0,22861:0:0:0:0:
320,192,22775,1,0,0:0:0:0:
192,192,22861,1,8,0:0:0:0:
64,192,22861,1,0,0:0:0:0:
448,192,22947,1,0,0:0:0:0:
64,192,23032,1,0,1:0:0:0:
320,192,23032,1,0,0:0:0:0:
192,192,23118,1,0,0:0:0:0:
320,192,23204,1,0,0:0:0:0:
448,192,23204,1,0,1:0:0:0:
192,192,23290,1,0,0:0:0:0:
64,192,23290,1,0,1:0:0:0:
320,192,23375,1,0,0:0:0:0:
448,192,23375,1,0,1:0:0:0:
192,192,23461,1,0,0:0:0:0:
64,192,23461,1,0,1:0:0:0:
320,192,23547,1,8,0:0:0:0:
448,192,23547,1,0,0:0:0:0:
64,192,23632,1,0,0:0:0:0:
192,192,23632,1,0,1:0:0:0:
320,192,23718,1,0,0:0:0:0:
448,192,23718,1,0,1:0:0:0:
64,192,23804,1,0,0:0:0:0:
192,192,23804,1,0,1:0:0:0:
320,192,23890,1,0,0:0:0:0:
448,192,23890,1,0,1:0:0:0:
192,192,23975,1,0,0:0:0:0:
64,192,23975,1,0,1:0:0:0:
448,192,24061,1,0,0:0:0:0:
320,192,24061,1,0,1:0:0:0:
192,192,24147,1,0,0:0:0:0:
64,192,24147,1,0,1:0:0:0:
320,192,24232,1,8,0:0:0:0:
448,192,24232,1,0,0:0:0:0:
192,192,24318,1,0,0:0:0:0:
64,192,24318,1,0,1:0:0:0:
320,192,24404,1,0,0:0:0:0:
448,192,24404,1,0,1:0:0:0:
64,192,24490,1,0,0:0:0:0:
192,192,24490,1,0,1:0:0:0:
448,192,24575,1,0,1:0:0:0:
64,192,24575,1,0,0:0:0:0:
320,192,24618,1,0,1:0:0:0:
192,192,24661,1,0,1:0:0:0:
64,192,24704,1,0,1:0:0:0:
448,192,24747,1,0,1:0:0:0:
192,192,24790,1,0,1:0:0:0:
320,192,24832,1,0,1:0:0:0:
64,192,24875,1,0,1:0:0:0:
448,192,24918,1,8,0:0:0:0:
320,192,24961,1,0,1:0:0:0:
192,192,25004,1,0,1:0:0:0:
64,192,25047,1,0,1:0:0:0:
448,192,25090,1,0,1:0:0:0:
192,192,25132,1,0,1:0:0:0:
320,192,25175,1,0,1:0:0:0:
64,192,25218,1,0,1:0:0:0:
448,192,25261,1,0,1:0:0:0:
320,192,25304,1,0,1:0:0:0:
192,192,25347,1,0,1:0:0:0:
64,192,25390,1,0,1:0:0:0:
448,192,25432,1,0,1:0:0:0:
192,192,25475,1,0,1:0:0:0:
320,192,25518,1,0,1:0:0:0:
64,192,25561,1,0,1:0:0:0:
448,192,25604,1,8,0:0:0:0:
192,192,25604,1,4,3:0:0:0:
320,192,25647,1,0,1:0:0:0:
64,192,25690,1,0,1:0:0:0:
192,192,25732,1,0,1:0:0:0:
320,192,25775,1,4,3:0:0:0:
448,192,25775,1,0,1:0:0:0:
64,192,25818,1,0,1:0:0:0:
192,192,25861,1,4,3:0:0:0:
320,192,25904,1,0,1:0:0:0:
448,192,25947,1,4,3:0:0:0:
64,192,25947,1,0,1:0:0:0:
320,192,26032,1,0,0:0:0:0:
192,192,26118,1,0,0:0:0:0:
320,192,26204,1,0,0:0:0:0:
192,192,26290,1,8,0:0:0:0:
64,192,26290,128,0,26632:0:0:0:0:
448,192,26375,1,0,0:0:0:0:
320,192,26461,1,0,0:0:0:0:
448,192,26547,1,0,0:0:0:0:
192,192,26632,1,4,3:0:0:0:
320,192,26632,1,0,0:0:0:0:
448,192,26718,1,0,0:0:0:0:
192,192,26804,128,0,27318:0:0:0:0:
64,192,26804,1,0,0:0:0:0:
320,192,26890,1,0,0:0:0:0:
448,192,26975,1,8,0:0:0:0:
64,192,26975,1,0,0:0:0:0:
320,192,27061,1,0,0:0:0:0:
448,192,27147,1,0,0:0:0:0:
64,192,27232,1,0,0:0:0:0:
320,192,27318,1,4,3:0:0:0:
448,192,27318,1,0,0:0:0:0:
64,192,27404,1,0,0:0:0:0:
448,192,27490,1,0,0:0:0:0:
192,192,27575,1,0,0:0:0:0:
448,192,27661,128,8,28004:0:0:0:0:
64,192,27661,1,0,0:0:0:0:
192,192,27747,1,0,0:0:0:0:
320,192,27832,1,0,0:0:0:0:
64,192,27918,1,0,0:0:0:0:
192,192,28004,1,4,3:0:0:0:
320,192,28004,1,0,0:0:0:0:
64,192,28090,1,0,0:0:0:0:
320,192,28175,128,0,28690:0:0:0:0:
192,192,28175,1,0,0:0:0:0:
448,192,28261,1,0,0:0:0:0:
192,192,28347,1,8,0:0:0:0:
64,192,28347,1,0,0:0:0:0:
448,192,28432,1,0,0:0:0:0:
192,192,28518,1,4,3:0:0:0:
64,192,28518,1,0,0:0:0:0:
448,192,28604,1,0,0:0:0:0:
64,192,28690,1,4,0:0:0:0:
192,192,28690,1,4,3:0:0:0:
448,192,28690,1,0,0:0:0:0:
320,192,28775,1,0,0:0:0:0:
64,192,28861,1,0,0:0:0:0:
320,192,28947,1,0,0:0:0:0:
448,192,29032,128,8,29375:0:0:0:0:
192,192,29032,1,0,0:0:0:0:
320,192,29118,1,0,0:0:0:0:
64,192,29204,1,0,0:0:0:0:
192,192,29290,1,0,0:0:0:0:
320,192,29375,1,4,3:0:0:0:
64,192,29375,1,0,0:0:0:0:
192,192,29461,1,0,0:0:0:0:
320,192,29547,128,0,30061:0:0:0:0:
448,192,29547,1,0,0:0:0:0:
192,192,29632,1,0,0:0:0:0:
64,192,29718,1,8,0:0:0:0:
448,192,29718,1,0,0:0:0:0:
192,192,29804,1,0,0:0:0:0:
64,192,29890,1,0,0:0:0:0:
448,192,29975,1,0,0:0:0:0:
64,192,30061,1,4,3:0:0:0:
192,192,30061,1,0,0:0:0:0:
320,192,30147,1,0,0:0:0:0:
448,192,30232,1,0,0:0:0:0:
192,192,30318,1,0,0:0:0:0:
320,192,30404,1,8,0:0:0:0:
64,192,30404,128,0,30747:0:0:0:0:
192,192,30490,1,0,0:0:0:0:
448,192,30575,1,0,0:0:0:0:
320,192,30661,1,0,0:0:0:0:
448,192,30747,1,4,3:0:0:0:
192,192,30747,1,0,0:0:0:0:
320,192,30832,1,0,0:0:0:0:
192,192,30918,128,4,31432:3:0:0:0:
64,192,30918,1,0,0:0:0:0:
320,192,31004,1,0,0:0:0:0:
448,192,31090,1,8,0:0:0:0:
64,192,31090,1,0,0:0:0:0:
320,192,31175,1,0,0:0:0:0:
448,192,31261,1,4,3:0:0:0:
64,192,31261,1,0,0:0:0:0:
320,192,31347,1,0,0:0:0:0:
448,192,31432,1,4,3:0:0:0:
64,192,31432,1,4,0:0:0:0:
320,192,31432,1,0,0:0:0:0:
192,192,31518,1,0,0:0:0:0:
448,192,31604,1,0,0:0:0:0:
64,192,31690,1,0,0:0:0:0:
192,192,31775,128,8,32118:0:0:0:0:
320,192,31775,1,0,0:0:0:0:
448,192,31861,1,0,0:0:0:0:
320,192,31947,1,0,0:0:0:0:
64,192,32032,1,0,0:0:0:0:
448,192,32118,1,4,3:0:0:0:
320,192,32118,1,0,0:0:0:0:
192,192,32204,1,0,0:0:0:0:
64,192,32290,128,0,32804:0:0:0:0:
320,192,32290,1,0,0:0:0:0:
448,192,32375,1,0,0:0:0:0:
320,192,32461,1,8,0:0:0:0:
192,192,32461,1,0,0:0:0:0:
448,192,32547,1,0,0:0:0:0:
192,192,32632,1,0,0:0:0:0:
320,192,32718,1,0,0:0:0:0:
448,192,32804,1,4,3:0:0:0:
192,192,32804,1,0,0:0:0:0:
320,192,32890,1,0,0:0:0:0:
64,192,32975,1,0,0:0:0:0:
192,192,33061,1,0,0:0:0:0:
448,192,33147,1,8,0:0:0:0:
320,192,33147,128,0,33490:0:0:0:0:
64,192,33232,1,0,0:0:0:0:
192,192,33318,1,0,0:0:0:0:
448,192,33404,1,0,0:0:0:0:
64,192,33490,1,4,3:0:0:0:
192,192,33490,1,0,0:0:0:0:
320,192,33575,1,0,0:0:0:0:
448,192,33661,128,0,34175:0:0:0:0:
192,192,33661,1,0,0:0:0:0:
64,192,33747,1,0,0:0:0:0:
320,192,33832,1,8,0:0:0:0:
192,192,33832,1,0,0:0:0:0:
64,192,33918,1,0,0:0:0:0:
320,192,34004,1,4,3:0:0:0:
192,192,34004,1,0,0:0:0:0:
64,192,34090,1,0,0:0:0:0:
192,192,34175,1,4,3:0:0:0:
320,192,34175,1,0,0:0:0:0:
64,192,34261,1,0,0:0:0:0:
448,192,34347,1,0,0:0:0:0:
192,192,34432,1,0,0:0:0:0:
64,192,34518,1,8,0:0:0:0:
320,192,34518,128,0,34861:0:0:0:0:
448,192,34604,1,0,0:0:0:0:
192,192,34690,1,0,0:0:0:0:
448,192,34775,1,0,0:0:0:0:
64,192,34861,1,4,3:0:0:0:
192,192,34861,1,0,0:0:0:0:
448,192,34947,1,0,0:0:0:0:
64,192,35032,128,0,35547:0:0:0:0:
192,192,35032,1,0,0:0:0:0:
320,192,35118,1,0,0:0:0:0:
192,192,35204,1,8,0:0:0:0:
448,192,35204,1,0,0:0:0:0:
320,192,35290,1,0,0:0:0:0:
192,192,35375,1,0,0:0:0:0:
448,192,35461,1,0,0:0:0:0:
192,192,35547,1,4,3:0:0:0:
320,192,35547,128,0,35890:0:0:0:0:
64,192,35632,1,0,0:0:0:0:
448,192,35718,1,0,0:0:0:0:
192,192,35804,1,0,0:0:0:0:
64,192,35890,128,8,36232:0:0:0:0:
448,192,35890,1,0,0:0:0:0:
320,192,36061,1,4,3:0:0:0:
448,192,36061,1,0,0:0:0:0:
192,192,36147,1,4,3:0:0:0:
448,192,36232,128,4,36575:3:0:0:0:
320,192,36232,1,0,0:0:0:0:
192,192,36318,1,4,3:0:0:0:
320,192,36361,1,4,3:0:0:0:
192,192,36404,1,4,3:0:0:0:
64,192,36404,1,0,0:0:0:0:
320,192,36490,1,4,3:0:0:0:
192,192,36575,1,8,0:0:0:0:
64,192,36575,1,4,0:0:0:0:
320,192,36661,1,4,3:0:0:0:
192,192,36704,1,4,3:0:0:0:
64,192,36747,1,4,3:0:0:0:
448,192,36747,1,4,3:0:0:0:
320,192,36832,1,4,3:0:0:0:
448,192,36918,1,4,1:0:0:0:
192,192,36918,1,0,0:0:0:0:
64,192,36918,1,0,0:0:0:0:
320,192,37004,1,0,0:0:0:0:
64,192,37090,1,0,0:0:0:0:
192,192,37175,1,0,0:0:0:0:
320,192,37261,1,8,0:0:0:0:
448,192,37261,128,0,37432:0:0:0:0:
64,192,37347,1,0,0:0:0:0:
320,192,37432,128,0,37604:0:0:0:0:
192,192,37432,1,0,0:0:0:0:
64,192,37518,1,0,0:0:0:0:
448,192,37604,1,4,3:0:0:0:
192,192,37604,128,0,37775:0:0:0:0:
64,192,37690,1,0,0:0:0:0:
448,192,37775,1,0,0:0:0:0:
320,192,37861,1,0,0:0:0:0:
192,192,37947,1,8,0:0:0:0:
64,192,37947,128,0,38118:0:0:0:0:
448,192,38032,1,0,0:0:0:0:
320,192,38118,1,0,0:0:0:0:
192,192,38118,128,0,38290:0:0:0:0:
448,192,38204,1,0,0:0:0:0:
64,192,38290,1,4,3:0:0:0:
320,192,38290,128,0,38461:0:0:0:0:
448,192,38375,1,0,0:0:0:0:
64,192,38461,1,0,0:0:0:0:
192,192,38547,1,0,0:0:0:0:
320,192,38632,1,8,0:0:0:0:
64,192,38632,128,0,38804:0:0:0:0:
448,192,38718,1,0,0:0:0:0:
320,192,38804,1,0,0:0:0:0:
192,192,38804,128,0,38975:0:0:0:0:
448,192,38890,1,0,0:0:0:0:
64,192,38975,1,4,3:0:0:0:
320,192,38975,1,0,0:0:0:0:
448,192,39061,1,0,0:0:0:0:
192,192,39147,1,4,3:0:0:0:
320,192,39147,1,0,0:0:0:0:
64,192,39232,1,0,0:0:0:0:
192,192,39318,1,8,0:0:0:0:
320,192,39318,1,0,0:0:0:0:
448,192,39490,1,4,3:0:0:0:
64,192,39490,1,0,0:0:0:0:
320,192,39575,1,0,0:0:0:0:
192,192,39661,1,4,1:0:0:0:
448,192,39661,1,0,0:0:0:0:
64,192,39661,1,0,0:0:0:0:
320,192,39747,1,0,0:0:0:0:
448,192,39832,1,0,0:0:0:0:
192,192,39918,1,0,0:0:0:0:
320,192,40004,1,8,0:0:0:0:
64,192,40004,128,0,40175:0:0:0:0:
448,192,40090,1,0,0:0:0:0:
320,192,40175,1,0,0:0:0:0:
192,192,40175,128,0,40347:0:0:0:0:
448,192,40261,1,0,0:0:0:0:
64,192,40347,1,4,3:0:0:0:
320,192,40347,128,0,40518:0:0:0:0:
448,192,40432,1,0,0:0:0:0:
64,192,40518,1,0,0:0:0:0:
192,192,40604,1,0,0:0:0:0:
320,192,40690,1,8,0:0:0:0:
448,192,40690,128,0,40861:0:0:0:0:
64,192,40775,1,0,0:0:0:0:
192,192,40861,1,0,0:0:0:0:
320,192,40861,128,0,41032:0:0:0:0:
64,192,40947,1,0,0:0:0:0:
192,192,41032,128,4,41204:3:0:0:0:
448,192,41032,1,0,0:0:0:0:
320,192,41118,1,0,0:0:0:0:
448,192,41204,1,0,0:0:0:0:
64,192,41204,1,0,0:0:0:0:
320,192,41290,1,0,0:0:0:0:
192,192,41375,1,8,0:0:0:0:
448,192,41375,128,0,41547:0:0:0:0:
64,192,41461,1,0,0:0:0:0:
192,192,41547,1,0,0:0:0:0:
320,192,41547,128,0,41718:0:0:0:0:
448,192,41632,1,0,0:0:0:0:
64,192,41718,1,4,3:0:0:0:
192,192,41718,1,0,0:0:0:0:
448,192,41804,1,0,0:0:0:0:
320,192,41890,1,4,3:0:0:0:
64,192,41890,1,0,0:0:0:0:
192,192,41975,1,4,3:0:0:0:
448,192,41975,1,0,0:0:0:0:
64,192,42061,1,8,0:0:0:0:
320,192,42061,1,0,0:0:0:0:
448,192,42232,1,4,3:0:0:0:
64,192,42232,1,0,0:0:0:0:
320,192,42318,1,0,0:0:0:0:
64,192,42404,1,4,1:0:0:0:
448,192,42404,1,0,0:0:0:0:
192,192,42404,1,0,0:0:0:0:
320,192,42490,1,0,0:0:0:0:
192,192,42575,1,0,0:0:0:0:
448,192,42661,1,0,0:0:0:0:
320,192,42747,1,8,0:0:0:0:
192,192,42747,128,0,42918:0:0:0:0:
64,192,42832,1,0,0:0:0:0:
320,192,42918,128,0,43090:0:0:0:0:
448,192,42918,1,0,0:0:0:0:
64,192,43004,1,0,0:0:0:0:
192,192,43090,1,4,3:0:0:0:
448,192,43090,128,0,43261:0:0:0:0:
64,192,43175,1,0,0:0:0:0:
320,192,43261,1,0,0:0:0:0:
64,192,43347,1,0,0:0:0:0:
192,192,43432,1,8,0:0:0:0:
320,192,43432,128,0,43604:0:0:0:0:
448,192,43518,1,0,0:0:0:0:
192,192,43604,128,0,43775:0:0:0:0:
64,192,43604,1,0,0:0:0:0:
448,192,43690,1,0,0:0:0:0:
320,192,43775,1,4,3:0:0:0:
64,192,43775,128,0,43947:0:0:0:0:
448,192,43861,1,0,0:0:0:0:
192,192,43947,1,0,0:0:0:0:
448,192,44032,1,0,0:0:0:0:
320,192,44118,1,8,0:0:0:0:
192,192,44118,128,0,44290:0:0:0:0:
64,192,44204,1,0,0:0:0:0:
448,192,44290,1,4,3:0:0:0:
320,192,44290,128,0,44461:0:0:0:0:
64,192,44375,1,0,0:0:0:0:
448,192,44461,1,4,3:0:0:0:
192,192,44461,1,0,0:0:0:0:
64,192,44547,1,0,0:0:0:0:
448,192,44632,1,4,3:0:0:0:
320,192,44632,1,0,0:0:0:0:
192,192,44718,1,0,0:0:0:0:
448,192,44804,1,8,0:0:0:0:
64,192,44804,1,0,0:0:0:0:
192,192,44975,1,4,3:0:0:0:
448,192,44975,1,0,0:0:0:0:
320,192,45061,1,0,0:0:0:0:
448,192,45147,1,4,3:0:0:0:
64,192,45147,1,0,0:0:0:0:
192,192,45232,1,0,0:0:0:0:
320,192,45318,1,0,0:0:0:0:
192,192,45404,1,0,0:0:0:0:
448,192,45490,1,8,0:0:0:0:
320,192,45490,128,0,45661:0:0:0:0:
64,192,45575,1,0,0:0:0:0:
448,192,45661,1,0,0:0:0:0:
192,192,45661,128,0,45832:0:0:0:0:
320,192,45747,1,0,0:0:0:0:
448,192,45832,1,4,3:0:0:0:
64,192,45832,128,0,46004:0:0:0:0:
320,192,45918,1,0,0:0:0:0:
192,192,46004,1,0,0:0:0:0:
448,192,46090,1,0,0:0:0:0:
320,192,46175,1,8,0:0:0:0:
192,192,46175,128,0,46347:0:0:0:0:
64,192,46261,1,0,0:0:0:0:
448,192,46347,1,0,0:0:0:0:
320,192,46347,128,0,46518:0:0:0:0:
192,192,46432,1,0,0:0:0:0:
64,192,46518,1,4,3:0:0:0:
448,192,46518,128,0,46690:0:0:0:0:
192,192,46604,1,0,0:0:0:0:
320,192,46690,1,0,0:0:0:0:
64,192,46775,1,0,0:0:0:0:
192,192,46861,1,8,0:0:0:0:
320,192,46861,128,0,47032:0:0:0:0:
448,192,47032,1,0,0:0:0:0:
192,192,47032,128,0,47204:0:0:0:0:
64,192,47118,1,0,0:0:0:0:
448,192,47204,1,4,3:0:0:0:
320,192,47204,1,0,0:0:0:0:
64,192,47290,1,0,0:0:0:0:
320,192,47375,1,0,0:0:0:0:
192,192,47375,128,0,47461:0:0:0:0:
448,192,47461,1,0,0:0:0:0:
320,192,47547,1,8,0:0:0:0:
192,192,47547,128,0,47632:0:0:0:0:
64,192,47632,1,0,0:0:0:0:
320,192,47718,1,0,0:0:0:0:
448,192,47718,128,0,47804:0:0:0:0:
192,192,47804,1,0,0:0:0:0:
64,192,47804,128,0,47890:0:0:0:0:
320,192,47890,1,4,3:0:0:0:
448,192,47890,128,0,47975:0:0:0:0:
192,192,47975,1,0,0:0:0:0:
64,192,48061,1,0,0:0:0:0:
320,192,48061,128,0,48147:0:0:0:0:
192,192,48147,1,0,0:0:0:0:
64,192,48232,1,8,0:0:0:0:
448,192,48232,1,0,0:0:0:0:
320,192,48318,1,0,0:0:0:0:
192,192,48404,1,0,0:0:0:0:
448,192,48404,1,0,0:0:0:0:
320,192,48490,1,0,0:0:0:0:
192,192,48575,1,4,3:0:0:0:
64,192,48575,128,0,48661:0:0:0:0:
448,192,48661,1,0,0:0:0:0:
320,192,48747,1,0,0:0:0:0:
192,192,48747,128,0,48832:0:0:0:0:
64,192,48832,1,0,0:0:0:0:
320,192,48918,1,8,0:0:0:0:
448,192,48918,1,0,0:0:0:0:
448,192,49090,1,0,0:0:0:0:
64,192,49090,1,0,0:0:0:0:
320,192,49175,1,0,0:0:0:0:
64,192,49261,1,4,3:0:0:0:
192,192,49261,128,0,49347:0:0:0:0:
192,192,49432,1,0,0:0:0:0:
320,192,49432,128,0,49518:0:0:0:0:
448,192,49518,1,0,0:0:0:0:
64,192,49604,1,8,0:0:0:0:
320,192,49604,1,0,0:0:0:0:
192,192,49690,1,0,0:0:0:0:
320,192,49775,1,0,0:0:0:0:
448,192,49775,1,0,0:0:0:0:
192,192,49861,1,0,0:0:0:0:
320,192,49947,1,4,3:0:0:0:
448,192,49947,128,0,50032:0:0:0:0:
64,192,50032,1,0,0:0:0:0:
192,192,50118,1,0,0:0:0:0:
320,192,50118,128,0,50204:0:0:0:0:
448,192,50204,1,0,0:0:0:0:
64,192,50290,1,8,0:0:0:0:
192,192,50290,1,4,3:0:0:0:
448,192,50461,1,4,3:0:0:0:
320,192,50461,1,0,0:0:0:0:
64,192,50547,1,0,0:0:0:0:
192,192,50547,128,0,50632:0:0:0:0:
320,192,50632,1,4,3:0:0:0:
448,192,50632,128,0,50718:0:0:0:0:
192,192,50804,1,0,0:0:0:0:
64,192,50804,128,0,50890:0:0:0:0:
320,192,50890,1,0,0:0:0:0:
64,192,50975,1,8,0:0:0:0:
448,192,50975,1,0,0:0:0:0:
192,192,51061,1,0,0:0:0:0:
320,192,51147,1,0,0:0:0:0:
192,192,51232,1,0,0:0:0:0:
320,192,51318,1,4,3:0:0:0:
448,192,51318,128,0,51404:0:0:0:0:
64,192,51404,1,0,0:0:0:0:
320,192,51490,1,0,0:0:0:0:
192,192,51490,128,0,51575:0:0:0:0:
448,192,51575,1,0,0:0:0:0:
64,192,51661,1,8,0:0:0:0:
320,192,51661,1,0,0:0:0:0:
448,192,51832,1,0,0:0:0:0:
192,192,51832,1,0,0:0:0:0:
320,192,51918,1,0,0:0:0:0:
192,192,52004,1,4,3:0:0:0:
64,192,52004,128,0,52090:0:0:0:0:
320,192,52175,1,0,0:0:0:0:
448,192,52175,128,0,52261:0:0:0:0:
64,192,52347,1,8,0:0:0:0:
448,192,52347,1,0,0:0:0:0:
320,192,52432,1,0,0:0:0:0:
192,192,52518,1,0,0:0:0:0:
320,192,52604,1,0,0:0:0:0:
448,192,52690,1,4,3:0:0:0:
64,192,52690,128,0,52775:0:0:0:0:
192,192,52775,1,0,0:0:0:0:
64,192,52861,1,0,0:0:0:0:
320,192,52861,128,0,52947:0:0:0:0:
448,192,52947,1,0,0:0:0:0:
320,192,53032,1,8,0:0:0:0:
192,192,53032,1,4,3:0:0:0:
448,192,53118,1,0,0:0:0:0:
64,192,53204,1,4,3:0:0:0:
192,192,53204,1,0,0:0:0:0:
320,192,53290,1,0,0:0:0:0:
448,192,53290,128,0,53375:0:0:0:0:
64,192,53375,1,4,3:0:0:0:
192,192,53375,128,0,53461:0:0:0:0:
64,192,53547,1,0,0:0:0:0:
448,192,53547,128,0,53632:0:0:0:0:
192,192,53718,1,8,0:0:0:0:
64,192,53718,1,0,0:0:0:0:
320,192,53804,1,0,0:0:0:0:
64,192,53890,1,0,0:0:0:0:
448,192,53975,1,0,0:0:0:0:
192,192,54061,1,4,3:0:0:0:
320,192,54061,128,0,54147:0:0:0:0:
448,192,54147,1,0,0:0:0:0:
192,192,54232,1,0,0:0:0:0:
64,192,54232,128,0,54318:0:0:0:0:
320,192,54318,1,0,0:0:0:0:
192,192,54404,1,8,0:0:0:0:
448,192,54404,1,0,0:0:0:0:
320,192,54575,1,0,0:0:0:0:
192,192,54661,1,0,0:0:0:0:
64,192,54747,1,4,3:0:0:0:
448,192,54747,128,0,54832:0:0:0:0:
448,192,54918,1,0,0:0:0:0:
64,192,54918,128,0,55004:0:0:0:0:
192,192,55004,1,0,0:0:0:0:
320,192,55090,1,8,0:0:0:0:
448,192,55090,1,0,0:0:0:0:
192,192,55175,1,0,0:0:0:0:
448,192,55261,1,0,0:0:0:0:
64,192,55347,1,0,0:0:0:0:
192,192,55432,1,4,3:0:0:0:
320,192,55432,128,0,55518:0:0:0:0:
448,192,55518,1,0,0:0:0:0:
64,192,55604,1,0,0:0:0:0:
192,192,55604,128,0,55690:0:0:0:0:
320,192,55690,1,0,0:0:0:0:
64,192,55775,1,8,0:0:0:0:
448,192,55775,1,4,3:0:0:0:
320,192,55861,1,0,0:0:0:0:
192,192,55947,1,4,3:0:0:0:
64,192,55947,1,0,0:0:0:0:
448,192,56032,1,0,0:0:0:0:
320,192,56032,128,0,56118:0:0:0:0:
64,192,56118,1,4,3:0:0:0:
448,192,56118,1,4,1:0:0:0:
192,192,56118,128,0,56204:0:0:0:0:
64,192,56290,1,0,0:0:0:0:
448,192,56290,128,0,56375:0:0:0:0:
320,192,56375,1,0,0:0:0:0:
64,192,56461,1,8,0:0:0:0:
192,192,56461,1,0,0:0:0:0:
320,192,56547,1,0,0:0:0:0:
448,192,56632,1,0,0:0:0:0:
64,192,56718,1,0,0:0:0:0:
192,192,56804,1,4,3:0:0:0:
320,192,56804,128,0,56890:0:0:0:0:
448,192,56890,1,0,0:0:0:0:
192,192,56975,1,0,0:0:0:0:
64,192,56975,128,0,57061:0:0:0:0:
448,192,57061,1,0,0:0:0:0:
320,192,57147,1,8,0:0:0:0:
192,192,57147,1,0,0:0:0:0:
320,192,57318,1,0,0:0:0:0:
448,192,57318,1,0,0:0:0:0:
192,192,57404,1,0,0:0:0:0:
64,192,57490,1,4,1:0:0:0:
448,192,57490,1,4,3:0:0:0:
320,192,57490,1,0,0:0:0:0:
320,192,57661,1,4,3:0:0:0:
192,192,57661,1,0,0:0:0:0:
64,192,57832,1,4,1:0:0:0:
448,192,57832,1,4,3:0:0:0:
320,192,57832,1,0,0:0:0:0:
192,192,57918,1,0,0:0:0:0:
448,192,58004,1,4,3:0:0:0:
64,192,58004,1,0,0:0:0:0:
320,192,58090,1,0,0:0:0:0:
448,192,58175,1,4,3:0:0:0:
192,192,58175,1,4,1:0:0:0:
64,192,58175,1,0,0:0:0:0:
320,192,58218,1,4,3:0:0:0:
192,192,58261,1,4,3:0:0:0:
320,192,58347,1,4,3:0:0:0:
448,192,58347,1,0,0:0:0:0:
192,192,58432,1,4,3:0:0:0:
448,192,58518,1,4,1:0:0:0:
320,192,58518,1,4,3:0:0:0:
64,192,58518,1,0,0:0:0:0:
192,192,58561,1,4,3:0:0:0:
320,192,58604,1,4,3:0:0:0:
192,192,58690,1,4,3:0:0:0:
64,192,58690,1,0,0:0:0:0:
320,192,58775,1,4,3:0:0:0:
448,192,58861,1,4,3:0:0:0:
64,192,58861,128,4,59032:1:0:0:0:
320,192,59032,1,0,0:0:0:0:
64,192,59204,1,8,0:0:0:0:
448,192,59204,1,0,0:0:0:0:
192,192,59375,1,0,0:0:0:0:
320,192,59461,1,0,0:0:0:0:
64,192,59547,1,4,3:0:0:0:
192,192,59547,128,0,59632:0:0:0:0:
448,192,59632,1,0,0:0:0:0:
320,192,59632,128,0,59718:0:0:0:0:
64,192,59718,1,0,0:0:0:0:
192,192,59718,128,0,59804:0:0:0:0:
320,192,59804,1,0,0:0:0:0:
448,192,59890,128,8,60061:0:0:0:0:
64,192,59890,1,0,0:0:0:0:
64,192,60061,128,0,60232:0:0:0:0:
320,192,60061,1,0,0:0:0:0:
192,192,60232,128,4,60404:3:0:0:0:
448,192,60232,1,0,0:0:0:0:
320,192,60404,1,0,0:0:0:0:
64,192,60575,1,8,0:0:0:0:
448,192,60575,1,0,0:0:0:0:
320,192,60747,1,0,0:0:0:0:
192,192,60832,1,0,0:0:0:0:
448,192,60918,1,4,3:0:0:0:
320,192,60918,128,0,61004:0:0:0:0:
64,192,61004,1,0,0:0:0:0:
192,192,61004,128,0,61090:0:0:0:0:
448,192,61090,1,0,0:0:0:0:
320,192,61090,128,0,61175:0:0:0:0:
192,192,61175,1,0,0:0:0:0:
64,192,61261,128,8,61432:0:0:0:0:
320,192,61261,1,0,0:0:0:0:
192,192,61432,128,0,61604:0:0:0:0:
448,192,61432,1,0,0:0:0:0:
320,192,61604,128,4,61775:3:0:0:0:
448,192,61604,1,0,0:0:0:0:
192,192,61775,1,0,0:0:0:0:
64,192,61947,1,8,0:0:0:0:
448,192,61947,1,0,0:0:0:0:
192,192,62118,1,0,0:0:0:0:
320,192,62204,1,0,0:0:0:0:
448,192,62290,1,4,3:0:0:0:
192,192,62290,128,0,62375:0:0:0:0:
320,192,62375,128,0,62461:0:0:0:0:
64,192,62375,1,0,0:0:0:0:
448,192,62461,1,0,0:0:0:0:
192,192,62461,128,0,62547:0:0:0:0:
320,192,62547,1,0,0:0:0:0:
448,192,62632,1,8,0:0:0:0:
64,192,62632,128,0,62804:0:0:0:0:
192,192,62804,1,0,0:0:0:0:
448,192,62804,128,0,62975:0:0:0:0:
320,192,62975,128,4,63147:3:0:0:0:
64,192,62975,1,0,0:0:0:0:
192,192,63147,1,0,0:0:0:0:
64,192,63318,1,8,0:0:0:0:
448,192,63318,1,0,0:0:0:0:
192,192,63490,1,0,0:0:0:0:
320,192,63575,1,0,0:0:0:0:
448,192,63661,1,4,3:0:0:0:
192,192,63661,128,0,63747:0:0:0:0:
64,192,63747,1,0,0:0:0:0:
320,192,63747,128,0,63832:0:0:0:0:
192,192,63832,128,4,63918:3:0:0:0:
448,192,63832,1,0,0:0:0:0:
320,192,63918,1,0,0:0:0:0:
448,192,64004,128,8,64175:0:0:0:0:
64,192,64004,1,0,0:0:0:0:
320,192,64090,1,4,3:0:0:0:
192,192,64090,1,0,0:0:0:0:
64,192,64175,1,4,3:0:0:0:
192,192,64175,128,0,64347:0:0:0:0:
448,192,64261,1,0,0:0:0:0:
64,192,64347,1,4,3:0:0:0:
320,192,64347,128,0,64518:0:0:0:0:
192,192,64518,1,0,0:0:0:0:
64,192,64690,1,8,0:0:0:0:
448,192,64690,1,0,0:0:0:0:
192,192,64861,1,0,0:0:0:0:
320,192,65032,1,4,3:0:0:0:
448,192,65032,128,0,65118:0:0:0:0:
192,192,65118,1,0,0:0:0:0:
64,192,65118,128,0,65204:0:0:0:0:
320,192,65204,1,0,0:0:0:0:
448,192,65204,128,0,65290:0:0:0:0:
64,192,65290,1,0,0:0:0:0:
320,192,65375,128,8,65547:0:0:0:0:
192,192,65375,1,0,0:0:0:0:
192,192,65547,128,0,65718:0:0:0:0:
448,192,65547,1,0,0:0:0:0:
448,192,65718,128,4,65890:3:0:0:0:
64,192,65718,1,0,0:0:0:0:
192,192,65890,1,0,0:0:0:0:
64,192,66061,1,8,0:0:0:0:
448,192,66061,1,0,0:0:0:0:
320,192,66232,1,0,0:0:0:0:
192,192,66404,1,4,3:0:0:0:
64,192,66404,128,0,66490:0:0:0:0:
448,192,66490,128,0,66575:0:0:0:0:
320,192,66490,1,0,0:0:0:0:
64,192,66575,128,0,66661:0:0:0:0:
192,192,66575,1,0,0:0:0:0:
448,192,66661,1,0,0:0:0:0:
192,192,66747,128,8,66918:0:0:0:0:
320,192,66747,1,0,0:0:0:0:
320,192,66918,128,4,67090:3:0:0:0:
64,192,66918,1,0,0:0:0:0:
192,192,67090,128,4,67261:3:0:0:0:
64,192,67090,1,0,0:0:0:0:
448,192,67261,1,0,0:0:0:0:
64,192,67432,1,8,0:0:0:0:
320,192,67432,1,0,0:0:0:0:
192,192,67604,1,0,0:0:0:0:
448,192,67775,1,4,3:0:0:0:
192,192,67775,128,0,67861:0:0:0:0:
320,192,67861,128,0,67947:0:0:0:0:
64,192,67861,1,0,0:0:0:0:
192,192,67947,128,0,68032:0:0:0:0:
448,192,67947,1,0,0:0:0:0:
320,192,68032,1,0,0:0:0:0:
448,192,68118,1,8,0:0:0:0:
64,192,68118,128,0,68290:0:0:0:0:
320,192,68290,128,0,68461:0:0:0:0:
192,192,68290,1,0,0:0:0:0:
448,192,68461,128,4,68632:3:0:0:0:
64,192,68461,1,0,0:0:0:0:
192,192,68547,1,4,3:0:0:0:
320,192,68547,1,0,0:0:0:0:
64,192,68632,1,4,3:0:0:0:
192,192,68632,1,0,0:0:0:0:
448,192,68804,1,8,0:0:0:0:
192,192,68804,1,0,0:0:0:0:
448,192,68975,1,4,3:0:0:0:
320,192,68975,1,0,0:0:0:0:
320,192,69147,1,4,3:0:0:0:
64,192,69147,128,0,69232:0:0:0:0:
192,192,69232,1,0,0:0:0:0:
448,192,69232,128,0,69318:0:0:0:0:
320,192,69318,1,4,3:0:0:0:
64,192,69318,128,0,69404:0:0:0:0:
192,192,69404,1,0,0:0:0:0:
448,192,69490,1,4,0:0:0:0:
64,192,69490,1,8,0:0:0:0:
320,192,69490,128,0,69661:0:0:0:0:
192,192,69575,1,4,3:0:0:0:
64,192,69661,1,4,3:0:0:0:
448,192,69661,128,0,69832:0:0:0:0:
192,192,69704,1,4,3:0:0:0:
320,192,69747,1,4,3:0:0:0:
192,192,69790,1,4,3:0:0:0:
320,192,69832,1,4,3:0:0:0:
64,192,69832,128,0,70004:0:0:0:0:
320,192,70004,1,0,0:0:0:0:
448,192,70175,128,8,70347:0:0:0:0:
64,192,70175,1,0,0:0:0:0:
192,192,70347,1,0,0:0:0:0:
448,192,70518,1,4,3:0:0:0:
320,192,70518,1,0,0:0:0:0:
192,192,70604,1,0,0:0:0:0:
64,192,70604,1,0,0:0:0:0:
448,192,70690,128,0,70861:0:0:0:0:
320,192,70690,1,0,0:0:0:0:
64,192,70775,1,0,0:0:0:0:
192,192,70861,128,8,71032:0:0:0:0:
320,192,70861,1,0,0:0:0:0:
320,192,71032,128,0,71204:0:0:0:0:
64,192,71032,1,0,0:0:0:0:
448,192,71204,128,4,71375:3:0:0:0:
192,192,71204,128,0,71375:0:0:0:0:
64,192,71375,1,0,0:0:0:0:
448,192,71547,1,8,0:0:0:0:
320,192,71547,1,0,0:0:0:0:
192,192,71718,128,0,72061:0:0:0:0:
320,192,71718,1,0,0:0:0:0:
448,192,71890,1,4,3:0:0:0:
64,192,71890,1,0,0:0:0:0:
320,192,71975,1,0,0:0:0:0:
448,192,72061,1,0,0:0:0:0:
64,192,72061,128,0,72232:0:0:0:0:
192,192,72147,1,0,0:0:0:0:
320,192,72232,1,8,0:0:0:0:
448,192,72232,128,0,72404:0:0:0:0:
320,192,72404,128,4,72575:3:0:0:0:
64,192,72404,1,0,0:0:0:0:
192,192,72575,128,4,72747:3:0:0:0:
64,192,72575,1,0,0:0:0:0:
448,192,72747,1,0,0:0:0:0:
320,192,72918,128,8,73090:0:0:0:0:
64,192,72918,1,0,0:0:0:0:
192,192,73090,1,0,0:0:0:0:
448,192,73261,1,4,3:0:0:0:
64,192,73261,1,0,0:0:0:0:
320,192,73347,1,0,0:0:0:0:
192,192,73347,1,0,0:0:0:0:
64,192,73432,1,0,0:0:0:0:
448,192,73432,1,0,0:0:0:0:
320,192,73518,1,0,0:0:0:0:
192,192,73518,1,0,0:0:0:0:
448,192,73604,1,8,0:0:0:0:
64,192,73604,128,0,73775:0:0:0:0:
448,192,73775,128,0,73947:0:0:0:0:
320,192,73775,128,0,73947:0:0:0:0:
192,192,73947,128,4,74118:3:0:0:0:
64,192,73947,1,0,0:0:0:0:
320,192,74118,1,0,0:0:0:0:
64,192,74290,1,8,0:0:0:0:
448,192,74290,1,0,0:0:0:0:
192,192,74461,1,0,0:0:0:0:
448,192,74632,1,4,3:0:0:0:
320,192,74632,1,0,0:0:0:0:
192,192,74718,1,0,0:0:0:0:
64,192,74718,1,0,0:0:0:0:
448,192,74804,1,4,3:0:0:0:
320,192,74804,1,0,0:0:0:0:
64,192,74890,1,4,3:0:0:0:
192,192,74890,1,0,0:0:0:0:
320,192,74975,1,8,0:0:0:0:
448,192,74975,128,4,75147:3:0:0:0:
192,192,75147,128,4,75318:3:0:0:0:
64,192,75147,1,0,0:0:0:0:
320,192,75318,128,4,75490:3:0:0:0:
448,192,75318,1,0,0:0:0:0:
192,192,75490,1,0,0:0:0:0:
448,192,75661,1,8,0:0:0:0:
64,192,75661,128,0,75832:0:0:0:0:
320,192,75832,1,0,0:0:0:0:
64,192,76004,1,4,3:0:0:0:
320,192,76004,1,0,0:0:0:0:
448,192,76090,1,0,0:0:0:0:
192,192,76090,1,0,0:0:0:0:
64,192,76175,128,0,76347:0:0:0:0:
320,192,76175,1,0,0:0:0:0:
192,192,76261,1,0,0:0:0:0:
320,192,76347,128,8,76518:0:0:0:0:
448,192,76347,1,0,0:0:0:0:
64,192,76518,1,0,0:0:0:0:
192,192,76518,128,0,76690:0:0:0:0:
448,192,76690,128,4,76861:3:0:0:0:
320,192,76690,128,0,76861:0:0:0:0:
192,192,76861,1,0,0:0:0:0:
64,192,77032,1,8,0:0:0:0:
448,192,77032,1,0,0:0:0:0:
320,192,77204,128,0,77547:0:0:0:0:
192,192,77204,1,0,0:0:0:0:
64,192,77375,1,4,3:0:0:0:
448,192,77375,1,0,0:0:0:0:
192,192,77461,1,0,0:0:0:0:
64,192,77547,1,0,0:0:0:0:
448,192,77547,128,0,77718:0:0:0:0:
192,192,77632,1,0,0:0:0:0:
64,192,77718,128,8,77890:0:0:0:0:
320,192,77718,1,0,0:0:0:0:
448,192,77890,1,4,3:0:0:0:
192,192,77890,128,0,78061:0:0:0:0:
320,192,78061,128,4,78232:3:0:0:0:
448,192,78061,1,0,0:0:0:0:
64,192,78232,1,0,0:0:0:0:
448,192,78404,1,8,0:0:0:0:
192,192,78404,128,0,78575:0:0:0:0:
320,192,78575,1,0,0:0:0:0:
448,192,78747,1,4,3:0:0:0:
64,192,78747,1,0,0:0:0:0:
192,192,78832,1,0,0:0:0:0:
320,192,78832,1,0,0:0:0:0:
448,192,78918,1,0,0:0:0:0:
64,192,78918,1,0,0:0:0:0:
192,192,79004,1,0,0:0:0:0:
320,192,79004,1,0,0:0:0:0:
64,192,79090,1,8,0:0:0:0:
448,192,79090,128,0,79261:0:0:0:0:
64,192,79261,128,0,79432:0:0:0:0:
192,192,79261,128,0,79432:0:0:0:0:
320,192,79432,128,4,79604:3:0:0:0:
448,192,79432,1,0,0:0:0:0:
192,192,79604,1,0,0:0:0:0:
448,192,79775,1,8,0:0:0:0:
64,192,79775,1,0,0:0:0:0:
320,192,79947,1,0,0:0:0:0:
64,192,80118,1,4,3:0:0:0:
192,192,80118,1,0,0:0:0:0:
448,192,80204,1,0,0:0:0:0:
320,192,80204,1,0,0:0:0:0:
64,192,80290,1,4,3:0:0:0:
192,192,80290,1,0,0:0:0:0:
448,192,80375,1,4,3:0:0:0:
320,192,80375,1,0,0:0:0:0:
192,192,80461,1,8,0:0:0:0:
64,192,80461,128,4,80632:3:0:0:0:
192,192,80632,1,4,3:0:0:0:
320,192,80632,128,0,80804:0:0:0:0:
192,192,80804,128,4,80975:3:0:0:0:
64,192,80804,1,4,1:0:0:0:
448,192,80804,1,0,0:0:0:0:
320,192,80890,1,0,0:0:0:0:
448,192,80975,1,0,0:0:0:0:
64,192,81061,1,0,0:0:0:0:
192,192,81147,1,8,0:0:0:0:
320,192,81147,1,0,0:0:0:0:
448,192,81318,1,0,0:0:0:0:
320,192,81318,1,0,0:0:0:0:
64,192,81490,1,4,3:0:0:0:
192,192,81490,1,0,0:0:0:0:
448,192,81575,1,0,0:0:0:0:
320,192,81575,1,0,0:0:0:0:
64,192,81661,1,0,0:0:0:0:
192,192,81661,1,0,0:0:0:0:
320,192,81747,1,0,0:0:0:0:
448,192,81747,1,0,0:0:0:0:
64,192,81832,128,8,82004:0:0:0:0:
192,192,81832,1,0,0:0:0:0:
448,192,82004,128,0,82175:0:0:0:0:
320,192,82004,1,0,0:0:0:0:
64,192,82175,128,4,82347:3:0:0:0:
320,192,82175,1,0,0:0:0:0:
192,192,82261,1,0,0:0:0:0:
448,192,82347,1,0,0:0:0:0:
192,192,82432,1,0,0:0:0:0:
64,192,82518,1,8,0:0:0:0:
320,192,82518,1,0,0:0:0:0:
448,192,82690,1,0,0:0:0:0:
192,192,82690,1,0,0:0:0:0:
320,192,82861,1,4,3:0:0:0:
192,192,82861,1,0,0:0:0:0:
64,192,82947,1,0,0:0:0:0:
448,192,82947,1,0,0:0:0:0:
320,192,83032,1,0,0:0:0:0:
192,192,83032,1,0,0:0:0:0:
64,192,83118,1,0,0:0:0:0:
448,192,83118,1,0,0:0:0:0:
192,192,83204,1,8,0:0:0:0:
320,192,83204,128,0,83375:0:0:0:0:
64,192,83375,1,4,3:0:0:0:
192,192,83375,1,0,0:0:0:0:
448,192,83461,1,4,3:0:0:0:
320,192,83461,1,0,0:0:0:0:
192,192,83547,128,4,83718:3:0:0:0:
64,192,83547,1,0,0:0:0:0:
320,192,83632,1,0,0:0:0:0:
448,192,83718,1,0,0:0:0:0:
64,192,83804,1,0,0:0:0:0:
192,192,83890,1,8,0:0:0:0:
448,192,83890,1,0,0:0:0:0:
320,192,84061,1,0,0:0:0:0:
192,192,84061,1,0,0:0:0:0:
192,192,84232,1,4,3:0:0:0:
448,192,84232,1,0,0:0:0:0:
320,192,84318,1,0,0:0:0:0:
64,192,84318,1,0,0:0:0:0:
192,192,84404,1,0,0:0:0:0:
448,192,84404,1,0,0:0:0:0:
64,192,84490,1,0,0:0:0:0:
320,192,84490,1,0,0:0:0:0:
192,192,84575,1,8,0:0:0:0:
448,192,84575,128,0,84747:0:0:0:0:
192,192,84747,128,0,84918:0:0:0:0:
64,192,84747,1,0,0:0:0:0:
320,192,84832,1,0,0:0:0:0:
448,192,84918,128,4,85090:3:0:0:0:
64,192,84918,1,0,0:0:0:0:
192,192,85004,1,0,0:0:0:0:
64,192,85090,1,0,0:0:0:0:
320,192,85175,1,0,0:0:0:0:
64,192,85261,1,8,0:0:0:0:
448,192,85261,1,8,0:0:0:0:
320,192,85432,1,0,0:0:0:0:
192,192,85432,1,0,0:0:0:0:
64,192,85604,1,4,3:0:0:0:
320,192,85604,1,0,0:0:0:0:
448,192,85690,1,0,0:0:0:0:
192,192,85690,1,0,0:0:0:0:
64,192,85775,1,0,0:0:0:0:
320,192,85775,1,0,0:0:0:0:
448,192,85861,1,0,0:0:0:0:
192,192,85861,1,0,0:0:0:0:
320,192,85947,1,8,0:0:0:0:
64,192,85947,1,4,0:0:0:0:
192,192,85947,128,0,86118:0:0:0:0:
320,192,86118,1,4,3:0:0:0:
448,192,86118,1,0,0:0:0:0:
192,192,86204,1,4,3:0:0:0:
64,192,86204,1,0,0:0:0:0:
64,192,86290,128,4,86461:3:0:0:0:
448,192,86290,1,4,1:0:0:0:
320,192,86290,1,0,0:0:0:0:
192,192,86375,1,0,0:0:0:0:
448,192,86461,1,0,0:0:0:0:
320,192,86547,1,0,0:0:0:0:
192,192,86632,1,8,0:0:0:0:
64,192,86632,1,0,0:0:0:0:
320,192,86804,1,0,0:0:0:0:
192,192,86804,1,0,0:0:0:0:
448,192,86975,1,4,3:0:0:0:
320,192,86975,1,0,0:0:0:0:
192,192,87061,1,0,0:0:0:0:
64,192,87061,1,0,0:0:0:0:
320,192,87147,1,0,0:0:0:0:
448,192,87147,1,0,0:0:0:0:
64,192,87232,1,0,0:0:0:0:
192,192,87232,1,0,0:0:0:0:
448,192,87318,1,8,0:0:0:0:
320,192,87318,128,0,87490:0:0:0:0:
448,192,87490,128,0,87661:0:0:0:0:
64,192,87490,1,0,0:0:0:0:
320,192,87661,128,4,87832:3:0:0:0:
192,192,87661,1,0,0:0:0:0:
64,192,87747,1,0,0:0:0:0:
448,192,87832,1,0,0:0:0:0:
192,192,87918,1,0,0:0:0:0:
320,192,88004,1,8,0:0:0:0:
64,192,88004,1,0,0:0:0:0:
448,192,88175,1,0,0:0:0:0:
320,192,88175,1,0,0:0:0:0:
64,192,88347,1,4,3:0:0:0:
192,192,88347,1,0,0:0:0:0:
320,192,88432,1,0,0:0:0:0:
448,192,88432,1,0,0:0:0:0:
192,192,88518,1,0,0:0:0:0:
64,192,88518,1,0,0:0:0:0:
448,192,88604,1,0,0:0:0:0:
320,192,88604,1,0,0:0:0:0:
192,192,88690,128,8,88861:0:0:0:0:
64,192,88690,1,0,0:0:0:0:
320,192,88861,1,4,3:0:0:0:
448,192,88861,1,0,0:0:0:0:
192,192,88947,1,4,3:0:0:0:
64,192,88947,1,0,0:0:0:0:
448,192,89032,128,4,89204:3:0:0:0:
320,192,89032,1,0,0:0:0:0:
192,192,89118,1,0,0:0:0:0:
64,192,89204,1,0,0:0:0:0:
320,192,89290,1,0,0:0:0:0:
448,192,89375,1,8,0:0:0:0:
192,192,89375,1,0,0:0:0:0:
192,192,89547,1,0,0:0:0:0:
64,192,89547,1,0,0:0:0:0:
448,192,89718,1,4,3:0:0:0:
320,192,89718,1,0,0:0:0:0:
192,192,89804,1,0,0:0:0:0:
64,192,89804,1,0,0:0:0:0:
320,192,89890,1,0,0:0:0:0:
448,192,89890,1,0,0:0:0:0:
64,192,89975,1,0,0:0:0:0:
192,192,89975,1,0,0:0:0:0:
448,192,90061,1,8,0:0:0:0:
320,192,90061,128,0,90232:0:0:0:0:
448,192,90232,128,0,90404:0:0:0:0:
64,192,90232,1,0,0:0:0:0:
64,192,90404,128,4,90575:1:0:0:0:
192,192,90404,1,4,3:0:0:0:
320,192,90404,1,0,0:0:0:0:
320,192,90575,1,0,0:0:0:0:
64,192,90747,1,8,0:0:0:0:
192,192,90747,1,4,0:0:0:0:
448,192,90747,1,0,0:0:0:0:
320,192,90918,1,0,0:0:0:0:
64,192,91090,1,4,1:0:0:0:
192,192,91090,1,4,3:0:0:0:
448,192,91090,1,0,0:0:0:0:
320,192,91175,1,0,0:0:0:0:
448,192,91261,1,0,0:0:0:0:
64,192,91261,1,0,0:0:0:0:
192,192,91347,1,0,0:0:0:0:
448,192,91432,1,8,0:0:0:0:
320,192,91432,1,4,0:0:0:0:
64,192,91432,128,0,91604:0:0:0:0:
448,192,91604,1,4,3:0:0:0:
320,192,91604,1,0,0:0:0:0:
64,192,91690,1,4,3:0:0:0:
192,192,91690,1,0,0:0:0:0:
448,192,91775,1,4,1:0:0:0:
64,192,91775,1,4,3:0:0:0:
320,192,91775,128,0,91947:0:0:0:0:
192,192,91861,1,0,0:0:0:0:
448,192,91947,1,0,0:0:0:0:
64,192,92032,1,0,0:0:0:0:
320,192,92118,1,8,0:0:0:0:
192,192,92118,1,0,0:0:0:0:
448,192,92290,1,0,0:0:0:0:
64,192,92290,1,0,0:0:0:0:
192,192,92461,1,4,3:0:0:0:
448,192,92461,1,0,0:0:0:0:
64,192,92547,1,0,0:0:0:0:
320,192,92547,1,0,0:0:0:0:
448,192,92632,1,0,0:0:0:0:
192,192,92632,1,0,0:0:0:0:
64,192,92718,1,0,0:0:0:0:
320,192,92718,1,0,0:0:0:0:
192,192,92804,1,8,0:0:0:0:
448,192,92804,128,0,92975:0:0:0:0:
320,192,92975,128,0,93147:0:0:0:0:
192,192,92975,1,0,0:0:0:0:
64,192,93061,1,0,0:0:0:0:
192,192,93147,128,4,93318:3:0:0:0:
448,192,93147,1,0,0:0:0:0:
64,192,93232,1,0,0:0:0:0:
448,192,93318,1,0,0:0:0:0:
320,192,93404,1,0,0:0:0:0:
64,192,93490,1,8,0:0:0:0:
192,192,93490,1,0,0:0:0:0:
320,192,93661,1,0,0:0:0:0:
448,192,93661,1,0,0:0:0:0:
64,192,93832,1,4,3:0:0:0:
448,192,93832,1,0,0:0:0:0:
192,192,93918,1,0,0:0:0:0:
320,192,93918,1,0,0:0:0:0:
448,192,94004,1,0,0:0:0:0:
64,192,94004,1,0,0:0:0:0:
192,192,94090,1,0,0:0:0:0:
320,192,94090,1,0,0:0:0:0:
448,192,94175,1,8,0:0:0:0:
64,192,94175,128,0,94347:0:0:0:0:
448,192,94347,1,4,3:0:0:0:
320,192,94347,1,0,0:0:0:0:
192,192,94432,1,4,3:0:0:0:
64,192,94432,1,0,0:0:0:0:
320,192,94518,128,4,94690:3:0:0:0:
448,192,94518,1,0,0:0:0:0:
192,192,94604,1,0,0:0:0:0:
64,192,94690,1,0,0:0:0:0:
192,192,94775,1,0,0:0:0:0:
320,192,94861,1,8,0:0:0:0:
448,192,94861,1,0,0:0:0:0:
64,192,95032,1,0,0:0:0:0:
192,192,95032,1,0,0:0:0:0:
64,192,95204,1,4,3:0:0:0:
448,192,95204,1,0,0:0:0:0:
192,192,95290,1,0,0:0:0:0:
320,192,95290,1,0,0:0:0:0:
448,192,95375,1,0,0:0:0:0:
64,192,95375,1,0,0:0:0:0:
192,192,95461,1,0,0:0:0:0:
320,192,95461,1,0,0:0:0:0:
448,192,95547,128,8,95718:0:0:0:0:
64,192,95547,1,0,0:0:0:0:
320,192,95718,128,0,95890:0:0:0:0:
192,192,95718,1,0,0:0:0:0:
64,192,95804,1,0,0:0:0:0:
448,192,95890,1,4,3:0:0:0:
192,192,95890,128,0,96061:0:0:0:0:
64,192,95975,1,0,0:0:0:0:
448,192,96061,1,0,0:0:0:0:
320,192,96147,1,0,0:0:0:0:
448,192,96232,1,8,0:0:0:0:
64,192,96232,1,0,0:0:0:0:
320,192,96404,1,0,0:0:0:0:
192,192,96404,1,0,0:0:0:0:
64,192,96575,1,4,3:0:0:0:
320,192,96575,1,0,0:0:0:0:
192,192,96661,1,0,0:0:0:0:
448,192,96661,1,0,0:0:0:0:
320,192,96747,1,0,0:0:0:0:
64,192,96747,1,0,0:0:0:0:
192,192,96832,1,0,0:0:0:0:
448,192,96832,1,0,0:0:0:0:
448,192,96918,1,8,0:0:0:0:
64,192,96918,128,4,97090:0:0:0:0:
320,192,96918,1,0,0:0:0:0:
320,192,97090,1,4,3:0:0:0:
448,192,97090,1,0,0:0:0:0:
192,192,97175,1,4,3:0:0:0:
64,192,97175,1,0,0:0:0:0:
320,192,97261,128,4,97432:3:0:0:0:
448,192,97261,1,4,1:0:0:0:
64,192,97261,1,0,0:0:0:0:
192,192,97347,1,0,0:0:0:0:
64,192,97432,1,0,0:0:0:0:
192,192,97518,1,0,0:0:0:0:
320,192,97604,1,8,0:0:0:0:
448,192,97604,1,0,0:0:0:0:
64,192,97775,1,0,0:0:0:0:
192,192,97775,1,0,0:0:0:0:
448,192,97947,1,4,3:0:0:0:
64,192,97947,1,0,0:0:0:0:
320,192,98032,1,0,0:0:0:0:
192,192,98032,1,0,0:0:0:0:
448,192,98118,1,0,0:0:0:0:
64,192,98118,1,0,0:0:0:0:
192,192,98204,1,0,0:0:0:0:
320,192,98204,1,0,0:0:0:0:
64,192,98290,1,8,0:0:0:0:
448,192,98290,128,0,98461:0:0:0:0:
192,192,98461,1,0,0:0:0:0:
320,192,98461,128,0,98632:0:0:0:0:
64,192,98547,1,0,0:0:0:0:
448,192,98632,1,4,3:0:0:0:
192,192,98632,128,0,98804:0:0:0:0:
64,192,98718,1,0,0:0:0:0:
320,192,98804,1,0,0:0:0:0:
64,192,98890,1,0,0:0:0:0:
448,192,98975,1,8,0:0:0:0:
320,192,98975,1,0,0:0:0:0:
192,192,99147,1,0,0:0:0:0:
320,192,99147,1,0,0:0:0:0:
448,192,99318,1,4,3:0:0:0:
64,192,99318,1,0,0:0:0:0:
192,192,99404,1,0,0:0:0:0:
320,192,99404,1,0,0:0:0:0:
64,192,99490,1,0,0:0:0:0:
448,192,99490,1,0,0:0:0:0:
320,192,99575,1,0,0:0:0:0:
192,192,99575,1,0,0:0:0:0:
64,192,99661,128,8,99832:0:0:0:0:
448,192,99661,1,0,0:0:0:0:
448,192,99832,1,4,3:0:0:0:
320,192,99832,1,0,0:0:0:0:
64,192,99918,1,4,3:0:0:0:
192,192,99918,1,0,0:0:0:0:
448,192,100004,1,4,3:0:0:0:
320,192,100004,128,0,100175:0:0:0:0:
64,192,100090,1,0,0:0:0:0:
192,192,100175,1,0,0:0:0:0:
448,192,100261,1,0,0:0:0:0:
192,192,100347,1,8,0:0:0:0:
64,192,100347,1,0,0:0:0:0:
320,192,100518,1,0,0:0:0:0:
192,192,100518,1,0,0:0:0:0:
448,192,100690,1,4,3:0:0:0:
192,192,100690,1,0,0:0:0:0:
64,192,100775,1,0,0:0:0:0:
320,192,100775,1,0,0:0:0:0:
448,192,100861,1,0,0:0:0:0:
192,192,100861,1,0,0:0:0:0:
320,192,100947,1,0,0:0:0:0:
64,192,100947,1,0,0:0:0:0:
192,192,101032,128,8,101204:0:0:0:0:
448,192,101032,1,0,0:0:0:0:
64,192,101204,1,0,0:0:0:0:
448,192,101204,1,0,0:0:0:0:
320,192,101290,1,0,0:0:0:0:
64,192,101375,1,0,0:0:0:0:
192,192,101375,1,4,3:0:0:0:
448,192,101375,128,4,101547:1:0:0:0:
192,192,101547,1,0,0:0:0:0:
64,192,101718,1,8,2:0:0:0:
448,192,101718,1,4,1:0:0:0:
320,192,101718,1,0,0:0:0:0:
64,192,101890,1,0,0:0:0:0:
192,192,101890,1,0,0:0:0:0:
64,192,102061,1,4,1:0:0:0:
320,192,102061,1,4,3:0:0:0:
448,192,102061,1,0,0:0:0:0:
192,192,102147,1,0,0:0:0:0:
64,192,102232,1,0,0:0:0:0:
448,192,102232,1,0,0:0:0:0:
320,192,102318,1,0,0:0:0:0:
64,192,102404,1,4,0:0:0:0:
192,192,102404,1,8,0:0:0:0:
448,192,102404,1,0,0:0:0:0:
64,192,102575,1,4,3:0:0:0:
192,192,102575,1,0,0:0:0:0:
448,192,102661,1,0,0:0:0:0:
320,192,102661,1,0,0:0:0:0:
448,192,102747,5,4,3:0:0:0:
320,192,102747,1,4,1:0:0:0:
64,192,102747,1,0,0:0:0:0:
192,192,102832,1,0,0:0:0:0:
448,192,102918,1,0,0:0:0:0:
64,192,103004,1,0,0:0:0:0:
320,192,103090,1,8,0:0:0:0:
448,192,103090,1,0,0:0:0:0:
192,192,103175,1,0,0:0:0:0:
320,192,103261,1,0,0:0:0:0:
64,192,103347,1,0,0:0:0:0:
448,192,103432,1,0,0:0:0:0:
192,192,103518,1,0,0:0:0:0:
320,192,103604,1,0,0:0:0:0:
64,192,103690,1,0,0:0:0:0:
448,192,103775,1,8,0:0:0:0:
192,192,103775,1,0,0:0:0:0:
320,192,103861,1,0,0:0:0:0:
64,192,103947,1,0,0:0:0:0:
448,192,104032,1,0,0:0:0:0:
192,192,104118,1,0,0:0:0:0:
320,192,104204,1,0,0:0:0:0:
64,192,104290,1,0,0:0:0:0:
448,192,104375,1,0,0:0:0:0:
192,192,104461,1,8,0:0:0:0:
64,192,104461,1,0,0:0:0:0:
320,192,104547,1,0,0:0:0:0:
192,192,104632,1,0,0:0:0:0:
448,192,104718,1,0,0:0:0:0:
64,192,104804,1,0,0:0:0:0:
320,192,104890,1,0,0:0:0:0:
64,192,104975,1,0,0:0:0:0:
448,192,105061,1,0,0:0:0:0:
192,192,105147,1,8,0:0:0:0:
320,192,105147,1,0,0:0:0:0:
64,192,105232,1,0,0:0:0:0:
448,192,105318,1,0,0:0:0:0:
192,192,105404,1,0,0:0:0:0:
320,192,105490,1,0,0:0:0:0:
64,192,105575,1,0,0:0:0:0:
448,192,105661,1,0,0:0:0:0:
192,192,105747,1,0,0:0:0:0:
320,192,105832,1,8,0:0:0:0:
448,192,105832,1,0,0:0:0:0:
64,192,105918,1,0,0:0:0:0:
320,192,106004,1,0,0:0:0:0:
192,192,106090,1,0,0:0:0:0:
448,192,106175,1,0,0:0:0:0:
64,192,106261,1,0,0:0:0:0:
320,192,106347,1,0,0:0:0:0:
192,192,106432,1,0,0:0:0:0:
320,192,106518,1,8,0:0:0:0:
448,192,106518,1,0,0:0:0:0:
64,192,106604,1,0,0:0:0:0:
320,192,106690,1,0,0:0:0:0:
192,192,106775,1,0,0:0:0:0:
448,192,106861,1,0,0:0:0:0:
64,192,106947,1,0,0:0:0:0:
320,192,107032,1,0,0:0:0:0:
192,192,107118,1,0,0:0:0:0:
64,192,107204,1,8,0:0:0:0:
320,192,107204,1,0,0:0:0:0:
192,192,107290,1,0,0:0:0:0:
448,192,107375,1,0,0:0:0:0:
64,192,107461,1,0,0:0:0:0:
320,192,107547,1,0,0:0:0:0:
192,192,107632,1,0,0:0:0:0:
448,192,107718,1,0,0:0:0:0:
64,192,107804,1,0,0:0:0:0:
320,192,107890,1,4,1:0:0:0:
192,192,107890,1,0,0:0:0:0:
448,192,107890,1,0,0:0:0:0:
64,192,107975,1,0,0:0:0:0:
320,192,108061,1,0,0:0:0:0:
192,192,108147,1,0,0:0:0:0:
64,192,108232,1,4,1:0:0:0:
448,192,108232,1,0,0:0:0:0:
320,192,108232,1,0,0:0:0:0:
192,192,108318,1,0,0:0:0:0:
448,192,108404,1,0,0:0:0:0:
64,192,108490,1,0,0:0:0:0:
320,192,108575,1,8,0:0:0:0:
192,192,108575,1,0,0:0:0:0:
448,192,108661,1,0,0:0:0:0:
64,192,108747,1,0,0:0:0:0:
320,192,108832,1,0,0:0:0:0:
192,192,108918,1,0,0:0:0:0:
448,192,109004,1,0,0:0:0:0:
64,192,109090,1,0,0:0:0:0:
320,192,109175,1,0,0:0:0:0:
192,192,109261,1,8,0:0:0:0:
64,192,109261,1,0,0:0:0:0:
320,192,109347,1,0,0:0:0:0:
192,192,109432,1,0,0:0:0:0:
448,192,109518,1,0,0:0:0:0:
64,192,109604,1,0,0:0:0:0:
320,192,109690,1,0,0:0:0:0:
192,192,109775,1,0,0:0:0:0:
448,192,109861,1,0,0:0:0:0:
320,192,109947,1,8,0:0:0:0:
192,192,109947,1,0,0:0:0:0:
64,192,110032,1,0,0:0:0:0:
448,192,110118,1,0,0:0:0:0:
192,192,110204,1,0,0:0:0:0:
320,192,110290,1,0,0:0:0:0:
64,192,110375,1,0,0:0:0:0:
448,192,110461,1,0,0:0:0:0:
192,192,110547,1,0,0:0:0:0:
320,192,110632,1,8,0:0:0:0:
448,192,110632,1,0,0:0:0:0:
64,192,110718,1,0,0:0:0:0:
448,192,110804,1,0,0:0:0:0:
192,192,110890,1,0,0:0:0:0:
320,192,110975,1,0,0:0:0:0:
192,192,111061,1,0,0:0:0:0:
448,192,111147,1,0,0:0:0:0:
64,192,111232,1,0,0:0:0:0:
320,192,111318,1,8,0:0:0:0:
448,192,111318,1,0,0:0:0:0:
192,192,111404,1,0,0:0:0:0:
448,192,111490,1,0,0:0:0:0:
64,192,111575,1,0,0:0:0:0:
320,192,111661,1,0,0:0:0:0:
192,192,111747,1,0,0:0:0:0:
448,192,111832,1,0,0:0:0:0:
64,192,111918,1,0,0:0:0:0:
320,192,112004,1,8,0:0:0:0:
448,192,112004,1,0,0:0:0:0:
192,192,112090,1,0,0:0:0:0:
448,192,112175,1,0,0:0:0:0:
64,192,112261,1,0,0:0:0:0:
320,192,112347,1,4,1:0:0:0:
448,192,112347,1,0,0:0:0:0:
192,192,112347,1,0,0:0:0:0:
64,192,112432,1,0,0:0:0:0:
448,192,112518,1,0,0:0:0:0:
192,192,112604,1,0,0:0:0:0:
320,192,112690,1,8,0:0:0:0:
448,192,112690,1,4,0:0:0:0:
64,192,112690,1,0,0:0:0:0:
192,192,112775,1,0,0:0:0:0:
448,192,112861,1,0,0:0:0:0:
320,192,112947,1,0,0:0:0:0:
192,192,113032,1,4,1:0:0:0:
64,192,113032,1,0,0:0:0:0:
448,192,113032,1,0,0:0:0:0:
320,192,113118,1,0,0:0:0:0:
192,192,113204,1,0,0:0:0:0:
448,192,113290,1,0,0:0:0:0:
64,192,113375,1,8,0:0:0:0:
192,192,113375,1,4,0:0:0:0:
320,192,113375,1,0,0:0:0:0:
448,192,113461,1,0,0:0:0:0:
320,192,113547,1,0,0:0:0:0:
64,192,113632,1,0,0:0:0:0:
320,192,113718,1,4,1:0:0:0:
448,192,113718,1,4,3:0:0:0:
192,192,113718,128,0,113890:0:0:0:0:
64,192,113890,1,0,0:0:0:0:
192,192,114061,1,8,0:0:0:0:
64,192,114061,1,0,0:0:0:0:
320,192,114061,128,0,114404:0:0:0:0:
448,192,114232,1,0,0:0:0:0:
192,192,114404,128,4,114575:3:0:0:0:
64,192,114404,1,0,0:0:0:0:
448,192,114404,1,0,0:0:0:0:
64,192,114575,128,0,114747:0:0:0:0:
448,192,114575,128,0,114918:0:0:0:0:
320,192,114747,128,8,114918:0:0:0:0:
192,192,114747,1,0,0:0:0:0:
192,192,114918,128,0,115090:0:0:0:0:
448,192,115090,128,4,115261:3:0:0:0:
320,192,115090,1,0,0:0:0:0:
64,192,115090,128,0,115432:0:0:0:0:
192,192,115261,1,0,0:0:0:0:
320,192,115347,1,0,0:0:0:0:
192,192,115432,1,8,0:0:0:0:
448,192,115432,128,0,115775:0:0:0:0:
320,192,115604,1,0,0:0:0:0:
192,192,115775,1,4,3:0:0:0:
64,192,115775,128,0,116118:0:0:0:0:
320,192,115775,128,0,115947:0:0:0:0:
448,192,115947,128,0,116118:0:0:0:0:
192,192,116118,1,8,0:0:0:0:
320,192,116118,128,0,116290:0:0:0:0:
64,192,116290,1,4,3:0:0:0:
192,192,116290,128,0,116461:0:0:0:0:
448,192,116375,1,4,3:0:0:0:
320,192,116375,1,0,0:0:0:0:
448,192,116461,1,4,3:0:0:0:
320,192,116461,1,4,1:0:0:0:
64,192,116461,128,0,116632:0:0:0:0:
448,192,116632,1,0,0:0:0:0:
320,192,116804,1,8,0:0:0:0:
448,192,116804,1,0,0:0:0:0:
192,192,116804,128,0,117147:0:0:0:0:
320,192,116975,1,0,0:0:0:0:
320,192,117147,128,4,117318:3:0:0:0:
64,192,117147,1,0,0:0:0:0:
448,192,117147,1,0,0:0:0:0:
64,192,117318,128,0,117661:0:0:0:0:
448,192,117318,128,0,117490:0:0:0:0:
192,192,117490,128,8,117661:0:0:0:0:
320,192,117490,1,0,0:0:0:0:
320,192,117661,128,0,117832:0:0:0:0:
192,192,117832,1,4,3:0:0:0:
64,192,117832,128,0,118004:0:0:0:0:
448,192,117832,128,0,118175:0:0:0:0:
320,192,118004,1,0,0:0:0:0:
192,192,118090,1,0,0:0:0:0:
320,192,118175,1,8,0:0:0:0:
64,192,118175,128,0,118518:0:0:0:0:
320,192,118347,1,0,0:0:0:0:
320,192,118518,1,4,3:0:0:0:
192,192,118518,128,0,118690:0:0:0:0:
448,192,118518,128,0,118861:0:0:0:0:
64,192,118690,128,0,118861:0:0:0:0:
192,192,118861,128,8,119032:0:0:0:0:
320,192,118861,1,0,0:0:0:0:
448,192,119032,1,4,3:0:0:0:
320,192,119032,128,0,119204:0:0:0:0:
64,192,119118,1,4,3:0:0:0:
192,192,119118,1,0,0:0:0:0:
64,192,119204,1,4,3:0:0:0:
192,192,119204,1,4,1:0:0:0:
448,192,119204,128,0,119375:0:0:0:0:
64,192,119375,1,0,0:0:0:0:
320,192,119547,1,8,0:0:0:0:
448,192,119547,1,0,0:0:0:0:
192,192,119547,128,0,119890:0:0:0:0:
64,192,119718,1,0,0:0:0:0:
448,192,119890,128,4,120061:3:0:0:0:
320,192,119890,1,0,0:0:0:0:
64,192,119890,1,0,0:0:0:0:
192,192,120061,128,0,120404:0:0:0:0:
64,192,120061,128,0,120232:0:0:0:0:
320,192,120232,128,8,120404:0:0:0:0:
448,192,120232,1,0,0:0:0:0:
64,192,120404,128,0,120575:0:0:0:0:
448,192,120575,128,4,120747:3:0:0:0:
320,192,120575,1,0,0:0:0:0:
192,192,120575,128,0,120918:0:0:0:0:
64,192,120747,1,0,0:0:0:0:
320,192,120832,1,0,0:0:0:0:
64,192,120918,1,8,0:0:0:0:
448,192,120918,128,0,121261:0:0:0:0:
192,192,121090,1,0,0:0:0:0:
64,192,121261,128,4,121432:3:0:0:0:
320,192,121261,128,0,121604:0:0:0:0:
192,192,121261,1,0,0:0:0:0:
192,192,121432,128,0,121604:0:0:0:0:
64,192,121604,1,8,0:0:0:0:
448,192,121604,128,0,121775:0:0:0:0:
64,192,121775,1,4,3:0:0:0:
192,192,121775,128,0,121947:0:0:0:0:
320,192,121861,1,4,3:0:0:0:
448,192,121861,1,0,0:0:0:0:
64,192,121947,128,4,122118:1:0:0:0:
320,192,121947,1,4,3:0:0:0:
448,192,121947,1,0,0:0:0:0:
448,192,122118,1,0,0:0:0:0:
192,192,122290,1,8,0:0:0:0:
64,192,122290,1,0,0:0:0:0:
320,192,122290,128,0,122632:0:0:0:0:
448,192,122461,1,0,0:0:0:0:
64,192,122632,128,4,122804:3:0:0:0:
192,192,122632,1,0,0:0:0:0:
448,192,122632,1,0,0:0:0:0:
448,192,122804,128,0,122975:0:0:0:0:
320,192,122804,128,0,123147:0:0:0:0:
64,192,122975,1,8,0:0:0:0:
192,192,122975,128,0,123147:0:0:0:0:
448,192,123147,128,0,123318:0:0:0:0:
64,192,123318,128,4,123490:3:0:0:0:
192,192,123318,1,0,0:0:0:0:
320,192,123318,128,0,123661:0:0:0:0:
448,192,123490,1,0,0:0:0:0:
192,192,123575,1,0,0:0:0:0:
448,192,123661,1,8,0:0:0:0:
64,192,123661,128,0,124004:0:0:0:0:
320,192,123832,1,0,0:0:0:0:
448,192,124004,128,4,124175:3:0:0:0:
320,192,124004,1,0,0:0:0:0:
192,192,124004,128,0,124347:0:0:0:0:
320,192,124175,128,0,124347:0:0:0:0:
448,192,124347,1,8,0:0:0:0:
64,192,124347,128,0,124518:0:0:0:0:
320,192,124518,128,4,124690:3:0:0:0:
448,192,124518,1,0,0:0:0:0:
192,192,124604,1,4,3:0:0:0:
64,192,124604,1,0,0:0:0:0:
64,192,124690,1,4,1:0:0:0:
448,192,124690,1,4,3:0:0:0:
192,192,124690,1,0,0:0:0:0:
320,192,124861,1,4,3:0:0:0:
64,192,124861,1,0,0:0:0:0:
320,192,125032,1,8,0:0:0:0:
448,192,125032,1,0,0:0:0:0:
64,192,125032,128,0,125375:0:0:0:0:
448,192,125204,1,4,3:0:0:0:
192,192,125204,1,0,0:0:0:0:
192,192,125375,1,4,3:0:0:0:
448,192,125375,128,0,125547:0:0:0:0:
320,192,125375,1,0,0:0:0:0:
320,192,125547,128,4,125718:3:0:0:0:
64,192,125547,128,0,125890:0:0:0:0:
192,192,125718,128,8,125890:0:0:0:0:
448,192,125718,1,0,0:0:0:0:
448,192,125890,1,4,3:0:0:0:
320,192,125890,128,0,126061:0:0:0:0:
64,192,126061,128,4,126232:3:0:0:0:
192,192,126061,1,0,0:0:0:0:
448,192,126061,128,0,126404:0:0:0:0:
192,192,126232,1,4,3:0:0:0:
320,192,126232,1,0,0:0:0:0:
192,192,126404,1,8,0:0:0:0:
64,192,126404,1,0,0:0:0:0:
320,192,126404,128,0,126747:0:0:0:0:
64,192,126575,1,4,3:0:0:0:
448,192,126575,1,0,0:0:0:0:
448,192,126747,128,4,127090:3:0:0:0:
192,192,126747,128,0,126918:0:0:0:0:
320,192,126918,1,4,3:0:0:0:
64,192,126918,128,0,127090:0:0:0:0:
192,192,127090,1,8,0:0:0:0:
320,192,127090,128,0,127261:0:0:0:0:
64,192,127261,1,4,3:0:0:0:
192,192,127261,128,0,127432:0:0:0:0:
448,192,127347,1,0,0:0:0:0:
320,192,127347,1,0,0:0:0:0:
448,192,127432,1,4,3:0:0:0:
64,192,127432,1,4,1:0:0:0:
320,192,127432,1,0,0:0:0:0:
320,192,127604,1,4,3:0:0:0:
64,192,127604,1,0,0:0:0:0:
448,192,127775,1,8,0:0:0:0:
64,192,127775,1,0,0:0:0:0:
192,192,127775,128,0,128118:0:0:0:0:
320,192,127947,1,4,3:0:0:0:
448,192,127947,1,0,0:0:0:0:
448,192,128118,128,4,128290:3:0:0:0:
64,192,128118,1,0,0:0:0:0:
192,192,128290,128,4,128461:3:0:0:0:
320,192,128290,1,0,0:0:0:0:
64,192,128290,128,0,128632:0:0:0:0:
320,192,128461,128,8,128632:0:0:0:0:
448,192,128461,1,0,0:0:0:0:
192,192,128632,128,4,128804:3:0:0:0:
448,192,128632,1,0,0:0:0:0:
64,192,128804,128,4,128975:3:0:0:0:
448,192,128804,128,0,129147:0:0:0:0:
192,192,128975,1,4,3:0:0:0:
320,192,128975,1,0,0:0:0:0:
192,192,129147,1,8,0:0:0:0:
64,192,129147,1,0,0:0:0:0:
320,192,129147,128,0,129490:0:0:0:0:
192,192,129318,1,4,3:0:0:0:
448,192,129318,1,0,0:0:0:0:
64,192,129490,128,4,129661:3:0:0:0:
192,192,129490,1,0,0:0:0:0:
448,192,129490,128,0,129832:0:0:0:0:
320,192,129661,128,4,129832:3:0:0:0:
192,192,129661,1,0,0:0:0:0:
64,192,129832,128,8,130004:0:0:0:0:
192,192,129832,1,0,0:0:0:0:
448,192,130004,128,4,130175:3:0:0:0:
320,192,130004,1,0,0:0:0:0:
64,192,130090,1,4,3:0:0:0:
192,192,130090,1,0,0:0:0:0:
64,192,130175,5,4,1:0:0:0:
192,192,130175,1,4,3:0:0:0:
448,192,130261,1,4,3:0:0:0:
320,192,130261,1,0,0:0:0:0:
64,192,130347,1,4,3:0:0:0:
192,192,130347,1,0,0:0:0:0:
448,192,130432,1,4,3:0:0:0:
320,192,130432,1,0,0:0:0:0:
64,192,130518,1,8,0:0:0:0:
192,192,130518,1,4,0:0:0:0:
320,192,130604,1,4,3:0:0:0:
448,192,130604,1,0,0:0:0:0:
64,192,130690,1,4,3:0:0:0:
192,192,130690,1,0,0:0:0:0:
448,192,130775,1,4,3:0:0:0:
320,192,130775,1,0,0:0:0:0:
64,192,130861,1,4,3:0:0:0:
192,192,130861,1,0,0:0:0:0:
448,192,130947,1,4,3:0:0:0:
320,192,130947,1,0,0:0:0:0:
64,192,131032,1,4,3:0:0:0:
192,192,131032,1,0,0:0:0:0:
320,192,131118,1,4,3:0:0:0:
448,192,131118,1,0,0:0:0:0:
64,192,131204,1,8,0:0:0:0:
192,192,131204,1,4,0:0:0:0:
320,192,131290,1,4,3:0:0:0:
448,192,131290,1,0,0:0:0:0:
64,192,131375,1,4,3:0:0:0:
192,192,131375,1,0,0:0:0:0:
448,192,131461,1,4,3:0:0:0:
320,192,131461,1,0,0:0:0:0:
64,192,131547,1,4,3:0:0:0:
192,192,131547,1,0,0:0:0:0:
448,192,131632,1,4,3:0:0:0:
320,192,131632,1,0,0:0:0:0:
64,192,131718,1,4,3:0:0:0:
192,192,131718,1,0,0:0:0:0:
448,192,131804,5,4,3:0:0:0:
320,192,131804,1,0,0:0:0:0:
192,192,131890,1,8,0:0:0:0:
64,192,131890,1,4,0:0:0:0:
448,192,131975,1,4,3:0:0:0:
320,192,131975,1,0,0:0:0:0:
192,192,132061,1,4,3:0:0:0:
64,192,132061,1,0,0:0:0:0:
320,192,132147,1,4,3:0:0:0:
448,192,132147,1,0,0:0:0:0:
64,192,132232,1,4,3:0:0:0:
192,192,132232,1,0,0:0:0:0:
448,192,132318,5,4,3:0:0:0:
320,192,132318,1,0,0:0:0:0:
192,192,132404,1,4,3:0:0:0:
64,192,132404,1,0,0:0:0:0:
320,192,132490,1,4,3:0:0:0:
448,192,132490,1,0,0:0:0:0:
64,192,132575,1,8,0:0:0:0:
192,192,132575,1,4,0:0:0:0:
448,192,132661,1,4,3:0:0:0:
320,192,132661,1,0,0:0:0:0:
192,192,132747,1,4,3:0:0:0:
64,192,132747,1,0,0:0:0:0:
320,192,132832,1,4,3:0:0:0:
448,192,132832,1,0,0:0:0:0:
448,192,132918,5,4,3:0:0:0:
64,192,132918,1,4,3:0:0:0:
192,192,132961,1,4,3:0:0:0:
320,192,133004,1,4,3:0:0:0:
448,192,133047,1,4,3:0:0:0:
64,192,133090,1,4,3:0:0:0:
192,192,133132,1,4,3:0:0:0:
448,192,133175,1,4,3:0:0:0:
320,192,133218,1,0,0:0:0:0:
64,192,133261,1,8,0:0:0:0:
192,192,133261,1,4,3:0:0:0:
448,192,133304,1,4,3:0:0:0:
320,192,133347,1,4,3:0:0:0:
64,192,133390,1,4,3:0:0:0:
192,192,133432,1,4,3:0:0:0:
448,192,133475,1,4,3:0:0:0:
320,192,133518,1,4,3:0:0:0:
192,192,133561,1,4,3:0:0:0:
64,192,133604,1,4,3:0:0:0:
448,192,133647,1,4,3:0:0:0:
320,192,133690,1,4,3:0:0:0:
64,192,133732,1,4,3:0:0:0:
192,192,133775,1,4,3:0:0:0:
320,192,133818,1,4,3:0:0:0:
448,192,133861,1,4,3:0:0:0:
64,192,133904,1,4,3:0:0:0:
192,192,133947,1,4,3:0:0:0:
320,192,133947,1,8,0:0:0:0:
448,192,133990,1,4,3:0:0:0:
64,192,134032,1,4,3:0:0:0:
192,192,134075,1,4,3:0:0:0:
448,192,134118,1,4,3:0:0:0:
320,192,134161,1,4,3:0:0:0:
64,192,134204,1,4,3:0:0:0:
192,192,134247,1,4,3:0:0:0:
320,192,134290,1,4,3:0:0:0:
448,192,134332,1,4,3:0:0:0:
64,192,134375,1,4,3:0:0:0:
192,192,134418,1,4,3:0:0:0:
448,192,134461,1,4,3:0:0:0:
320,192,134504,1,4,3:0:0:0:
64,192,134547,1,4,3:0:0:0:
192,192,134590,1,4,3:0:0:0:
320,192,134632,1,8,0:0:0:0:
448,192,134632,1,4,3:0:0:0:
64,192,134675,1,4,3:0:0:0:
192,192,134718,1,4,3:0:0:0:
448,192,134761,1,4,3:0:0:0:
320,192,134804,1,4,3:0:0:0:
64,192,134847,1,4,3:0:0:0:
192,192,134890,1,4,3:0:0:0:
320,192,134932,1,4,3:0:0:0:
448,192,134975,1,4,3:0:0:0:
64,192,135018,1,4,3:0:0:0:
192,192,135061,1,4,3:0:0:0:
448,192,135104,1,4,3:0:0:0:
320,192,135147,1,4,3:0:0:0:
192,192,135190,1,4,3:0:0:0:
64,192,135232,1,4,3:0:0:0:
448,192,135275,1,0,0:0:0:0:
320,192,135318,1,4,3:0:0:0:
192,192,135318,1,8,0:0:0:0:
64,192,135361,1,4,3:0:0:0:
448,192,135404,1,4,3:0:0:0:
320,192,135447,1,4,3:0:0:0:
64,192,135490,1,4,3:0:0:0:
192,192,135532,1,4,3:0:0:0:
448,192,135575,1,4,3:0:0:0:
320,192,135618,1,4,3:0:0:0:
64,192,135661,1,4,3:0:0:0:
192,192,135661,1,4,1:0:0:0:
448,192,135704,1,4,3:0:0:0:
320,192,135747,1,4,3:0:0:0:
64,192,135790,1,4,3:0:0:0:
192,192,135832,1,4,3:0:0:0:
320,192,135875,1,4,3:0:0:0:
448,192,135918,1,4,3:0:0:0:
64,192,135961,1,4,3:0:0:0:
192,192,136004,1,8,0:0:0:0:
320,192,136004,1,4,3:0:0:0:
448,192,136047,1,4,3:0:0:0:
64,192,136090,1,4,3:0:0:0:
192,192,136132,1,4,3:0:0:0:
448,192,136175,1,4,3:0:0:0:
320,192,136218,1,4,3:0:0:0:
64,192,136261,1,4,3:0:0:0:
192,192,136304,1,4,3:0:0:0:
320,192,136347,1,4,3:0:0:0:
448,192,136390,1,4,3:0:0:0:
64,192,136432,1,4,3:0:0:0:
192,192,136475,1,4,3:0:0:0:
448,192,136518,1,4,3:0:0:0:
320,192,136561,1,4,3:0:0:0:
64,192,136604,1,4,3:0:0:0:
192,192,136647,1,0,0:0:0:0:
320,192,136690,1,8,0:0:0:0:
448,192,136690,1,4,3:0:0:0:
64,192,136732,1,4,3:0:0:0:
192,192,136775,1,4,3:0:0:0:
320,192,136818,1,4,3:0:0:0:
448,192,136861,1,4,3:0:0:0:
64,192,136904,1,4,3:0:0:0:
192,192,136947,1,4,3:0:0:0:
448,192,136990,1,4,3:0:0:0:
320,192,137032,1,4,3:0:0:0:
64,192,137075,1,4,3:0:0:0:
192,192,137118,1,4,3:0:0:0:
448,192,137161,1,4,3:0:0:0:
320,192,137204,1,4,3:0:0:0:
192,192,137247,1,4,3:0:0:0:
64,192,137290,1,4,3:0:0:0:
448,192,137332,1,0,0:0:0:0:
320,192,137375,1,8,0:0:0:0:
192,192,137375,1,4,3:0:0:0:
64,192,137418,1,4,3:0:0:0:
448,192,137461,1,4,3:0:0:0:
320,192,137504,1,4,3:0:0:0:
64,192,137547,1,4,3:0:0:0:
192,192,137590,1,4,3:0:0:0:
320,192,137632,1,4,3:0:0:0:
448,192,137675,1,4,3:0:0:0:
64,192,137718,1,4,3:0:0:0:
192,192,137761,1,4,3:0:0:0:
448,192,137804,1,4,3:0:0:0:
320,192,137847,1,4,3:0:0:0:
64,192,137890,1,4,3:0:0:0:
192,192,137932,1,4,3:0:0:0:
448,192,137975,1,4,3:0:0:0:
320,192,138018,1,0,0:0:0:0:
64,192,138061,1,8,0:0:0:0:
192,192,138061,1,4,3:0:0:0:
448,192,138104,1,4,3:0:0:0:
320,192,138147,1,4,3:0:0:0:
64,192,138190,1,4,3:0:0:0:
192,192,138232,1,4,3:0:0:0:
320,192,138275,1,4,3:0:0:0:
448,192,138318,1,4,3:0:0:0:
64,192,138361,1,4,3:0:0:0:
192,192,138404,128,4,140804:3:0:0:0:
320,192,138404,128,0,140804:0:0:0:0:
448,192,139775,128,0,140804:0:0:0:0:
64,192,140461,128,0,140804:0:0:0:0:
