osu file format v14

[General]
AudioFilename: M.A.M.A.mp3
AudioLeadIn: 0
PreviewTime: 113718
Countdown: 0
SampleSet: Soft
StackLeniency: 0.7
Mode: 3
LetterboxInBreaks: 0
SpecialStyle: 0
WidescreenStoryboard: 1

[Editor]
DistanceSpacing: 0.8
BeatDivisor: 4
GridSize: 32
TimelineZoom: 1.2

[Metadata]
Title:M.A.M.A.
TitleUnicode:M.A.M.A.
Artist:High Speed Music Team Sharpnel
ArtistUnicode:高速音楽隊シャープネル
Creator:arcwinolivirus
Version:NM
Source:
Tags:Sharpnelsound SRPC-0005 DJ Sharpnel Rave ☆ Spector Hellknight10 Ravenous Red Flower
BeatmapID:429551
BeatmapSetID:176446

[Difficulty]
HPDrainRate:7
CircleSize:4
OverallDifficulty:7
ApproachRate:5
SliderMultiplier:1.4
SliderTickRate:1

[Events]
//Background and Video events
0,0,"bgmama.jpg",0,0
//Break Periods
//Storyboard Layer 0 (Background)
//Storyboard Layer 1 (Fail)
//Storyboard Layer 2 (Pass)
//Storyboard Layer 3 (Foreground)
//Storyboard Sound Samples

[TimingPoints]
-110,342.857142857143,4,2,1,40,1,0
113718,-100,4,2,1,40,0,1
130175,-100,4,2,1,40,0,0

[HitObjects]
448,192,4004,5,0,0:0:0:0:
192,192,4175,1,0,0:0:0:0:
320,192,4347,1,8,0:0:0:0:
64,192,4518,1,0,0:0:0:0:
448,192,4690,1,0,0:0:0:0:
192,192,4861,1,0,0:0:0:0:
320,192,5032,1,8,0:0:0:0:
64,192,5204,1,0,0:0:0:0:
448,192,5375,1,0,0:0:0:0:
64,192,5547,1,0,0:0:0:0:
320,192,5718,1,8,0:0:0:0:
192,192,5890,1,0,0:0:0:0:
448,192,6061,1,0,0:0:0:0:
64,192,6232,1,0,0:0:0:0:
320,192,6404,1,8,0:0:0:0:
192,192,6575,1,0,0:0:0:0:
320,192,6747,1,0,0:0:0:0:
64,192,6918,1,0,0:0:0:0:
448,192,7090,1,8,0:0:0:0:
192,192,7261,1,0,0:0:0:0:
320,192,7432,1,0,0:0:0:0:
64,192,7604,1,0,0:0:0:0:
448,192,7775,1,8,0:0:0:0:
192,192,7947,1,0,0:0:0:0:
448,192,8118,1,0,0:0:0:0:
64,192,8290,1,0,0:0:0:0:
320,192,8461,1,8,0:0:0:0:
192,192,8632,1,0,0:0:0:0:
448,192,8804,1,0,0:0:0:0:
64,192,8975,1,0,0:0:0:0:
320,192,9147,1,8,0:0:0:0:
192,192,9318,1,0,0:0:0:0:
448,192,9490,1,0,1:0:0:0:
320,192,9832,1,8,0:0:0:0:
192,192,10175,1,0,1:0:0:0:
64,192,10432,1,0,1:0:0:0:
320,192,10518,1,8,0:0:0:0:
192,192,10690,1,0,1:0:0:0:
448,192,10861,1,0,1:0:0:0:
320,192,11204,1,8,0:0:0:0:
192,192,11547,1,0,1:0:0:0:
64,192,11890,1,8,0:0:0:0:
448,192,12061,1,0,1:0:0:0:
64,192,12232,1,0,1:0:0:0:
192,192,12575,1,8,0:0:0:0:
320,192,12918,1,0,1:0:0:0:
448,192,13175,1,0,1:0:0:0:
192,192,13261,1,8,0:0:0:0:
320,192,13432,1,0,1:0:0:0:
64,192,13604,1,0,1:0:0:0:
192,192,13947,1,8,0:0:0:0:
320,192,14290,1,0,1:0:0:0:
448,192,14632,1,8,0:0:0:0:
64,192,14804,1,0,1:0:0:0:
448,192,14975,1,0,1:0:0:0:
192,192,15147,1,0,0:0:0:0:
320,192,15318,1,8,0:0:0:0:
64,192,15661,1,0,1:0:0:0:
320,192,15832,1,0,0:0:0:0:
64,192,16004,1,8,0:0:0:0:
448,192,16175,1,0,1:0:0:0:
192,192,16347,1,0,1:0:0:0:
320,192,16518,1,0,0:0:0:0:
64,192,16690,1,8,0:0:0:0:
320,192,17032,1,0,1:0:0:0:
192,192,17204,1,0,0:0:0:0:
320,192,17375,1,8,0:0:0:0:
64,192,17547,1,0,1:0:0:0:
448,192,17718,1,0,1:0:0:0:
192,192,17890,1,0,0:0:0:0:
320,192,18061,1,8,0:0:0:0:
64,192,18404,1,0,1:0:0:0:
320,192,18575,1,0,0:0:0:0:
64,192,18747,1,8,0:0:0:0:
448,192,18918,1,0,1:0:0:0:
192,192,19090,1,0,1:0:0:0:
320,192,19261,1,0,0:0:0:0:
64,192,19432,1,8,0:0:0:0:
448,192,19775,1,0,1:0:0:0:
192,192,20118,1,8,0:0:0:0:
320,192,20290,1,0,1:0:0:0:
64,192,20461,1,0,1:0:0:0:
448,192,20632,1,0,1:0:0:0:
192,192,20804,1,8,0:0:0:0:
320,192,20975,1,0,1:0:0:0:
64,192,21147,1,0,1:0:0:0:
448,192,21318,1,0,1:0:0:0:
192,192,21490,1,8,0:0:0:0:
320,192,21661,1,0,1:0:0:0:
64,192,21832,1,0,1:0:0:0:
448,192,22004,1,0,1:0:0:0:
192,192,22175,5,8,0:0:0:0:
320,192,22347,1,0,1:0:0:0:
64,192,22518,1,0,1:0:0:0:
448,192,22690,1,0,1:0:0:0:
192,192,22861,1,8,0:0:0:0:
448,192,23032,1,0,1:0:0:0:
64,192,23204,5,0,1:0:0:0:
320,192,23204,128,0,25947:0:0:0:0:
448,192,23547,1,8,0:0:0:0:
64,192,23890,1,0,1:0:0:0:
448,192,24232,1,8,0:0:0:0:
192,192,24575,128,0,25947:0:0:0:0:
64,192,24575,1,0,1:0:0:0:
448,192,24918,1,8,0:0:0:0:
64,192,25261,1,0,1:0:0:0:
448,192,25604,1,8,0:0:0:0:
64,192,25947,1,4,3:0:0:0:
448,192,26118,1,0,0:0:0:0:
192,192,26290,1,8,0:0:0:0:
320,192,26461,1,0,0:0:0:0:
64,192,26632,1,4,3:0:0:0:
448,192,26804,1,0,0:0:0:0:
192,192,26975,1,8,0:0:0:0:
64,192,26975,1,0,0:0:0:0:
448,192,27318,1,4,3:0:0:0:
64,192,27490,1,0,0:0:0:0:
320,192,27661,1,8,0:0:0:0:
192,192,27832,1,0,0:0:0:0:
448,192,28004,1,4,3:0:0:0:
64,192,28175,1,0,0:0:0:0:
320,192,28347,1,8,0:0:0:0:
448,192,28347,1,4,3:0:0:0:
192,192,28518,1,4,3:0:0:0:
64,192,28690,1,4,3:0:0:0:
448,192,28690,1,4,0:0:0:0:
320,192,28861,1,0,0:0:0:0:
192,192,29032,1,8,0:0:0:0:
448,192,29204,1,0,0:0:0:0:
64,192,29375,1,4,3:0:0:0:
320,192,29547,1,0,0:0:0:0:
64,192,29718,1,0,0:0:0:0:
192,192,29718,1,8,0:0:0:0:
448,192,30061,1,4,3:0:0:0:
192,192,30232,1,0,0:0:0:0:
320,192,30404,1,8,0:0:0:0:
64,192,30575,1,0,0:0:0:0:
448,192,30747,1,4,3:0:0:0:
192,192,30918,1,4,3:0:0:0:
448,192,31090,1,0,0:0:0:0:
320,192,31090,1,8,0:0:0:0:
64,192,31261,1,4,3:0:0:0:
192,192,31432,1,4,0:0:0:0:
320,192,31432,1,0,0:0:0:0:
448,192,31604,1,0,0:0:0:0:
64,192,31775,1,8,0:0:0:0:
320,192,31947,1,0,0:0:0:0:
192,192,32118,1,4,3:0:0:0:
320,192,32290,1,0,0:0:0:0:
64,192,32461,1,8,0:0:0:0:
448,192,32461,1,0,0:0:0:0:
320,192,32804,1,4,3:0:0:0:
64,192,32975,1,0,0:0:0:0:
448,192,33147,1,8,0:0:0:0:
192,192,33318,1,0,0:0:0:0:
320,192,33490,1,4,3:0:0:0:
192,192,33661,1,0,0:0:0:0:
64,192,33832,1,0,0:0:0:0:
448,192,33832,1,8,0:0:0:0:
320,192,34004,1,4,3:0:0:0:
64,192,34175,1,4,3:0:0:0:
448,192,34347,1,0,0:0:0:0:
192,192,34518,1,8,0:0:0:0:
320,192,34690,1,0,0:0:0:0:
64,192,34861,1,4,3:0:0:0:
320,192,35032,1,0,0:0:0:0:
192,192,35204,1,8,0:0:0:0:
448,192,35204,1,0,0:0:0:0:
320,192,35547,1,4,3:0:0:0:
192,192,35890,1,8,0:0:0:0:
448,192,36061,1,4,3:0:0:0:
64,192,36232,1,4,3:0:0:0:
320,192,36404,1,4,3:0:0:0:
192,192,36575,1,8,0:0:0:0:
448,192,36747,1,4,3:0:0:0:
64,192,36918,1,4,1:0:0:0:
192,192,36918,1,0,0:0:0:0:
448,192,37261,1,8,0:0:0:0:
320,192,37432,1,0,0:0:0:0:
192,192,37604,1,4,3:0:0:0:
64,192,37947,1,8,0:0:0:0:
192,192,38118,1,0,0:0:0:0:
320,192,38290,1,4,3:0:0:0:
448,192,38632,1,8,0:0:0:0:
320,192,38804,1,0,0:0:0:0:
192,192,38975,1,4,3:0:0:0:
448,192,39147,1,4,3:0:0:0:
64,192,39318,1,8,0:0:0:0:
320,192,39490,1,4,3:0:0:0:
192,192,39661,1,0,0:0:0:0:
448,192,39661,1,4,1:0:0:0:
64,192,40004,1,8,0:0:0:0:
192,192,40175,1,0,0:0:0:0:
320,192,40347,1,4,3:0:0:0:
448,192,40690,1,8,0:0:0:0:
320,192,40861,1,0,0:0:0:0:
192,192,41032,1,4,3:0:0:0:
448,192,41204,1,0,0:0:0:0:
64,192,41375,1,8,0:0:0:0:
320,192,41547,1,0,0:0:0:0:
192,192,41718,1,4,3:0:0:0:
448,192,41890,1,4,3:0:0:0:
64,192,42061,1,8,0:0:0:0:
320,192,42232,1,4,3:0:0:0:
192,192,42404,1,4,1:0:0:0:
448,192,42404,1,0,0:0:0:0:
64,192,42747,1,8,0:0:0:0:
448,192,42918,1,0,0:0:0:0:
64,192,43090,1,4,3:0:0:0:
320,192,43432,1,8,0:0:0:0:
192,192,43604,1,0,0:0:0:0:
320,192,43775,1,4,3:0:0:0:
64,192,44118,1,8,0:0:0:0:
448,192,44290,1,4,3:0:0:0:
192,192,44461,1,4,3:0:0:0:
320,192,44632,1,4,3:0:0:0:
64,192,44804,1,8,0:0:0:0:
448,192,44975,1,4,3:0:0:0:
192,192,45147,1,4,3:0:0:0:
448,192,45490,1,8,0:0:0:0:
64,192,45661,1,0,0:0:0:0:
448,192,45832,1,4,3:0:0:0:
192,192,46175,1,8,0:0:0:0:
320,192,46347,1,0,0:0:0:0:
192,192,46518,1,4,3:0:0:0:
448,192,46690,1,0,0:0:0:0:
64,192,46861,1,8,0:0:0:0:
320,192,47032,1,0,0:0:0:0:
192,192,47204,1,4,3:0:0:0:
448,192,47375,1,0,0:0:0:0:
64,192,47547,1,0,0:0:0:0:
448,192,47718,1,0,0:0:0:0:
448,192,47890,1,4,3:0:0:0:
64,192,48061,1,0,0:0:0:0:
320,192,48232,1,8,0:0:0:0:
192,192,48404,1,0,0:0:0:0:
448,192,48575,1,4,3:0:0:0:
320,192,48747,1,0,0:0:0:0:
64,192,48918,1,0,0:0:0:0:
192,192,48918,1,8,0:0:0:0:
448,192,49261,1,4,3:0:0:0:
192,192,49432,1,0,0:0:0:0:
320,192,49604,1,8,0:0:0:0:
64,192,49775,1,0,0:0:0:0:
320,192,49947,1,4,3:0:0:0:
192,192,50118,1,0,0:0:0:0:
64,192,50290,1,8,0:0:0:0:
448,192,50290,1,0,0:0:0:0:
320,192,50461,1,4,3:0:0:0:
64,192,50632,1,4,3:0:0:0:
448,192,50804,1,0,0:0:0:0:
192,192,50975,1,8,0:0:0:0:
320,192,51147,1,0,0:0:0:0:
64,192,51318,1,4,3:0:0:0:
192,192,51490,1,0,0:0:0:0:
320,192,51661,1,0,0:0:0:0:
448,192,51661,1,8,0:0:0:0:
64,192,52004,1,4,3:0:0:0:
320,192,52175,1,0,0:0:0:0:
192,192,52347,1,8,0:0:0:0:
448,192,52518,1,0,0:0:0:0:
192,192,52690,1,4,3:0:0:0:
320,192,52861,1,0,0:0:0:0:
448,192,53032,1,0,0:0:0:0:
64,192,53032,1,8,0:0:0:0:
192,192,53204,1,4,3:0:0:0:
448,192,53375,1,4,3:0:0:0:
64,192,53547,1,0,0:0:0:0:
320,192,53718,1,8,0:0:0:0:
192,192,53890,1,0,0:0:0:0:
448,192,54061,1,4,3:0:0:0:
64,192,54232,1,0,0:0:0:0:
320,192,54404,1,8,0:0:0:0:
192,192,54404,1,0,0:0:0:0:
448,192,54747,1,4,3:0:0:0:
192,192,54918,1,0,0:0:0:0:
320,192,55090,1,8,0:0:0:0:
64,192,55261,1,0,0:0:0:0:
320,192,55432,1,4,3:0:0:0:
192,192,55604,1,0,0:0:0:0:
448,192,55775,1,8,0:0:0:0:
320,192,55775,1,0,0:0:0:0:
64,192,55947,1,4,3:0:0:0:
320,192,56118,1,4,1:0:0:0:
192,192,56118,1,4,3:0:0:0:
64,192,56290,1,0,0:0:0:0:
448,192,56461,1,8,0:0:0:0:
192,192,56632,1,0,0:0:0:0:
448,192,56804,1,4,3:0:0:0:
64,192,56975,1,0,0:0:0:0:
320,192,57147,1,8,0:0:0:0:
192,192,57147,1,0,0:0:0:0:
448,192,57318,1,0,0:0:0:0:
64,192,57490,1,4,1:0:0:0:
192,192,57490,1,0,0:0:0:0:
320,192,57832,1,8,0:0:0:0:
192,192,57832,1,4,1:0:0:0:
448,192,58175,1,0,0:0:0:0:
320,192,58175,1,4,1:0:0:0:
192,192,58518,1,4,1:0:0:0:
320,192,58518,1,8,0:0:0:0:
64,192,58861,1,4,3:0:0:0:
320,192,59204,1,8,0:0:0:0:
448,192,59204,1,0,0:0:0:0:
192,192,59547,1,4,3:0:0:0:
64,192,59718,1,0,0:0:0:0:
320,192,59890,1,8,0:0:0:0:
192,192,60061,1,0,0:0:0:0:
448,192,60232,1,4,3:0:0:0:
192,192,60575,1,8,0:0:0:0:
64,192,60575,1,0,0:0:0:0:
448,192,60918,1,4,3:0:0:0:
192,192,61090,1,0,0:0:0:0:
320,192,61261,1,8,0:0:0:0:
64,192,61432,1,0,0:0:0:0:
192,192,61604,1,4,3:0:0:0:
320,192,61947,1,0,0:0:0:0:
448,192,61947,1,8,0:0:0:0:
192,192,62290,1,4,3:0:0:0:
320,192,62461,1,0,0:0:0:0:
64,192,62632,1,8,0:0:0:0:
192,192,62804,1,0,0:0:0:0:
448,192,62975,1,4,3:0:0:0:
320,192,63318,1,8,0:0:0:0:
192,192,63318,1,0,0:0:0:0:
448,192,63661,1,4,3:0:0:0:
64,192,63832,1,4,3:0:0:0:
320,192,64004,1,8,0:0:0:0:
192,192,64175,1,4,3:0:0:0:
448,192,64347,1,4,3:0:0:0:
192,192,64690,1,8,0:0:0:0:
64,192,64690,1,0,0:0:0:0:
448,192,65032,1,4,3:0:0:0:
320,192,65204,1,0,0:0:0:0:
64,192,65375,1,8,0:0:0:0:
192,192,65547,1,0,0:0:0:0:
320,192,65718,1,4,3:0:0:0:
192,192,66061,1,0,0:0:0:0:
448,192,66061,1,8,0:0:0:0:
64,192,66404,1,4,3:0:0:0:
192,192,66575,1,0,0:0:0:0:
448,192,66747,1,8,0:0:0:0:
320,192,66918,1,4,3:0:0:0:
192,192,67090,1,4,3:0:0:0:
64,192,67432,1,8,0:0:0:0:
320,192,67432,1,0,0:0:0:0:
192,192,67775,1,4,3:0:0:0:
320,192,67947,1,0,0:0:0:0:
448,192,68118,1,8,0:0:0:0:
64,192,68290,1,0,0:0:0:0:
192,192,68461,1,4,3:0:0:0:
320,192,68632,1,4,3:0:0:0:
64,192,68804,1,8,0:0:0:0:
448,192,68975,1,4,3:0:0:0:
192,192,69147,1,4,3:0:0:0:
320,192,69318,1,4,3:0:0:0:
64,192,69490,1,4,1:0:0:0:
448,192,69490,1,8,0:0:0:0:
192,192,69832,1,4,3:0:0:0:
448,192,70004,1,0,0:0:0:0:
64,192,70175,1,8,0:0:0:0:
320,192,70175,1,0,0:0:0:0:
448,192,70518,1,4,3:0:0:0:
192,192,70690,1,0,0:0:0:0:
320,192,71032,1,0,0:0:0:0:
64,192,71204,1,4,3:0:0:0:
448,192,71547,1,0,0:0:0:0:
64,192,71547,1,0,0:0:0:0:
192,192,71718,1,0,0:0:0:0:
320,192,71890,1,4,3:0:0:0:
64,192,72061,1,0,0:0:0:0:
448,192,72232,1,8,0:0:0:0:
192,192,72404,1,4,3:0:0:0:
320,192,72575,1,4,3:0:0:0:
64,192,72747,1,0,0:0:0:0:
448,192,72918,1,8,0:0:0:0:
320,192,72918,1,0,0:0:0:0:
192,192,73261,1,4,3:0:0:0:
448,192,73432,1,0,0:0:0:0:
64,192,73604,1,8,0:0:0:0:
320,192,73775,1,0,0:0:0:0:
64,192,73947,1,4,3:0:0:0:
192,192,74290,1,8,0:0:0:0:
320,192,74290,1,0,0:0:0:0:
448,192,74632,1,4,3:0:0:0:
64,192,74804,1,4,3:0:0:0:
320,192,74975,1,8,0:0:0:0:
192,192,75147,1,4,3:0:0:0:
320,192,75318,1,4,3:0:0:0:
64,192,75490,1,0,0:0:0:0:
448,192,75661,1,8,0:0:0:0:
320,192,75661,1,0,0:0:0:0:
64,192,76004,1,4,3:0:0:0:
320,192,76175,1,0,0:0:0:0:
192,192,76518,1,0,0:0:0:0:
448,192,76690,1,4,3:0:0:0:
448,192,77032,1,0,0:0:0:0:
64,192,77032,1,8,0:0:0:0:
320,192,77204,1,0,0:0:0:0:
192,192,77375,1,4,3:0:0:0:
448,192,77547,1,0,0:0:0:0:
64,192,77718,1,8,0:0:0:0:
320,192,77890,1,4,3:0:0:0:
192,192,78061,1,4,3:0:0:0:
448,192,78232,1,0,0:0:0:0:
192,192,78404,1,0,0:0:0:0:
64,192,78404,1,8,0:0:0:0:
320,192,78747,1,4,3:0:0:0:
64,192,78918,1,0,0:0:0:0:
448,192,79090,1,8,0:0:0:0:
192,192,79261,1,0,0:0:0:0:
448,192,79432,1,4,3:0:0:0:
320,192,79775,1,8,0:0:0:0:
192,192,79775,1,0,0:0:0:0:
64,192,80118,1,4,3:0:0:0:
448,192,80290,1,4,3:0:0:0:
192,192,80461,1,8,0:0:0:0:
320,192,80632,1,4,3:0:0:0:
64,192,80804,1,4,1:0:0:0:
192,192,80804,1,0,0:0:0:0:
320,192,81147,1,0,0:0:0:0:
448,192,81147,1,8,0:0:0:0:
192,192,81490,1,4,3:0:0:0:
320,192,81661,1,0,0:0:0:0:
64,192,81832,1,8,0:0:0:0:
448,192,82004,1,0,0:0:0:0:
192,192,82175,1,4,3:0:0:0:
448,192,82518,1,8,0:0:0:0:
64,192,82518,1,0,0:0:0:0:
320,192,82861,1,4,3:0:0:0:
192,192,83032,1,0,0:0:0:0:
448,192,83204,1,8,0:0:0:0:
64,192,83375,1,4,3:0:0:0:
320,192,83547,1,4,3:0:0:0:
448,192,83890,1,0,0:0:0:0:
64,192,83890,1,8,0:0:0:0:
320,192,84232,1,4,3:0:0:0:
64,192,84404,1,0,0:0:0:0:
448,192,84575,1,8,0:0:0:0:
192,192,84747,1,0,0:0:0:0:
320,192,84918,1,4,3:0:0:0:
448,192,85261,1,0,0:0:0:0:
64,192,85261,1,8,0:0:0:0:
192,192,85604,1,4,3:0:0:0:
320,192,85775,1,0,0:0:0:0:
448,192,85947,1,8,0:0:0:0:
64,192,85947,1,4,1:0:0:0:
192,192,86118,1,4,3:0:0:0:
64,192,86290,1,4,1:0:0:0:
448,192,86290,1,4,3:0:0:0:
320,192,86632,1,8,0:0:0:0:
192,192,86632,1,0,0:0:0:0:
192,192,86975,1,4,3:0:0:0:
64,192,87147,1,0,0:0:0:0:
320,192,87318,1,8,0:0:0:0:
192,192,87490,1,0,0:0:0:0:
448,192,87661,1,4,3:0:0:0:
192,192,88004,1,0,0:0:0:0:
320,192,88004,1,8,0:0:0:0:
320,192,88347,1,4,3:0:0:0:
448,192,88518,1,0,0:0:0:0:
192,192,88690,1,8,0:0:0:0:
320,192,88861,1,0,0:0:0:0:
64,192,89032,1,4,3:0:0:0:
192,192,89375,1,0,0:0:0:0:
320,192,89375,1,8,0:0:0:0:
448,192,89718,1,4,3:0:0:0:
320,192,89890,1,0,0:0:0:0:
64,192,90061,1,8,0:0:0:0:
192,192,90232,1,0,0:0:0:0:
320,192,90404,1,4,3:0:0:0:
448,192,90404,1,4,1:0:0:0:
192,192,90747,1,4,1:0:0:0:
64,192,90747,1,8,0:0:0:0:
192,192,91090,1,4,3:0:0:0:
448,192,91090,1,4,1:0:0:0:
320,192,91432,1,8,0:0:0:0:
64,192,91432,1,4,1:0:0:0:
64,192,91775,1,4,3:0:0:0:
448,192,91775,1,4,1:0:0:0:
192,192,91947,1,0,0:0:0:0:
320,192,92118,1,8,0:0:0:0:
448,192,92290,1,0,0:0:0:0:
192,192,92461,1,4,3:0:0:0:
320,192,92632,1,0,0:0:0:0:
64,192,92804,1,8,0:0:0:0:
192,192,92975,1,0,0:0:0:0:
448,192,93147,1,4,3:0:0:0:
320,192,93318,1,0,0:0:0:0:
192,192,93490,1,8,0:0:0:0:
64,192,93661,1,0,0:0:0:0:
320,192,93832,1,4,3:0:0:0:
192,192,94004,1,0,0:0:0:0:
448,192,94175,1,8,0:0:0:0:
320,192,94347,1,4,3:0:0:0:
64,192,94518,1,4,3:0:0:0:
320,192,94690,1,0,0:0:0:0:
192,192,94861,1,8,0:0:0:0:
448,192,95032,1,0,0:0:0:0:
192,192,95204,1,4,3:0:0:0:
320,192,95375,1,0,0:0:0:0:
64,192,95547,1,8,0:0:0:0:
192,192,95718,1,0,0:0:0:0:
448,192,95890,1,4,3:0:0:0:
192,192,96061,1,0,0:0:0:0:
320,192,96232,1,8,0:0:0:0:
64,192,96404,1,0,0:0:0:0:
448,192,96575,1,4,3:0:0:0:
192,192,96747,1,0,0:0:0:0:
448,192,96918,1,8,0:0:0:0:
320,192,96918,1,4,1:0:0:0:
192,192,97261,1,4,1:0:0:0:
64,192,97261,1,4,3:0:0:0:
448,192,97432,1,0,0:0:0:0:
64,192,97604,1,8,0:0:0:0:
320,192,97775,1,0,0:0:0:0:
192,192,97947,1,4,3:0:0:0:
320,192,98118,1,0,0:0:0:0:
64,192,98290,1,8,0:0:0:0:
448,192,98461,1,0,0:0:0:0:
320,192,98632,1,4,3:0:0:0:
64,192,98804,1,0,0:0:0:0:
448,192,98975,1,8,0:0:0:0:
192,192,99147,1,0,0:0:0:0:
320,192,99318,1,4,3:0:0:0:
192,192,99490,1,0,0:0:0:0:
448,192,99661,1,8,0:0:0:0:
64,192,99832,1,0,0:0:0:0:
192,192,100004,1,4,3:0:0:0:
320,192,100175,1,0,0:0:0:0:
64,192,100347,1,8,0:0:0:0:
448,192,100518,1,0,0:0:0:0:
192,192,100690,1,4,3:0:0:0:
448,192,100861,1,0,0:0:0:0:
64,192,101032,1,8,0:0:0:0:
320,192,101204,1,0,0:0:0:0:
192,192,101375,1,4,3:0:0:0:
448,192,101375,1,4,1:0:0:0:
320,192,101718,5,4,1:0:0:0:
64,192,101718,1,8,0:0:0:0:
192,192,102061,1,4,3:0:0:0:
448,192,102061,1,4,1:0:0:0:
320,192,102404,1,4,1:0:0:0:
64,192,102404,1,8,0:0:0:0:
448,192,102747,5,4,1:0:0:0:
64,192,102747,1,4,3:0:0:0:
192,192,103090,1,8,0:0:0:0:
320,192,103432,1,0,0:0:0:0:
64,192,103775,1,8,0:0:0:0:
448,192,104118,1,0,0:0:0:0:
192,192,104461,1,8,0:0:0:0:
320,192,104804,1,0,0:0:0:0:
64,192,105147,1,8,0:0:0:0:
320,192,105490,1,0,0:0:0:0:
192,192,105832,1,8,0:0:0:0:
448,192,106175,1,0,0:0:0:0:
64,192,106518,1,8,0:0:0:0:
320,192,106861,1,0,0:0:0:0:
64,192,107204,1,8,0:0:0:0:
448,192,107547,1,0,0:0:0:0:
192,192,107890,1,4,1:0:0:0:
64,192,107890,1,0,0:0:0:0:
192,192,108232,1,4,1:0:0:0:
64,192,108232,1,0,0:0:0:0:
448,192,108575,1,8,0:0:0:0:
64,192,108918,1,0,0:0:0:0:
448,192,109261,1,8,0:0:0:0:
192,192,109604,1,0,0:0:0:0:
320,192,109947,1,8,0:0:0:0:
64,192,110290,1,0,0:0:0:0:
320,192,110632,1,8,0:0:0:0:
192,192,110975,1,0,0:0:0:0:
448,192,111318,1,8,0:0:0:0:
192,192,111661,1,0,0:0:0:0:
320,192,112004,1,8,0:0:0:0:
64,192,112347,1,4,1:0:0:0:
192,192,112347,1,0,0:0:0:0:
448,192,112690,5,8,0:0:0:0:
320,192,112690,1,0,0:0:0:0:
64,192,113032,1,4,1:0:0:0:
192,192,113032,1,0,0:0:0:0:
448,192,113375,1,8,0:0:0:0:
320,192,113375,1,0,0:0:0:0:
448,192,113718,5,4,3:0:0:0:
64,192,113718,1,4,1:0:0:0:
320,192,114061,1,8,0:0:0:0:
192,192,114404,1,4,3:0:0:0:
448,192,114575,1,0,0:0:0:0:
64,192,114747,1,8,0:0:0:0:
320,192,114918,1,0,0:0:0:0:
448,192,115090,128,4,115432:3:0:0:0:
192,192,115432,128,8,115775:0:0:0:0:
64,192,115432,1,0,0:0:0:0:
320,192,115775,128,4,116118:3:0:0:0:
448,192,115775,1,0,0:0:0:0:
64,192,116118,1,8,0:0:0:0:
448,192,116290,1,4,3:0:0:0:
64,192,116461,1,4,1:0:0:0:
192,192,116461,1,4,3:0:0:0:
448,192,116804,1,8,0:0:0:0:
64,192,117147,1,4,3:0:0:0:
448,192,117318,1,0,0:0:0:0:
192,192,117490,1,8,0:0:0:0:
320,192,117661,1,0,0:0:0:0:
64,192,117832,128,4,118175:3:0:0:0:
320,192,118175,128,8,118518:0:0:0:0:
448,192,118175,1,0,0:0:0:0:
192,192,118518,128,4,118861:3:0:0:0:
64,192,118518,1,0,0:0:0:0:
448,192,118861,1,8,0:0:0:0:
64,192,119032,1,4,3:0:0:0:
448,192,119204,1,4,1:0:0:0:
320,192,119204,1,4,3:0:0:0:
64,192,119547,1,8,0:0:0:0:
448,192,119890,1,4,3:0:0:0:
64,192,120061,1,0,0:0:0:0:
320,192,120232,1,8,0:0:0:0:
192,192,120404,1,0,0:0:0:0:
320,192,120575,128,4,120918:3:0:0:0:
192,192,120918,128,8,121261:0:0:0:0:
448,192,120918,1,0,0:0:0:0:
64,192,121261,128,4,121604:3:0:0:0:
320,192,121261,1,0,0:0:0:0:
448,192,121604,1,8,0:0:0:0:
192,192,121775,1,4,3:0:0:0:
320,192,121947,1,4,3:0:0:0:
448,192,121947,1,4,1:0:0:0:
192,192,122290,1,8,0:0:0:0:
448,192,122632,1,4,3:0:0:0:
192,192,122804,1,0,0:0:0:0:
320,192,122975,1,8,0:0:0:0:
64,192,123147,1,0,0:0:0:0:
192,192,123318,128,4,123661:3:0:0:0:
320,192,123661,128,8,124004:0:0:0:0:
64,192,123661,1,0,0:0:0:0:
448,192,124004,128,4,124347:3:0:0:0:
192,192,124004,1,0,0:0:0:0:
192,192,124347,1,8,0:0:0:0:
320,192,124518,1,4,3:0:0:0:
64,192,124690,5,4,3:0:0:0:
448,192,124690,1,4,1:0:0:0:
192,192,124861,1,4,3:0:0:0:
320,192,125032,1,8,0:0:0:0:
448,192,125204,1,4,3:0:0:0:
64,192,125375,1,4,3:0:0:0:
448,192,125547,1,4,3:0:0:0:
192,192,125718,1,8,0:0:0:0:
320,192,125890,1,4,3:0:0:0:
64,192,126061,1,4,3:0:0:0:
192,192,126232,1,4,3:0:0:0:
320,192,126404,1,8,0:0:0:0:
448,192,126575,1,4,3:0:0:0:
64,192,126747,1,4,3:0:0:0:
320,192,126918,1,4,3:0:0:0:
192,192,127090,1,8,0:0:0:0:
448,192,127261,1,4,3:0:0:0:
192,192,127432,1,4,1:0:0:0:
320,192,127432,1,4,3:0:0:0:
64,192,127604,1,4,3:0:0:0:
448,192,127775,1,8,0:0:0:0:
192,192,127947,1,4,3:0:0:0:
320,192,128118,1,4,3:0:0:0:
192,192,128290,1,4,3:0:0:0:
448,192,128461,1,8,0:0:0:0:
64,192,128632,1,4,3:0:0:0:
320,192,128804,1,4,3:0:0:0:
64,192,128975,1,4,3:0:0:0:
448,192,129147,1,8,0:0:0:0:
192,192,129318,1,4,3:0:0:0:
320,192,129490,1,4,3:0:0:0:
192,192,129661,1,4,3:0:0:0:
448,192,129832,1,8,0:0:0:0:
64,192,130004,1,4,3:0:0:0:
448,192,130175,1,4,3:0:0:0:
320,192,130175,1,4,1:0:0:0:
192,192,130347,1,4,3:0:0:0:
320,192,130518,1,8,0:0:0:0:
64,192,130690,1,4,3:0:0:0:
448,192,130861,1,4,3:0:0:0:
192,192,131032,1,4,3:0:0:0:
320,192,131204,1,8,0:0:0:0:
64,192,131375,1,4,3:0:0:0:
448,192,131547,1,4,3:0:0:0:
192,192,131718,1,4,3:0:0:0:
320,192,131890,1,8,0:0:0:0:
64,192,132061,1,4,3:0:0:0:
448,192,132232,1,4,3:0:0:0:
192,192,132404,1,4,3:0:0:0:
320,192,132575,1,8,0:0:0:0:
192,192,132747,1,4,3:0:0:0:
448,192,132918,128,4,135661:1:0:0:0:
64,192,132918,1,4,3:0:0:0:
192,192,133261,1,8,0:0:0:0:
64,192,133261,1,4,3:0:0:0:
320,192,133604,1,4,3:0:0:0:
192,192,133775,1,4,3:0:0:0:
64,192,133947,1,4,3:0:0:0:
320,192,133947,1,8,0:0:0:0:
192,192,134118,1,4,3:0:0:0:
320,192,134290,1,4,3:0:0:0:
192,192,134632,1,8,0:0:0:0:
64,192,134632,1,4,3:0:0:0:
320,192,134975,1,4,3:0:0:0:
192,192,135147,1,4,3:0:0:0:
320,192,135318,1,8,0:0:0:0:
64,192,135318,1,4,3:0:0:0:
192,192,135490,1,4,3:0:0:0:
64,192,135661,128,4,138404:1:0:0:0:
320,192,135661,1,4,3:0:0:0:
448,192,136004,1,4,3:0:0:0:
320,192,136004,1,8,0:0:0:0:
192,192,136347,1,4,3:0:0:0:
320,192,136518,1,4,3:0:0:0:
192,192,136690,1,8,0:0:0:0:
448,192,136690,1,4,3:0:0:0:
320,192,136861,1,4,3:0:0:0:
192,192,137032,1,4,3:0:0:0:
320,192,137375,1,8,0:0:0:0:
448,192,137375,1,4,3:0:0:0:
192,192,137718,1,4,3:0:0:0:
320,192,137890,1,4,3:0:0:0:
448,192,138061,1,8,0:0:0:0:
192,192,138061,1,4,3:0:0:0:
320,192,138232,1,4,3:0:0:0:
448,192,138404,128,4,140804:3:0:0:0:
192,192,138404,128,0,140804:0:0:0:0:
