osu file format v14

[General]
AudioFilename: thanksringating.mp3
AudioLeadIn: 0
PreviewTime: 44127
Countdown: 0
SampleSet: Soft
StackLeniency: 0.7
Mode: 0
LetterboxInBreaks: 0
WidescreenStoryboard: 1

[Editor]
Bookmarks: 22277,66670,88867,111063,133260
DistanceSpacing: 1.4
BeatDivisor: 4
GridSize: 4
TimelineZoom: 1.2

[Metadata]
Title:The Agony & the Ecstasy (feat. Selah Corbin)
TitleUnicode:The Agony & the Ecstasy (feat. Selah Corbin)
Artist:High Contrast
ArtistUnicode:High Contrast
Creator:samplefish
Version:Ecstasy
Source:
Tags:fort pishifat cut dnb drum and bass
BeatmapID:457448
BeatmapSetID:192342

[Difficulty]
HPDrainRate:7
CircleSize:4
OverallDifficulty:9
ApproachRate:9.2
SliderMultiplier:1.9
SliderTickRate:2

[Events]
//Background and Video events
0,0,"thanxringating.jpg",0,0
//Break Periods
//Storyboard Layer 0 (Background)
//Storyboard Layer 1 (Fail)
//Storyboard Layer 2 (Pass)
//Storyboard Layer 3 (Foreground)
//Storyboard Sound Samples

[TimingPoints]
81,346.820809248555,4,2,2,70,1,0
81,-200,4,2,2,70,0,0
33375,-133.333333333333,4,2,2,70,0,0
41699,-133.333333333333,4,2,1,70,0,0
44474,-100,4,2,1,70,0,1
44560,-100,4,2,1,70,0,0
66670,-100,4,2,1,70,0,1
66757,-100,4,2,1,70,0,0
88867,-100,4,2,1,70,0,1
88953,-100,4,2,1,70,0,0
133260,-100,4,2,1,70,0,1
133346,-100,4,2,1,70,0,0

[Colours]
Combo1 : 189,189,189
Combo2 : 255,128,192
Combo3 : 243,182,67
Combo4 : 166,83,83
Combo5 : 244,147,57
Combo6 : 239,82,82
Combo7 : 157,157,157
Combo8 : 210,210,210

[HitObjects]
144,216,22277,85,0,0:0:0:0:
144,216,22624,2,0,L|304:204,1,142.5,0|0,0:0|0:0,0:0:0:0:
392,56,23664,2,0,L|232:68,1,142.5,0|0,0:0|0:0,0:0:0:0:
135,236,24705,1,0,0:0:0:0:
143,268,24878,1,0,0:0:0:0:
152,300,25052,6,0,P|200:308|253:282,1,95
165,76,25919,1,0,0:0:0:0:
384,15,26439,1,0,0:0:0:0:
498,211,26959,1,0,0:0:0:0:
284,280,27479,1,0,0:0:0:0:
320,364,27653,1,0,0:0:0:0:
227,357,27826,6,0,P|164:347|132:351,1,95
200,104,28693,2,0,L|212:248,2,142.5
460,48,30254,1,0,0:0:0:0:
404,100,30427,1,0,0:0:0:0:
460,152,30601,86,0,L|452:260,1,95
460,48,31468,1,0,0:0:0:0:
332,128,31988,1,0,0:0:0:0:
436,236,32508,1,0,0:0:0:0:
300,316,33028,1,0,0:0:0:0:
236,372,33202,1,0,0:0:0:0:
164,340,33375,6,0,P|128:340|87:353,1,71.2500027179719
226,263,33722,2,0,L|232:192,1,71.2500027179719,2|0,0:0|0:0,0:0:0:0:
78,97,34069,2,0,P|116:104|153:99,1,71.2500027179719,0|2,0:0|0:0,0:0:0:0:
320,52,34416,2,0,L|314:123,1,71.2500027179719
227,332,34763,6,0,P|219:297|226:263,1,71.2500027179719,2|0,0:0|0:0,0:0:0:0:
330,217,35109,1,0,0:0:0:0:
218,131,35283,2,0,L|133:126,2,71.2500027179719,2|0|0,0:0|0:0|0:0,0:0:0:0:
346,134,35803,1,2,0:0:0:0:
268,271,35976,1,2,0:0:0:0:
433,259,36150,102,0,L|529:252,1,71.2500027179719,2|0,0:0|0:0,0:0:0:0:
356,344,36497,2,0,L|452:337,1,71.2500027179719,2|0,0:0|0:0,0:0:0:0:
268,271,36844,2,0,L|364:264,1,71.2500027179719,0|2,0:0|0:0,0:0:0:0:
193,357,37190,2,0,L|289:350,1,71.2500027179719,0|0,0:0|0:0,0:0:0:0:
98,282,37537,6,0,P|166:264|179:177,1,142.500005435944,2|0,0:0|0:0,0:0:0:0:
107,121,38057,1,2,0:0:0:0:
206,64,38231,1,0,0:0:0:0:
348,123,38404,1,0,0:0:0:0:
202,158,38578,1,2,0:0:0:0:
298,38,38751,1,2,0:0:0:0:
288,191,38924,86,0,P|285:233|290:285,1,71.2500027179719,2|0,0:0|0:0,0:0:0:0:
192,340,39271,2,0,P|195:298|190:246,1,71.2500027179719,2|0,0:0|0:0,0:0:0:0:
98,205,39618,1,0,0:0:0:0:
202,158,39791,2,0,P|237:147|290:149,1,71.2500027179719,2|0,0:0|0:0,0:0:0:0:
271,145,40312,6,0,P|311:215|369:203,1,142.500005435944,2|0,0:0|0:0,0:0:0:0:
450,158,40832,1,2,0:0:0:0:
477,253,41005,2,0,P|478:301|472:351,1,71.2500027179719
359,361,41352,2,0,P|357:325|359:289,1,71.2500027179719,2|2,0:0|0:0,0:0:0:0:
450,158,41699,5,2,1:2:0:0:
450,158,41872,1,0,1:0:0:0:
239,205,42046,1,2,1:2:0:0:
239,205,42219,1,0,1:0:0:0:
362,59,42393,1,0,1:0:0:0:
362,59,42566,1,2,1:2:0:0:
451,278,42739,1,0,1:0:0:0:
451,278,42913,1,0,1:0:0:0:
347,354,43086,101,2,1:2:0:0:
385,216,43260,1,0,1:0:0:0:
152,185,43433,1,0,1:0:0:0:
287,46,43607,1,2,1:2:0:0:
265,319,43780,5,0,1:0:0:0:
245,317,43866,1,0,1:0:0:0:
224,314,43953,1,0,1:0:0:0:
204,311,44040,1,0,1:0:0:0:
175,296,44126,1,2,1:2:0:0:
143,287,44213,1,2,1:2:0:0:
111,292,44300,1,2,1:2:0:0:
84,310,44386,1,2,1:2:0:0:
58,333,44474,38,0,P|61:275|54:227,1,95,6|0,1:2|0:0,0:0:0:0:
33,91,44820,1,10,0:0:0:0:
152,185,44994,1,0,0:0:0:0:
184,194,45081,1,0,0:0:0:0:
213,180,45167,1,0,0:0:0:0:
342,92,45341,1,2,1:2:0:0:
374,302,45514,2,0,L|478:294,1,95,8|0,0:0|0:0,0:0:0:0:
263,189,45861,6,0,L|159:181,1,95,2|0,1:2|0:0,0:0:0:0:
252,339,46208,1,8,0:0:0:0:
263,189,46381,1,2,0:0:0:0:
264,165,46468,1,0,0:0:0:0:
266,141,46554,1,0,0:0:0:0:
160,44,46728,1,0,0:0:0:0:
134,208,46901,1,10,0:0:0:0:
76,87,47075,1,2,0:0:0:0:
263,189,47248,6,0,L|397:199,1,95,2|0,1:2|0:0,0:0:0:0:
252,339,47595,2,0,L|118:329,1,95,10|0,0:0|0:0,0:0:0:0:
133,330,47855,1,0,0:0:0:0:
109,327,47942,1,0,0:0:0:0:
9,253,48115,1,2,1:2:0:0:
157,134,48289,2,0,P|171:89|160:43,1,95,8|0,0:0|0:0,0:0:0:0:
55,168,48635,54,0,P|121:160|246:151,1,190,2|8,1:2|0:0,0:0:0:0:
438,235,49156,1,2,0:0:0:0:
411,218,49242,1,0,0:0:0:0:
395,187,49329,1,0,0:0:0:0:
377,64,49502,1,0,1:0:0:0:
372,306,49676,2,0,P|333:301|269:298,1,95,10|2,0:0|0:0,0:0:0:0:
38,329,50023,6,0,P|129:305|143:209,1,190,2|10,1:2|0:0,0:0:0:0:
82,105,50543,1,0,0:0:0:0:
105,99,50630,1,0,0:0:0:0:
128,93,50716,1,0,0:0:0:0:
243,26,50890,1,2,1:2:0:0:
228,248,51063,2,0,P|222:293|225:358,1,95,8|0,0:0|0:0,0:0:0:0:
462,125,51410,6,0,L|358:116,1,95,2|0,1:2|0:0,0:0:0:0:
151,90,51757,1,8,0:0:0:0:
228,207,51930,1,2,0:0:0:0:
228,207,52017,1,0,0:0:0:0:
228,207,52104,1,0,0:0:0:0:
151,90,52277,1,0,1:0:0:0:
97,272,52450,1,10,0:0:0:0:
151,90,52624,1,2,0:0:0:0:
213,304,52797,6,0,P|300:281|322:178,1,190,2|10,1:2|0:0,0:0:0:0:
447,135,53317,1,0,0:0:0:0:
438,167,53404,1,0,0:0:0:0:
444,199,53491,1,0,0:0:0:0:
477,319,53664,1,2,1:2:0:0:
307,303,53838,2,0,P|260:300|213:304,1,95,8|0,0:0|0:0,0:0:0:0:
341,187,54185,6,0,P|305:101|217:87,1,190,2|8,1:2|0:0,0:0:0:0:
136,264,54705,1,2,0:0:0:0:
156,239,54791,1,0,0:0:0:0:
159,207,54878,1,0,0:0:0:0:
46,206,55052,1,0,1:0:0:0:
248,172,55225,1,10,0:0:0:0:
213,304,55398,1,0,1:0:0:0:
73,85,55572,54,0,P|175:76|282:71,1,190,2|10,1:2|0:0,0:0:0:0:
410,169,56092,1,0,0:0:0:0:
441,156,56179,1,0,0:0:0:0:
454,125,56265,1,0,0:0:0:0:
392,24,56439,1,2,1:2:0:0:
328,224,56612,2,0,P|327:276|331:342,1,95,8|0,0:0|0:0,0:0:0:0:
335,120,56959,6,0,P|240:110|145:108,1,190,2|8,1:2|0:0,0:0:0:0:
21,240,57479,1,2,0:0:0:0:
54,235,57566,1,0,0:0:0:0:
78,212,57653,1,0,0:0:0:0:
146,109,57826,1,0,1:0:0:0:
200,320,58000,1,10,0:0:0:0:
54,235,58173,1,2,0:0:0:0:
256,180,58346,6,0,P|365:174|389:264,1,190,2|10,1:2|0:0,0:0:0:0:
171,242,58867,1,0,0:0:0:0:
157,212,58953,1,0,0:0:0:0:
156,178,59040,1,0,0:0:0:0:
296,52,59213,1,2,1:2:0:0:
313,236,59387,2,0,P|315:292|312:345,1,95,8|0,0:0|0:0,0:0:0:0:
272,140,59734,6,0,P|325:138|369:92,1,95,2|0,1:2|0:0,0:0:0:0:
161,36,60081,2,0,P|114:35|75:62,1,95,2|0,1:2|0:0,0:0:0:0:
56,87,60341,1,0,0:0:0:0:
44,119,60427,1,0,0:0:0:0:
132,276,60601,2,0,P|140:216|136:168,1,95,0|10,1:0|0:0,0:0:0:0:
31,151,60948,1,2,0:0:0:0:
85,347,61121,6,0,P|176:349|215:245,1,190,2|10,1:2|0:0,0:0:0:0:
139,119,61641,1,0,0:0:0:0:
163,141,61728,1,0,0:0:0:0:
196,142,61815,1,0,0:0:0:0:
308,77,61988,1,2,1:2:0:0:
352,229,62161,2,0,P|357:285|354:347,1,95,8|0,0:0|0:0,0:0:0:0:
269,204,62508,54,0,P|334:143|427:186,1,190,2|8,1:2|0:0,0:0:0:0:
250,292,63028,1,2,0:0:0:0:
216,292,63115,1,0,0:0:0:0:
182,293,63202,1,0,0:0:0:0:
72,352,63375,1,0,0:0:0:0:
120,128,63549,2,0,P|96:78|50:55,1,95,8|0,0:0|0:0,0:0:0:0:
305,98,63896,5,6,1:2:0:0:
349,241,64069,1,0,0:0:0:0:
206,285,64242,1,10,0:0:0:0:
162,142,64416,1,0,0:0:0:0:
373,155,64589,5,0,1:0:0:0:
291,309,64763,1,2,1:2:0:0:
137,227,64936,1,8,0:0:0:0:
219,73,65109,1,0,2:0:0:0:
394,265,65283,5,2,1:2:0:0:
182,330,65456,1,0,1:0:0:0:
116,118,65630,1,8,1:2:0:0:
329,52,65803,1,10,1:2:0:0:
232,353,65976,5,0,1:0:0:0:
219,336,66063,1,0,1:0:0:0:
207,320,66150,1,0,1:0:0:0:
194,304,66237,1,0,1:0:0:0:
182,288,66323,1,2,1:2:0:0:
169,272,66410,1,2,1:2:0:0:
156,256,66497,1,0,1:0:0:0:
144,240,66583,1,2,1:2:0:0:
131,224,66670,54,0,P|122:171|150:119,1,95,4|0,1:2|0:0,0:0:0:0:
421,120,67017,1,10,0:0:0:0:
360,244,67190,2,0,L|360:312,2,47.5,0|0|0,0:0|0:0|0:0,0:0:0:0:
421,120,67537,1,2,1:2:0:0:
216,48,67711,2,0,P|166:51|114:97,1,95,8|0,0:0|0:0,0:0:0:0:
252,344,68057,6,0,P|304:344|338:315,1,95,2|0,1:2|0:0,0:0:0:0:
156,256,68404,1,8,0:0:0:0:
60,304,68578,1,2,0:0:0:0:
52,271,68664,1,0,0:0:0:0:
46,238,68751,2,0,B|34:183|34:183|46:142,1,95,0|0,0:0|1:0,0:0:0:0:
360,140,69098,2,0,B|307:156|307:156|264:150,1,95,10|2,0:0|0:2,0:0:0:0:
128,32,69445,6,0,L|128:148,1,95,2|0,1:2|0:0,1:2:0:0:
384,272,69791,2,0,B|318:266|318:266|278:278,1,95,10|0,0:0|0:0,0:0:0:0:
260,288,70052,1,0,0:0:0:0:
228,300,70138,1,0,0:0:0:0:
124,332,70312,1,2,1:2:0:0:
36,186,70485,1,8,0:0:0:0:
128,130,70659,1,0,0:0:0:0:
227,300,70832,6,0,P|295:240|269:154,1,190,2|8,0:0|0:0,0:0:0:0:
128,268,71352,1,2,0:2:0:0:
116,300,71439,1,0,0:0:0:0:
124,332,71526,1,0,0:0:0:0:
32,236,71699,1,0,1:0:0:0:
128,108,71872,2,0,P|179:93|238:96,1,95,10|2,0:0|0:0,0:0:0:0:
440,288,72219,6,0,P|398:249|362:201,1,95,2|0,1:2|0:0,0:0:0:0:
448,128,72566,1,10,0:0:0:0:
320,48,72739,1,0,0:0:0:0:
288,44,72826,1,0,0:0:0:0:
256,56,72913,1,0,0:0:0:0:
267,234,73086,1,2,1:2:0:0:
30,194,73260,1,8,0:0:0:0:
66,383,73433,1,0,0:0:0:0:
268,348,73607,54,0,P|370:333|464:327,1,190,2|8,1:2|0:0,0:0:0:0:
352,236,74127,2,0,P|344:208|344:176,2,47.5,2|0|0,0:0|0:0|0:0,0:0:0:0:
384,332,74474,1,0,1:0:0:0:
464,120,74647,1,10,0:0:0:0:
252,272,74820,1,0,0:0:0:0:
287,43,74994,5,2,1:2:0:0:
287,43,75167,1,0,0:0:0:0:
331,203,75341,1,10,0:0:0:0:
331,203,75514,1,0,0:0:0:0:
108,188,75687,1,0,0:0:0:0:
108,188,75861,1,2,1:2:0:0:
160,272,76034,1,8,0:0:0:0:
256,112,76208,1,0,0:0:0:0:
368,336,76381,5,2,1:2:0:0:
464,144,76554,1,8,1:2:0:0:
240,224,76728,1,8,0:0:0:0:
336,48,76901,1,10,1:2:0:0:
448,272,77075,1,0,0:0:0:0:
160,136,77248,1,0,0:0:0:0:
416,32,77422,1,10,1:2:0:0:
368,336,77595,1,2,1:2:0:0:
168,52,77768,6,0,P|104:72|96:192,1,190,6|10,1:2|0:0,0:0:0:0:
284,220,78289,1,0,0:0:0:0:
300,192,78375,1,0,0:0:0:0:
288,160,78462,1,0,0:0:0:0:
160,136,78635,1,2,1:2:0:0:
404,108,78809,2,0,P|456:104|512:104,1,95,8|0,0:0|0:0,0:0:0:0:
284,296,79156,6,0,P|232:300|176:300,1,95,2|0,1:2|0:0,0:0:0:0:
160,136,79502,1,8,0:0:0:0:
68,248,79676,2,0,L|72:300,2,47.5,2|0|0,0:2|0:0|0:0,0:0:0:0:
64,120,80023,1,0,1:0:0:0:
257,161,80196,2,0,P|261:113|257:53,1,95,10|2,0:0|0:0,0:0:0:0:
200,264,80543,54,0,P|264:196|360:240,1,190,2|10,1:2|0:0,0:0:0:0:
436,312,81063,1,0,0:0:0:0:
452,284,81150,1,0,0:0:0:0:
452,252,81237,1,0,0:0:0:0:
392,124,81410,1,2,1:2:0:0:
284,276,81583,2,0,P|279:332|287:396,1,95,8|0,0:0|0:0,0:0:0:0:
76,248,81930,5,2,1:2:0:0:
136,152,82104,1,0,0:0:0:0:
283,275,82277,2,0,P|238:292|191:299,1,95,8|2,0:0|0:2,0:0:0:0:
46,123,82624,2,0,P|89:143|136:152,1,95,0|0,0:0|1:0,0:0:0:0:
320,192,82971,1,10,0:2:0:0:
191,299,83144,1,2,0:0:0:0:
376,344,83317,6,0,P|468:316|472:224,1,190,2|10,1:2|0:0,0:0:0:0:
320,192,83838,1,0,0:0:0:0:
352,192,83924,1,0,0:0:0:0:
384,184,84011,1,0,0:0:0:0:
424,88,84185,1,2,1:2:0:0:
229,162,84358,2,0,P|224:208|243:251,1,95,8|0,0:0|0:0,0:0:0:0:
448,352,84705,6,0,P|363:337|240:336,1,190,2|8,1:2|0:0,0:0:0:0:
64,352,85225,1,2,0:0:0:0:
96,348,85312,1,0,0:0:0:0:
120,328,85398,1,0,0:0:0:0:
216,232,85572,1,0,1:0:0:0:
40,168,85745,1,10,0:0:0:0:
64,352,85919,1,2,0:0:0:0:
216,232,86092,6,0,P|264:228|332:232,1,95,2|0,1:2|0:0,2:0:0:0:
464,360,86439,2,0,P|444:315|426:250,1,95,10|0,0:0|0:0,2:0:0:0:
484,80,86786,2,0,P|439:99|374:117,1,95,0|2,0:0|1:2,2:0:0:0:
142,112,87133,1,8,0:0:0:0:
251,22,87306,1,0,0:0:0:0:
224,348,87479,54,0,P|264:284|392:312,1,190,2|8,1:2|0:0,0:0:0:0:
112,256,88000,1,10,0:0:0:0:
322,59,88173,1,0,1:0:0:0:
341,86,88259,1,0,1:0:0:0:
348,120,88346,1,8,0:0:0:0:
340,152,88433,1,2,1:2:0:0:
321,180,88519,1,8,1:2:0:0:
292,197,88606,1,2,0:0:0:0:
258,201,88693,1,8,0:0:0:0:
226,191,88779,1,8,0:0:0:0:
200,172,88867,6,0,P|192:240|196:272,1,95,10|0,1:2|0:0,0:0:0:0:
348,308,89213,1,0,0:0:0:0:
264,120,89387,1,0,0:0:0:0:
240,96,89474,1,0,0:0:0:0:
208,84,89560,1,0,0:0:0:0:
114,170,89734,1,2,1:2:0:0:
322,59,89907,2,0,P|378:50|446:51,1,95,8|0,0:0|0:0,0:0:0:0:
456,307,90254,6,0,P|344:279|340:199,1,190,2|8,1:2|0:0,0:0:0:0:
434,131,90774,1,2,0:0:0:0:
434,131,90861,1,0,0:0:0:0:
434,131,90948,1,0,0:0:0:0:
322,59,91121,1,0,1:0:0:0:
267,307,91294,1,10,0:0:0:0:
415,235,91468,1,2,0:0:0:0:
206,93,91641,6,0,P|114:118|112:220,1,190,2|10,1:2|0:0,0:0:0:0:
186,317,92161,1,0,0:0:0:0:
214,299,92248,1,0,0:0:0:0:
223,267,92335,1,0,0:0:0:0:
180,170,92508,1,2,1:2:0:0:
370,213,92682,1,0,0:0:0:0:
356,106,92855,1,0,0:0:0:0:
143,248,93028,6,0,P|94:178|171:83,1,190,2|8,1:2|0:0,0:0:0:0:
265,136,93549,1,2,0:0:0:0:
297,141,93635,1,0,0:0:0:0:
327,127,93722,1,0,0:0:0:0:
439,38,93896,1,0,1:0:0:0:
370,213,94069,1,10,0:0:0:0:
427,355,94242,1,2,0:0:0:0:
263,304,94416,54,0,P|179:300|71:316,1,190,2|10,1:2|0:0,0:0:0:0:
12,196,94936,1,0,0:0:0:0:
12,196,95023,1,0,0:0:0:0:
12,196,95109,1,0,0:0:0:0:
108,104,95283,1,2,1:2:0:0:
166,276,95456,2,0,P|203:246|234:211,1,95,8|0,0:0|0:0,0:0:0:0:
292,28,95803,6,0,P|332:54|376:101,1,95,2|0,1:2|0:0,0:0:0:0:
464,228,96150,1,8,0:0:0:0:
427,355,96323,1,2,0:0:0:0:
427,355,96410,1,0,0:0:0:0:
427,355,96497,1,0,0:0:0:0:
330,262,96670,1,0,1:0:0:0:
464,228,96844,1,10,0:0:0:0:
428,356,97017,1,2,0:0:0:0:
178,356,97190,5,2,1:2:0:0:
178,356,97537,2,0,P|120:359|67:338,1,95,10|0,0:0|0:0,0:0:0:0:
60,328,97797,1,0,0:0:0:0:
46,298,97884,1,0,0:0:0:0:
168,144,98057,2,0,P|162:194|151:246,1,95,2|8,1:2|0:0,0:0:0:0:
45,173,98404,1,0,0:0:0:0:
264,200,98578,6,0,P|368:196|424:116,1,190,2|8,1:2|0:0,0:0:0:0:
468,32,99098,1,2,0:0:0:0:
468,32,99185,1,0,0:0:0:0:
468,32,99271,1,0,0:0:0:0:
500,144,99445,1,0,1:0:0:0:
368,24,99618,1,10,0:0:0:0:
464,264,99791,1,2,0:0:0:0:
464,264,99965,6,0,P|384:272|272:292,1,190,2|10,1:2|0:0,0:0:0:0:
88,352,100485,1,0,0:0:0:0:
112,328,100572,1,0,0:0:0:0:
116,296,100659,1,0,0:0:0:0:
24,196,100832,1,2,1:2:0:0:
212,80,101005,2,0,P|264:72|312:72,1,95,8|0,0:0|0:0,0:0:0:0:
364,296,101352,54,0,P|262:289|250:201,1,190,2|8,1:2|0:0,0:0:0:0:
424,144,101872,2,0,L|424:200,2,47.5,2|0|0,0:0|0:0|0:0,0:0:0:0:
428,36,102219,1,0,1:0:0:0:
244,172,102393,2,0,P|192:176|144:148,1,95,10|2,0:0|0:0,0:0:0:0:
424,144,102739,6,0,B|440:296|440:296|420:336,1,190,2|10,1:2|0:0,0:0:0:0:
184,288,103260,1,0,0:0:0:0:
216,284,103346,1,0,0:0:0:0:
248,280,103433,1,0,0:0:0:0:
348,332,103607,1,2,1:2:0:0:
88,344,103780,2,0,P|72:296|84:240,1,95,8|0,0:0|0:0,0:0:0:0:
176,90,104127,6,0,P|224:166|312:148,1,190,2|8,1:2|0:0,0:0:0:0:
44,64,104647,1,2,0:0:0:0:
48,96,104734,1,0,0:0:0:0:
52,128,104820,1,0,0:0:0:0:
72,260,104994,1,0,1:0:0:0:
256,96,105167,1,10,0:0:0:0:
228,224,105341,1,0,0:0:0:0:
404,160,105514,6,0,P|460:148|520:144,1,95,2|0,1:2|0:0,0:0:0:0:
408,344,105861,2,0,P|351:333|294:313,1,95,10|0,0:0|0:0,0:0:0:0:
284,308,106121,1,0,0:0:0:0:
256,288,106208,1,0,0:0:0:0:
316,168,106381,1,2,1:2:0:0:
168,352,106554,2,0,L|44:336,1,95,8|0,0:0|0:0,0:0:0:0:
41,207,106901,6,0,P|130:210|163:127,1,190,2|8,1:2|0:0,0:0:0:0:
280,68,107422,2,0,L|340:52,2,47.5,2|0|0,0:0|0:0|0:0,0:0:0:0:
256,288,107768,1,0,1:0:0:0:
88,144,107942,1,10,0:0:0:0:
56,292,108115,1,2,1:2:0:0:
392,336,108289,53,2,1:2:0:0:
392,336,108462,1,0,1:0:0:0:
464,156,108635,5,2,1:2:0:0:
392,336,108809,1,0,1:0:0:0:
392,336,108982,1,0,1:0:0:0:
296,128,109156,5,2,1:2:0:0:
392,336,109329,1,0,1:0:0:0:
392,336,109502,1,0,1:0:0:0:
412,56,109676,5,2,1:2:0:0:
392,336,109849,1,0,1:0:0:0:
392,336,110023,1,0,1:0:0:0:
149,242,110196,5,2,1:2:0:0:
392,336,110370,1,0,1:0:0:0:
419,316,110456,1,0,1:0:0:0:
437,288,110543,1,0,1:0:0:0:
444,255,110630,1,0,1:0:0:0:
437,222,110716,1,2,1:2:0:0:
418,194,110803,1,2,1:2:0:0:
390,175,110890,1,2,1:2:0:0:
356,169,110976,1,2,1:2:0:0:
324,172,111063,54,0,P|336:128|328:48,1,95,6|0,1:2|0:0,0:0:0:0:
160,148,111410,2,0,P|148:194|149:242,1,95,8|0,0:0|0:0,0:0:0:0:
165,270,111670,1,0,0:0:0:0:
197,278,111757,1,0,0:0:0:0:
356,260,111930,1,0,1:0:0:0:
160,148,112104,2,0,P|120:144|44:144,1,95,8|0,0:0|0:0,0:0:0:0:
324,172,112450,6,0,P|410:151|418:44,1,190,2|8,1:2|0:0,0:0:0:0:
202,125,112971,1,0,0:0:0:0:
202,125,113057,1,0,0:0:0:0:
202,125,113144,2,0,P|196:176|204:237,1,95,0|0,0:0|1:0,0:0:0:0:
352,96,113491,1,8,0:0:0:0:
252,32,113664,1,0,0:0:0:0:
240,312,113838,6,0,P|196:304|144:304,1,95,2|0,1:2|0:0,0:0:0:0:
372,356,114185,1,8,0:0:0:0:
324,244,114358,1,0,0:0:0:0:
316,212,114445,1,0,0:0:0:0:
324,180,114531,1,0,0:0:0:0:
460,108,114705,1,0,1:0:0:0:
332,352,114878,2,0,P|283:354|233:329,1,95,8|0,0:0|0:0,0:0:0:0:
112,132,115225,6,0,P|149:159|170:202,1,95,0|0,1:0|0:0,0:0:0:0:
104,328,115572,1,8,0:0:0:0:
240,320,115745,2,0,L|320:316,2,47.5
104,328,116092,1,0,1:0:0:0:
376,290,116265,1,8,0:0:0:0:
157,201,116439,1,0,0:0:0:0:
342,203,116612,6,0,P|417:155|400:68,1,190,4|8,1:2|0:0,0:0:0:0:
260,40,117133,1,0,0:0:0:0:
225,39,117219,1,0,0:0:0:0:
196,56,117306,1,0,0:0:0:0:
157,201,117479,1,0,1:0:0:0:
400,68,117653,1,8,0:0:0:0:
503,215,117826,1,0,0:0:0:0:
352,328,118000,54,0,P|260:316|160:308,1,190,2|8,1:2|0:0,0:0:0:0:
44,304,118520,2,0,P|45:329|44:368,2,47.5
8,168,118867,1,0,1:0:0:0:
192,336,119040,1,8,0:0:0:0:
284,240,119213,1,0,0:0:0:0:
184,96,119387,6,0,B|128:76|55:80|55:80|56:112|92:144,1,190,2|8,1:2|0:0,0:0:0:0:
364,208,119907,2,0,L|408:180,2,47.5
248,296,120254,1,0,1:0:0:0:
328,48,120427,1,8,0:0:0:0:
420,268,120601,1,0,0:0:0:0:
132,164,120774,6,0,P|44:204|56:288,1,190,2|8,1:2|0:0,0:0:0:0:
340,284,121294,1,0,0:0:0:0:
336,252,121381,1,0,0:0:0:0:
316,228,121468,1,0,0:0:0:0:
112,236,121641,1,0,1:0:0:0:
308,364,121815,2,0,P|356:368|420:312,1,95,8|0,0:0|0:0,0:0:0:0:
370,91,122161,6,0,B|390:147|386:220|386:220|354:219|334:196,1,190,2|8,1:2|0:0,0:0:0:0:
248,40,122682,1,0,0:0:0:0:
248,40,122768,1,0,0:0:0:0:
248,40,122855,1,0,0:0:0:0:
334,196,123028,1,0,1:0:0:0:
20,104,123202,1,10,0:0:0:0:
84,253,123375,1,2,0:0:0:0:
205,128,123549,6,0,P|256:117|325:119,1,95,2|0,1:2|0:0,0:0:0:0:
434,274,123896,2,0,P|387:249|336:203,1,95,8|0,0:0|0:0,0:0:0:0:
334,196,124156,1,0,0:0:0:0:
330,163,124242,1,0,0:0:0:0:
376,40,124416,1,0,1:0:0:0:
205,128,124589,2,0,P|160:123|120:78,1,95,10|0,0:0|0:0,0:0:0:0:
26,239,124936,54,0,L|37:333,1,95,6|0,1:2|0:0,0:0:0:0:
124,60,125283,2,0,L|112:154,1,95,8|0,0:0|0:0,0:0:0:0:
105,187,125543,1,0,0:0:0:0:
101,220,125630,1,0,0:0:0:0:
17,102,125803,1,0,1:0:0:0:
250,62,125976,1,8,0:0:0:0:
182,219,126150,1,0,0:0:0:0:
456,180,126323,5,0,1:0:0:0:
293,147,126497,1,0,0:0:0:0:
368,300,126670,1,8,0:0:0:0:
456,180,126844,1,0,0:0:0:0:
456,180,126930,1,0,0:0:0:0:
456,180,127017,2,0,P|445:133|447:79,2,95,2|10|10,0:0|1:2|0:0,0:0:0:0:
506,293,127537,1,2,1:2:0:0:
367,357,127711,6,0,P|268:333|165:370,1,190,4|8,1:2|0:0,0:0:0:0:
281,234,128231,1,0,0:0:0:0:
280,200,128317,1,0,0:0:0:0:
293,170,128404,1,0,0:0:0:0:
368,60,128578,1,0,1:0:0:0:
388,292,128751,1,10,0:0:0:0:
388,292,129098,6,0,P|384:233|401:157,1,95,6|0,1:2|0:0,0:0:0:0:
480,96,129445,1,8,0:0:0:0:
339,24,129618,1,0,0:0:0:0:
307,33,129705,1,0,0:0:0:0:
288,59,129791,1,0,0:0:0:0:
358,257,129965,1,0,1:0:0:0:
480,96,130138,1,10,0:0:0:0:
480,96,130485,6,0,P|440:128|384:132,1,95,6|0,1:2|0:0,0:0:0:0:
160,64,130832,1,8,0:0:0:0:
192,240,131005,1,0,0:0:0:0:
192,240,131092,1,0,0:0:0:0:
192,240,131179,1,0,0:0:0:0:
64,144,131352,1,0,1:0:0:0:
336,176,131526,1,8,0:0:0:0:
288,64,131699,1,0,0:0:0:0:
224,336,131872,53,0,1:0:0:0:
240,160,132046,1,0,1:0:0:0:
96,256,132219,1,0,1:0:0:0:
320,336,132393,1,0,1:0:0:0:
384,128,132566,1,0,1:0:0:0:
144,128,132739,1,0,1:0:0:0:
280,240,132913,1,8,0:0:0:0:
360,32,133086,1,0,0:0:0:0:
416,272,133260,6,0,L|528:260,1,95,6|0,1:2|0:0,0:0:0:0:
320,336,133607,1,10,0:0:0:0:
208,280,133780,1,0,0:0:0:0:
176,268,133867,1,0,0:0:0:0:
144,276,133953,1,0,0:0:0:0:
36,344,134127,1,2,1:2:0:0:
92,168,134300,2,0,P|100:132|100:64,1,95,8|0,0:0|0:0,0:0:0:0:
20,208,134647,6,0,P|68:248|172:188,1,190,2|8,1:2|0:0,0:0:0:0:
368,188,135167,1,2,0:0:0:0:
338,170,135254,1,0,0:0:0:0:
328,139,135341,1,0,0:0:0:0:
400,40,135514,1,0,1:0:0:0:
432,260,135687,1,10,0:0:0:0:
280,220,135861,1,2,0:0:0:0:
364,368,136034,5,2,1:2:0:0:
92,300,136381,1,10,0:0:0:0:
168,180,136554,1,0,0:0:0:0:
195,160,136641,1,0,0:0:0:0:
230,159,136728,1,0,0:0:0:0:
318,264,136901,1,2,1:2:0:0:
308,44,137075,1,8,0:0:0:0:
408,120,137248,1,0,0:0:0:0:
112,104,137422,6,0,P|70:189|152:272,1,190,2|8,1:2|0:0,0:0:0:0:
318,264,137942,1,2,0:0:0:0:
329,230,138028,1,0,0:0:0:0:
316,196,138115,2,0,P|272:197|214:213,1,95,0|0,0:0|1:0,0:0:0:0:
172,305,138462,1,10,0:0:0:0:
290,116,138635,1,2,0:0:0:0:
344,348,138809,54,0,P|250:354|171:304,1,190,6|10,1:2|0:0,0:0:0:0:
240,187,139329,1,0,0:0:0:0:
244,153,139416,1,0,0:0:0:0:
249,120,139502,1,0,0:0:0:0:
101,136,139676,1,2,1:2:0:0:
410,73,139849,1,8,0:0:0:0:
365,190,140023,1,0,0:0:0:0:
202,37,140196,6,0,P|129:44|8:78,1,190,2|8,1:2|0:0,0:0:0:0:
112,281,140716,1,2,0:0:0:0:
137,259,140803,1,0,0:0:0:0:
141,225,140890,1,0,0:0:0:0:
38,213,141063,1,0,1:0:0:0:
252,173,141237,1,10,0:0:0:0:
214,316,141410,1,2,0:0:0:0:
365,190,141583,6,0,B|441:180|506:201|506:201|497:232|462:255,1,190,2|10,1:2|0:0,0:0:0:0:
446,75,142104,2,0,L|464:16,2,47.5
364,296,142450,1,2,1:2:0:0:
281,80,142624,1,8,0:0:0:0:
365,190,142797,1,0,0:0:0:0:
214,316,142971,6,0,P|136:288|25:283,1,190,2|8,1:2|0:0,0:0:0:0:
328,352,143491,1,2,1:2:0:0:
360,345,143578,1,0,0:0:0:0:
389,330,143664,1,0,0:0:0:0:
257,227,143838,1,0,1:0:0:0:
419,172,144011,1,10,0:0:0:0:
389,330,144185,1,2,0:0:0:0:
211,113,144358,6,0,P|120:112|100:228,1,190,2|10,1:2|0:0,0:0:0:0:
319,164,144878,1,0,0:0:0:0:
334,134,144965,1,0,0:0:0:0:
331,100,145052,1,0,0:0:0:0:
254,20,145225,1,2,1:2:0:0:
95,203,145398,1,0,0:0:0:0:
206,327,145572,1,0,0:0:0:0:
180,179,145745,54,0,P|78:116|14:165,1,190,6|8,1:2|0:0,0:0:0:0:
108,329,146265,1,2,0:0:0:0:
140,320,146352,1,0,0:0:0:0:
173,320,146439,1,0,0:0:0:0:
296,360,146612,1,0,1:0:0:0:
331,100,146786,1,10,0:0:0:0:
253,223,146959,1,2,0:0:0:0:
456,296,147133,6,0,P|476:251|372:175,1,190,2|10,1:2|0:0,0:0:0:0:
253,223,147653,1,0,0:0:0:0:
220,229,147739,1,0,0:0:0:0:
187,221,147826,1,0,0:0:0:0:
90,149,148000,1,2,1:2:0:0:
68,351,148173,1,8,0:0:0:0:
164,301,148346,1,0,0:0:0:0:
321,358,148520,6,0,P|387:335|375:205,1,190,2|0,1:2|0:0,0:0:0:0:
308,136,149040,1,2,0:0:0:0:
303,102,149127,1,0,0:0:0:0:
317,72,149213,1,0,0:0:0:0:
433,43,149387,1,0,1:0:0:0:
325,274,149560,1,10,0:0:0:0:
504,132,149734,1,2,0:0:0:0:
496,328,149907,6,0,B|480:312|440:304|440:304|456:228|400:184,1,190,2|10,1:2|0:0,0:0:0:0:
308,136,150427,1,0,0:0:0:0:
279,118,150514,1,0,0:0:0:0:
246,110,150601,1,0,0:0:0:0:
160,192,150774,1,2,1:2:0:0:
354,28,150948,1,0,0:0:0:0:
424,130,151121,1,0,0:0:0:0:
230,36,151294,6,0,P|139:33|29:50,1,190,2|8,1:2|0:0,0:0:0:0:
16,192,151815,1,2,0:0:0:0:
16,192,151901,1,0,0:0:0:0:
16,192,151988,1,0,0:0:0:0:
128,112,152161,1,0,1:0:0:0:
208,336,152335,1,10,0:0:0:0:
112,272,152508,1,0,0:0:0:0:
432,160,152682,53,6,1:2:0:0:
128,112,152855,1,0,0:0:0:0:
348,320,153028,1,10,0:0:0:0:
308,48,153202,1,0,0:0:0:0:
308,48,153289,1,0,0:0:0:0:
308,48,153375,1,0,0:0:0:0:
128,112,153549,1,2,1:2:0:0:
432,160,153722,1,8,2:0:0:0:
308,48,153896,1,0,2:0:0:0:
348,320,154069,5,2,1:2:0:0:
200,100,154242,1,0,0:0:0:0:
440,44,154416,1,8,1:2:0:0:
348,320,154589,1,10,0:0:0:0:
144,308,154763,1,0,1:0:0:0:
124,272,154849,1,0,1:0:0:0:
144,232,154936,1,0,1:0:0:0:
184,204,155023,1,0,1:0:0:0:
224,184,155109,1,10,0:2:0:0:
268,160,155196,1,2,1:2:0:0:
296,116,155283,1,0,1:2:0:0:
284,64,155370,1,2,1:2:0:0:
244,24,155456,53,14,0:2:0:0:
