osu file format v8

[General]
AudioFilename: Higedriver - Mighty Bomb Jack (Hey! speed Remix).mp3
AudioLeadIn: 2007
PreviewTime: 90751
Countdown: 0
SampleSet: Soft
StackLeniency: 0.6
Mode: 0
LetterboxInBreaks: 0
StoryFireInFront: 0

[Editor]
Bookmarks: 720,46088,65684,68685,90751,124999,137886,182901,194200,231271,265872,271166,288821
DistanceSpacing: 0.899999976158142
BeatDivisor: 4
GridSize: 16

[Metadata]
Title:Mighty Bomb Jack (Hey! Speed Remix)
Artist:Higedriver
Creator:Nharox
Version:Challenging
Source:cosMo Driver InfinityUP
Tags:Larto Dangaard Chiptune Electronic Collab

[Difficulty]
HPDrainRate:4
CircleSize:4
OverallDifficulty:4
ApproachRate:5
SliderMultiplier:1.28
SliderTickRate:1

[Events]
//Background and Video events
0,0,"Higedriver.png"
//Break Periods
2,34828,44902
2,65897,67498
2,125210,136697
2,183111,193009
//Storyboard Layer 0 (Background)
//Storyboard Layer 1 (Fail)
//Storyboard Layer 2 (Pass)
//Storyboard Layer 3 (Foreground)
//Storyboard Sound Samples
//Background Colour Transformations
3,100,163,162,255

[TimingPoints]
735,353.05540027656,4,2,1,100,1,0
6280,-100,4,1,0,60,0,0
11929,-100,4,1,0,80,0,0
46088,-100,4,2,0,90,0,0
51473,-100,4,1,0,80,0,0
58357,-100,4,2,0,90,0,0
61535,-100,4,1,0,80,0,0
91117,-100,4,1,0,100,0,1
113712,-100,4,1,0,100,0,0
137709,-100,4,2,1,90,0,0
154568,-100,4,1,0,60,0,0
156951,-100,4,1,0,80,0,0
160129,-100,4,1,0,100,0,0
160316,-100,4,1,0,100,0,1
182911,-100,4,1,0,100,0,0
220335,353.05540027656,4,1,0,100,1,0
220688,-100,4,1,0,100,0,1
230926,-100,4,1,0,100,0,0
231632,-100,4,1,0,100,0,1
240362,-100,4,1,1,100,0,1
240539,-100,4,1,0,100,0,1
241774,-100,4,1,1,100,0,1
241951,-100,4,1,0,100,0,1
265526,-100,4,1,0,100,0,0
265879,1412.2631517006,4,1,0,100,1,0
266047,-100,4,2,0,0,0,0
271174,-100,4,2,0,70,0,0

[Colours]
Combo1 : 128,0,128
Combo2 : 0,89,179
Combo3 : 255,198,140
Combo4 : 0,128,255

[HitObjects]
464,304,735,5,2
464,304,911,1,0
400,192,1264,2,0,B|256:192,1,128
336,304,1970,2,0,B|300:367|194:367|167:284,1,192,2|0
112,192,2853,1,0
112,192,3206,1,0
48,304,3559,5,2
48,304,3735,1,0
112,192,4089,2,0,B|256:192,1,128
176,304,4795,2,0,B|212:367|318:367|345:284,1,192,2|0
400,192,5677,1,0
400,192,6030,1,0
464,304,6383,5,0
352,240,6736,1,8
464,80,7266,1,0
464,80,7443,1,8
352,144,7796,6,0,B|352:64,2,64,0|0|8
256,304,8678,1,0
256,304,8855,1,8
144,240,9208,6,0,B|144:320,1,64,0|8
64,208,9737,1,0
64,208,9914,2,0,B|64:80,1,96,8|8
144,48,10444,6,0,B|144:160,4,96,8|8|8|8|8
192,32,11679,1,0
256,144,12032,5,4
320,32,12385,1,0
320,32,12562,1,0
432,96,12915,2,0,B|512:96,2,64
368,208,13621,1,0
368,208,13798,2,0,B|368:352,2,128
320,208,14680,1,0
256,320,15033,6,0,B|256:400,2,64
144,256,15739,2,0,B|64:256,2,64
208,144,16445,1,0
208,144,16622,2,0,B|208:0,2,128
304,224,17681,6,0,B|304:80,1,128,4|0
304,48,18211,1,0
416,112,18564,2,0,B|416:32,2,64
480,224,19270,1,0
480,224,19446,2,0,B|480:368,2,128
384,304,20506,5,4
384,304,20682,2,0,B|208:304,1,128
256,256,21212,2,0,B|256:176,2,64
160,160,21918,6,0,L|160:96|240:96,1,128,2|2
352,224,22624,2,2,L|352:288|272:288,1,128,2|0
192,192,23330,6,0,L|352:192,1,128,4|0
368,192,23860,1,0
432,304,24213,1,0
432,304,24389,1,0
432,304,24566,1,0
304,304,24919,1,0
304,304,25095,2,0,L|208:304,5,64,0|0|2|0|2|0
112,304,26331,5,0
112,304,26508,1,0
112,304,26684,1,0
48,192,27037,2,0,L|48:112,2,64,0|0|0
176,192,27743,1,0
176,192,27920,2,0,L|176:256,5,64,0|0|2|0|2|0
288,192,29155,5,0
288,192,29332,1,0
288,192,29509,1,0
384,112,29862,2,0,L|384:80,5,32,2|0|0|0|0|0
288,112,30568,5,0
288,112,30744,1,0
288,112,30921,1,0
192,192,31274,2,0,L|192:224,6,32,2|0|0|0|0|0|0
128,80,32156,5,0
16,144,32509,1,0
16,144,32686,1,0
80,256,33039,1,0
256,192,33216,12,4,34628
144,192,46102,5,0
144,192,46279,1,2
80,96,46632,1,0
208,96,46985,1,2
256,192,47338,1,0
208,288,47691,1,2
80,288,48044,1,0
32,192,48397,1,2
32,192,48574,1,2
368,192,49103,5,2
432,96,49456,1,0
304,96,49809,1,2
256,192,50162,1,0
304,288,50515,1,2
432,288,50868,1,0
480,192,51221,1,2
480,192,51398,1,2
480,192,51574,6,0,B|320:192,1,128
160,192,52457,2,0,B|32:192,2,128
208,192,53340,1,0
304,192,53693,1,0
320,304,54046,6,0,B|416:304,2,64,0|2|2
256,192,54752,1,0
256,192,54929,1,2
192,304,55282,2,0,B|96:304,2,64,2|0|2
256,192,55988,1,2
64,192,56517,5,0
160,256,56870,1,0
160,128,57223,1,4
256,192,57576,1,0
256,192,57753,1,4
448,192,58283,5,0
448,192,58636,1,2
352,256,58989,1,2
352,128,59342,1,2
256,192,59695,1,2
256,192,59871,1,2
152,128,60224,5,2
152,176,60401,1,0
152,224,60577,1,2
256,192,60930,1,2
256,144,61107,1,0
256,96,61284,1,2
360,128,61637,1,0
360,176,61813,1,0
360,224,61990,2,0,B|336:368|168:368|146:196,1,320,0|4
256,200,63225,1,0
256,200,63402,2,0,B|256:40,1,128,4|4
184,144,64108,5,4
184,288,64461,1,0
184,288,64638,1,0
328,288,64991,1,0
328,288,65167,1,0
328,288,65344,1,0
328,144,65697,1,0
256,288,68698,5,0
256,288,68874,1,8
144,288,69227,2,0,B|112:352|112:352|16:352|16:352,1,128,0|8
0,256,69933,2,0,B|32:192|32:192|128:192|128:192,1,128,0|8
128,96,70639,1,0
128,96,70816,1,2
192,192,71169,1,2
192,192,71346,1,4
256,288,71699,5,8
368,288,72052,2,0,B|400:352|400:352|496:352|496:352,1,128,0|8
512,256,72758,2,0,B|480:192|480:192|384:192|384:192,1,128,0|8
384,96,73464,1,0
384,96,73640,1,2
320,192,73993,1,2
320,192,74170,1,4
256,288,74523,6,0,B|192:256|192:256|160:192|160:192,1,128,8|0
256,288,75229,2,0,B|320:256|320:256|352:192|352:192,1,128,8|0
256,160,75935,1,8
256,112,76112,1,0
256,64,76288,1,0
120,104,76641,5,8
120,104,76818,2,0,B|184:-24|344:296|410:48,1,320
390,101,78054,1,8
390,101,78230,1,0
256,320,78936,5,0
256,320,79289,1,0
160,272,79642,5,0
160,272,79819,2,0,B|71:278|72:168,2,128,4|8|0
256,224,80878,2,0,B|256:128,1,64,8|2
160,160,81408,2,0,B|160:64,1,64,0|10
256,32,81937,1,2
352,272,82467,5,0
352,272,82643,2,0,B|441:278|440:168,2,128,0|8|0
256,224,83703,2,0,B|256:128,1,64,8|2
352,160,84232,2,0,B|352:64,1,64,0|10
256,32,84762,1,2
256,32,85115,1,8
256,32,85291,1,2
160,144,85821,5,8
208,240,86174,1,0
256,336,86527,1,8
256,336,86703,1,0
256,336,86880,1,2
304,240,87233,1,8
352,144,87586,1,2
256,192,87939,12,0,90411
64,96,91117,5,4
136,152,91470,1,8
136,152,91646,1,0
136,152,91823,2,0,B|272:152,1,128,2|8
312,152,92352,2,2,B|352:224|280:384|96:320,1,320
32,272,93588,1,2
16,168,93941,1,6
64,80,94294,6,2,B|96:152|184:136,2,128
160,48,95353,1,4
256,80,95706,1,8
352,48,96059,1,2
448,80,96413,2,6,B|448:216,1,128
448,312,97119,5,8
360,368,97472,2,2,B|280:360|256:288,1,128,2|8
240,256,98001,2,2,B|32:256,1,192,2|8
48,144,98884,2,2,B|128:136|152:64,1,128,2|8
168,32,99413,2,2,B|376:32,1,192,2|8
456,64,100296,1,2
448,160,100649,1,8
448,160,100826,2,0,B|304:160,1,128,6|0
320,208,101355,2,2,B|176:208,2,128
424,208,102414,1,6
488,288,102768,5,8
392,320,103121,1,2
352,320,103297,1,0
312,320,103474,1,8
216,288,103827,1,2
112,320,104180,1,2
72,320,104356,1,0
32,320,104533,1,2
72,232,104886,6,6,B|96:168|72:104,1,128
8,40,105592,2,2,B|64:16|112:24|144:48,2,128,2|2|8
8,40,106475,1,2
160,152,107004,1,6
216,280,107357,1,0
352,224,107710,1,2
296,96,108063,1,6
448,112,108416,5,0
512,240,108769,2,2,B|512:280|488:304|416:320|472:280|392:288|376:312|376:352,2,192,2|2|8
352,192,110182,2,2,B|255:173|152:192,1,192
16,32,111241,5,8
128,80,111594,1,2
256,64,111947,1,8
256,64,112123,1,0
384,80,112477,1,0
384,80,112653,1,2
496,32,113006,2,2,B|536:128|448:208|352:176,1,256,2|6
232,144,114065,5,2
160,248,114418,1,8
160,248,114595,1,0
32,104,115124,2,6,B|56:32|144:16,3,128,2|6|2|8
192,40,116360,2,2,B|128:112|200:192|280:168,1,192
392,184,117243,1,0
464,184,117419,1,2
504,320,117772,5,0
424,320,117949,2,0,B|280:320,1,128,6|2
88,320,118655,2,0,B|232:320,1,128,6|2
320,192,119361,5,4
472,160,119714,1,8
320,120,120067,1,0
320,120,120244,2,2,B|264:144|192:120,2,128
336,40,121126,1,8
488,40,121479,1,2
488,192,121833,1,2
336,192,122186,5,4
336,344,122539,1,2
208,264,122892,1,0
208,264,123068,1,2
256,192,123598,12,6,125010
80,304,137897,6,0,L|80:240,5,64,0|0|0|2|0|0
48,208,138956,2,0,B|48:128|128:128,1,128,2|0
160,96,139485,2,0,L|104:40,2,64,2|0|0
192,128,140015,2,0,L|272:128,1,64,2|0
288,96,140368,1,2
416,96,140721,6,0,L|416:160,5,64,0|0|0|2|0|0
448,192,141780,2,0,B|448:272|368:272,1,128,2|0
336,304,142310,2,0,L|392:360,2,64,2|0|0
304,272,142839,2,0,L|224:272,1,64,2|0
208,304,143192,1,2
208,176,143545,6,0,L|272:176,5,64,0|0|0|2|0|0
304,208,144605,2,0,B|384:208|384:128,1,128,2|0
416,96,145134,1,2
464,208,145487,1,0
352,256,145840,5,0
240,304,146193,2,0,L|240:224,2,64,2|0|0
208,336,146723,2,0,B|128:336|128:256,1,128,2|0
128,208,147252,1,0
256,80,149018,5,4
256,304,149547,1,0
112,192,150430,5,0
400,192,150960,1,0
96,320,151842,5,0
144,304,152019,2,0,L|144:240,2,64,2|0|0
192,288,152548,1,2
192,288,152725,1,0
320,240,153078,1,0
240,128,153431,5,0
240,128,153607,1,0
192,144,153784,2,0,L|192:224,2,64,2|0|0
144,160,154314,1,2
144,160,154490,1,0
144,160,154667,6,0,L|88:191|5:145,1,128,0|8
144,96,155373,1,0
256,32,155726,1,8
368,96,156079,1,0
368,224,156432,1,8
256,288,156785,1,0
144,224,157138,1,8
256,288,157491,6,0,L|256:160,3,128,4|8|0|8
144,96,158903,2,0,L|144:224,2,128,0|8|0
256,160,159962,5,4
256,160,160316,1,4
208,256,160669,6,0,L|336:208,1,128,8|2
448,368,161375,1,8
448,368,161551,2,2,L|448:240,1,128,2|0
496,224,162081,1,8
376,192,162434,1,2
256,160,162787,5,4
256,160,163140,1,4
256,304,163493,6,0,L|128:256,1,128,8|2
64,368,164199,1,8
64,368,164376,2,2,L|64:240,1,128,2|0
16,224,164905,1,8
136,192,165258,1,2
256,160,165611,5,4
256,160,165964,1,4
376,192,166317,6,0,L|248:240,1,128,8|2
360,304,167024,1,8
360,304,167200,2,2,L|488:256,1,128,2|0
480,208,167730,2,0,L|480:128,2,64,8|0|2
432,80,168436,5,8
432,80,168612,2,2,L|288:80,1,128,2|0
256,80,169142,1,8
256,80,169318,1,0
256,80,169495,2,2,L|256:224,1,128,2|8
256,256,170025,6,2,L|336:256|336:192,1,128,2|0
336,160,170554,1,8
176,160,170907,1,2
256,336,171260,5,4
256,336,171613,1,4
128,336,171966,6,0,L|64:336|64:272,1,128,8|2
192,240,172672,1,8
192,240,172849,2,2,L|320:240,1,128,2|0
368,240,173379,1,8
368,112,173732,1,2
256,48,174085,5,4
256,48,174438,1,4
128,48,174791,6,0,L|64:48|64:112,1,128,8|2
192,144,175497,1,8
192,144,175673,2,2,L|320:144,1,128,2|0
368,144,176203,1,8
368,272,176556,1,2
256,336,176909,5,4
256,336,177262,1,4
144,256,177615,6,0,L|0:256,1,128,8|2
16,128,178321,1,8
16,128,178498,2,2,L|16:64|80:64,1,128,2|0
128,64,179027,2,0,L|128:176,2,64,8|0|2
128,208,179734,5,8
128,208,179910,2,2,L|272:208,1,128,2|0
272,256,180440,2,0,L|328:199,1,64,8|0
352,176,180793,2,2,L|352:320,1,128,2|8
384,336,181322,6,2,L|464:336|464:272,1,128,2|0
512,272,181852,2,0,L|466:226,1,64,8|0
432,192,182205,2,0,L|432:112,4,64,2|0|8|0|4
48,104,194209,5,4
24,232,194562,1,8
112,328,194915,1,0
144,264,195091,2,0,B|184:208|256:200|328:224,2,192,2|2|0
256,80,196680,5,8
360,120,197033,1,6
472,120,197386,1,8
504,224,197739,1,2
416,296,198092,1,8
328,224,198446,2,0,B|192:224,1,128,2|8
168,224,198975,2,2,B|48:224|48:88,1,192
152,24,199858,5,4
256,96,200211,1,8
360,24,200564,1,2
392,160,200917,1,8
356,224,201093,2,2,B|356:256|300:280|236:264|276:184|220:160|148:192|148:224,1,256
104,368,202153,5,0
176,368,202329,1,8
320,368,202682,2,2,B|392:360|432:320|440:256|416:208,1,192,2|2
288,192,203565,1,0
232,232,203741,1,0
176,272,203918,2,0,B|120:240|80:176|120:104|144:88,1,192,2|0
168,48,204624,2,2,B|214:3|280:-16|336:40|353:71,1,192,2|2
424,160,205507,5,4
368,296,205860,1,8
256,192,206213,1,0
256,192,206389,2,0,B|208:248|128:224,1,128,0|0
72,208,206919,2,2,B|0:184|-15:112|8:40|32:40,1,192
152,88,207801,5,0
152,88,207978,1,8
152,88,208155,2,2,B|176:136|240:136|304:112|288:24,1,192,2|2
344,136,209037,2,0,B|296:192|224:200,1,128,0|2
160,208,209567,2,2,B|80:200|44:279|80:376|192:352,2,256,2|2|0
152,280,211156,1,2
280,288,211509,5,8
352,184,211862,1,0
352,184,212038,2,2,B|288:176|264:128|272:80,1,128,2|0
320,56,212568,2,2,B|256:144|144:144,2,192,2|2|8
256,192,213980,12,4,216804
256,192,216893,12,2,219629
256,192,220688,5,4
160,280,221041,1,8
48,184,221394,1,0
48,184,221570,2,0,B|24:104|88:56,1,128,2|0
128,136,222100,2,0,B|264:136,1,128,0|2
384,136,222806,2,0,B|248:136,1,128,2|6
256,288,223512,6,0,B|216:320|160:328|112:288,2,128,8|2|8
288,264,224395,2,0,B|352:240|440:264,1,128,2|0
448,264,224924,2,0,B|424:200|456:112,1,128,2|2
472,24,225630,2,0,B|320:24,1,128,2|6
240,64,226336,5,8
128,96,226689,2,2,B|72:152|96:216|168:232|200:200,2,192,2|2|8
256,248,228102,2,0,B|312:192|288:128|216:112|184:144,2,192,2|2|8
200,352,229514,2,0,B|336:352,1,128,2|8
384,360,230044,2,2,B|445:367|515:336|552:235|480:160|416:152,1,320
336,256,231279,5,12
336,128,231632,1,6
336,128,231809,6,0,B|240:128,1,64,0|8
224,128,232162,1,0
176,128,232338,1,2
86,36,232691,1,8
57,160,233044,1,2
176,128,233398,1,8
129,82,233574,1,0
86,36,233751,1,2
176,256,234104,5,12
176,128,234457,1,6
176,128,234633,6,0,B|272:128,1,64,0|8
288,128,234986,1,0
336,128,235163,1,2
426,36,235516,1,8
455,160,235869,1,2
336,128,236222,1,8
383,82,236399,1,0
426,36,236575,1,2
256,64,236928,6,4,B|192:96|192:96|192:160|192:160,1,128,12|6
192,200,237458,5,0
192,200,237634,1,8
256,304,237987,1,2
320,192,238340,1,8
320,192,238517,1,2
256,80,238870,2,0,B|256:0,3,64,2|8|2|2
144,192,239753,5,8
144,192,239929,1,0
144,192,240106,2,0,B|160:376|352:376|370:175,2,384,2|8|2
256,192,242577,2,0,B|256:0,1,128,12|6
144,72,243283,5,8
48,128,243636,1,2
144,192,243989,1,8
48,256,244342,1,2
144,312,244695,1,8
144,312,244872,1,0
144,312,245048,1,2
256,256,245401,5,12
256,256,245754,1,6
368,312,246108,5,8
464,256,246461,1,2
368,192,246814,1,8
464,128,247167,1,2
368,72,247520,1,8
368,72,247696,1,0
368,72,247873,1,2
256,128,248226,5,12
256,128,248579,1,6
160,64,248932,6,0,B|160:224,1,128,8|2
256,256,249638,2,0,B|256:64,1,128,8|2
352,64,250344,2,0,B|352:224,1,128,8|2
352,192,251050,1,8
352,192,251227,1,0
320,304,251580,5,0
320,304,251756,2,0,B|128:304,1,128,8|2
256,208,252463,1,8
256,112,252816,1,2
256,64,252992,2,0,B|256:-32,3,64,0|8|0|2
112,88,253875,5,12
112,88,254228,1,6
112,88,254404,6,0,B|112:184,1,64,0|8
40,224,254934,1,2
112,296,255287,1,8
184,224,255640,1,2
256,152,255993,1,8
256,152,256346,1,2
400,88,256699,5,12
400,88,257052,1,6
400,88,257229,6,0,B|400:184,1,64,0|8
472,224,257758,1,2
400,296,258111,1,8
328,224,258464,1,2
256,152,258818,1,8
256,152,259171,1,2
120,128,259524,6,4,B|80:64|80:64|24:64|24:64,1,128,12|6
24,176,260230,2,0,B|64:240|64:240|120:240|120:240,1,128,8|2
200,312,260936,1,8
312,312,261289,1,2
200,232,261642,1,8
312,232,261995,1,2
200,152,262348,1,8
312,152,262701,1,2
397,240,263054,1,8
397,240,263407,2,0,B|394:240|450:240|450:240|490:176,1,128,2|8
488,64,264113,2,0,B|490:64|434:64|434:64|394:128,1,128,2|8
312,56,264819,5,0
200,56,265173,1,8
256,160,265526,1,0
256,160,265702,1,0
256,160,265879,2,0,B|256:328|256:328,1,128,0|0
256,192,268350,12,2,271174
