osu file format v5

[General]
AudioFilename: Higedriver - Memory.mp3
AudioLeadIn: 0
PreviewTime: 26842
Countdown: 0
SampleSet: Soft
StackLeniency: 0.3
Mode: 0
LetterboxInBreaks: 0
EditorDistanceSpacing: 0.899999976158142

[Metadata]
Title:Memory
Artist:Higedriver
Creator:Nharox
Version:Hectic
Source:
Tags:

[Difficulty]
HPDrainRate:6
CircleSize:4
OverallDifficulty:6
SliderMultiplier:1.9
SliderTickRate:0.5

[Events]
//Background and Video events
0,0,"rainbow.png"
//Break Periods
2,24966,25311
2,90138,93071
//Storyboard Layer 0 (Background)
//Storyboard Layer 1 (Failing)
//Storyboard Layer 2 (Passing)
//Storyboard Layer 3 (Foreground)
//Storyboard Sound Samples
//Background Colour Transformations
3,100,163,162,255

[TimingPoints]
2790,697.188008366256,4,2,0,60,1,0
71114,-100,4,2,0,60,0,1
90287,-100,4,2,0,60,0,0
108065,-50,4,2,0,60,0,0
111551,-100,4,2,0,60,0,0
113642,-100,4,2,0,60,0,1
113817,-100,4,2,0,60,0,0
118174,-100,4,2,0,40,0,0
119046,-100,4,2,0,60,0,0
120963,-100,4,2,0,40,0,0
121834,-100,4,2,0,60,0,0
127935,-100,4,2,0,39,0,0
128283,-100,4,2,0,19,0,0
128632,-100,4,2,0,0,0,0
128981,-100,4,2,0,60,0,1
129155,-100,4,2,0,60,0,0
130723,-100,4,2,0,39,0,0
131071,-100,4,2,0,19,0,0
131419,-100,4,2,0,0,0,0
131767,-100,4,2,0,60,0,1
131944,-100,4,2,0,60,0,0
138741,-100,4,2,0,59,0,1
138915,-100,4,2,0,60,0,0
140136,-100,4,2,0,60,0,1
140310,-100,4,2,0,60,0,0
160354,697.188008366256,4,2,0,100,1,0
160354,-200,4,2,0,60,0,0
161051,-100,4,2,0,60,0,1
161225,-100,4,2,0,60,0,0

[Colours]
Combo1 : 0,128,255
Combo2 : 255,0,0
Combo3 : 255,128,0
Combo4 : 255,255,0
Combo5 : 0,255,0

[HitObjects]
160,96,2790,1,2
352,96,3487,1,2
160,96,4184,1,2
256,96,4532,1,0
352,96,4881,1,2
352,288,5578,5,2
160,288,6275,1,2
352,288,6973,1,2
256,288,7321,1,0
160,288,7670,1,2
160,96,8367,5,2
160,288,9064,1,2
160,96,9761,1,2
160,192,10110,1,0
160,288,10459,1,2
352,288,11156,5,2
352,96,11853,1,2
352,288,12550,1,2
352,192,12899,1,0
352,96,13247,1,2
352,192,13596,1,0
352,288,13945,1,2
160,96,14642,6,2,B|384:96,1,190
352,288,16036,1,2
256,288,16385,1,0
160,288,16733,1,2
352,288,17430,6,2,B|128:288,1,190
160,96,18824,1,2
256,96,19173,1,0
352,96,19521,1,2
160,288,20219,5,2
352,288,20916,1,2
256,96,21614,1,2
256,96,22311,5,2
208,192,22659,1,0
304,192,23008,1,2
352,288,23357,1,0
256,288,23705,1,2
160,288,24054,1,0
208,192,24402,1,2
256,160,24577,1,2
304,192,24751,1,6
256,48,26494,5,2
256,48,27191,1,2
256,144,27540,5,0
256,240,27888,1,0
256,336,28237,1,2
256,336,28411,1,0
256,336,28585,1,6
64,192,29980,5,0
160,96,30328,1,0
256,192,30677,1,2
160,288,31026,1,0
64,192,31374,1,2
256,192,32071,5,2
448,192,32769,5,2
352,96,33117,1,0
256,192,33466,1,0
352,288,33814,1,2
352,288,33989,1,0
352,288,34163,1,6
160,96,35557,5,0
160,96,35906,1,0
352,96,36255,1,0
352,96,36603,1,0
352,288,36952,1,0
352,288,37300,1,0
160,288,37649,1,0
160,288,37997,1,0
352,112,38346,5,2
352,112,38520,1,0
352,112,38695,1,0
256,272,39043,1,0
160,112,39392,1,2
160,112,39566,1,0
160,112,39740,1,6
352,224,41135,5,0
160,224,41483,1,0
352,224,41832,1,2
352,224,42006,1,0
352,224,42181,1,0
160,224,42529,1,2
160,224,42704,1,0
160,224,42878,1,0
256,64,43226,1,2
256,64,43401,1,0
256,64,43575,1,0
256,320,43924,5,2
256,256,44098,1,0
256,192,44272,1,0
256,128,44446,1,0
256,64,44621,1,0
256,192,44969,1,6
256,320,45318,1,6
112,192,46712,5,2
112,192,46887,1,0
112,192,47061,1,0
208,192,47410,1,2
304,192,47758,1,0
400,192,48107,1,2
352,192,48281,1,0
304,192,48455,1,0
256,192,48630,1,0
208,192,48804,1,2
160,192,48978,1,0
112,192,49153,1,0
256,64,49501,5,2
384,192,49850,1,0
256,320,50198,1,0
128,192,50547,1,2
128,192,50721,1,0
128,192,50895,1,6
128,192,51593,5,2
384,192,52290,1,2
384,192,52638,5,0
312,96,52987,1,2
200,96,53336,1,0
128,192,53684,1,2
200,288,54033,1,0
312,288,54381,1,2
256,192,54730,1,0
384,192,55079,5,2
448,192,55253,1,0
384,192,55427,1,0
256,192,55776,1,0
128,192,56124,1,2
64,192,56299,1,0
128,192,56473,1,6
448,320,57170,5,2
64,320,57867,1,2
64,320,58216,5,0
128,256,58565,1,2
192,320,58913,1,0
256,256,59262,1,2
256,256,59436,1,0
256,256,59610,1,0
320,320,59959,1,2
384,256,60308,1,0
448,320,60656,1,6
448,320,61005,5,0
320,320,61353,1,0
192,320,61702,1,6
64,320,62050,1,6
64,64,62748,5,2
448,64,63445,1,2
448,64,63793,5,0
384,128,64142,1,2
320,192,64491,1,0
256,256,64839,1,2
256,256,65014,1,0
256,256,65188,1,0
192,192,65536,1,2
128,128,65885,1,0
64,64,66234,1,6
64,64,66582,5,0
192,64,66931,1,0
320,64,67279,1,6
448,64,67628,1,6
112,112,68325,6,0,B|49:146|49:236|128:287,1,190,0|2
256,192,69720,1,2
400,112,70417,2,0,B|463:146|463:236|384:287,1,190,2|6
160,96,71811,5,2
256,192,72160,1,0
352,96,72508,1,0
256,192,72857,1,6
160,288,73205,1,6
256,192,73554,1,0
352,288,73903,1,2
256,64,74600,5,2
256,192,74948,1,0
128,192,75297,1,2
96,128,75471,1,0
128,64,75646,1,0
256,64,75994,1,2
384,64,76343,1,0
416,128,76517,1,0
384,192,76691,1,2
256,192,77040,1,0
128,192,77389,1,2
192,224,77563,1,0
256,192,77737,1,0
320,224,77912,1,0
384,192,78086,1,0
416,320,78434,5,6
256,320,78783,1,6
96,320,79132,1,0
96,320,79480,5,2
416,320,80177,1,2
416,64,80875,1,2
96,64,81572,1,2
256,192,82269,5,0
256,96,82618,1,0
352,160,82966,1,2
352,256,83315,1,0
256,288,83663,1,0
160,256,84012,1,6
160,160,84360,1,6
256,96,84709,1,0
256,192,85058,2,0,B|256:288,1,95,2|0
256,192,85755,2,0,B|160:160,1,95,2|0
256,192,86452,2,0,B|352:160,1,95,2|0
256,32,87149,5,2
64,352,87846,1,2
448,352,88544,1,2
256,192,89589,5,4
256,192,89938,1,4
32,192,94121,6,0,B|96:192,1,47.5,2|0
128,192,94470,1,2
256,192,94818,1,0
480,192,95167,2,0,B|416:192,1,47.5,2|0
384,192,95516,1,2
256,192,95864,1,0
256,320,96213,5,6
256,64,96910,1,6
256,64,97258,5,0
128,64,97607,1,2
96,96,97781,1,0
64,128,97956,1,0
192,192,98304,1,2
320,192,98653,1,0
384,64,99001,1,2
416,96,99176,1,0
448,128,99350,1,0
320,192,99699,5,2
192,192,100047,1,0
256,304,100396,1,0
256,304,100570,1,0
256,304,100744,1,6
256,304,100919,1,0
256,304,101093,1,6
256,112,101442,1,0
256,112,101790,6,0,B|256:304,2,190,0|0|2
256,112,103882,1,2
128,112,104579,5,0
192,48,104928,1,0
256,112,105276,1,2
320,48,105625,1,0
384,112,105973,1,0
320,176,106322,1,6
256,240,106671,1,6
192,176,107019,1,0
256,112,107368,1,2
96,64,108065,6,0,C|56:104|88:136|56:168|88:200|56:232|88:264|56:296|112:352,1,380,2|2
256,192,109459,1,2
416,64,110156,2,0,C|456:104|424:136|456:168|424:200|456:232|424:264|456:296|400:352,1,380,2|4
256,64,111551,5,0
256,128,111725,5,0
256,192,111899,5,2
256,256,112074,5,0
256,320,112248,5,2
256,192,112335,12,4,113642
64,192,115037,5,2
448,192,115734,1,2
224,144,116431,5,2
160,80,116780,1,0
96,144,117128,1,0
160,208,117477,1,0
160,208,117826,2,0,C|160:304,1,95,2|0
160,304,118523,1,0
160,304,118697,1,0
160,304,118871,1,4
320,240,119220,5,2
384,304,119569,1,0
448,240,119917,1,0
384,176,120266,1,0
384,176,120615,2,0,C|384:80,1,95,2|0
384,80,121312,1,2
384,80,121486,1,0
384,80,121660,1,4
256,64,122009,5,2
192,128,122357,1,0
256,192,122706,1,0
192,256,123054,1,0
256,320,123403,1,6
256,64,124797,5,2
320,128,125145,1,0
256,192,125494,1,2
320,256,125842,1,0
256,320,126192,1,6
256,192,126889,5,6
64,192,127586,6,0,C|32:192,16,23.75,0|0|0|0|0|0|0|0|0|0|0|0|0|0|0|0|4
160,192,129329,5,0
256,192,129678,1,0
352,192,130026,1,0
448,192,130375,6,0,C|480:192,16,23.75,0|0|0|0|0|0|0|0|0|0|0|0|0|0|0|0|4
128,320,132466,5,2
384,320,133164,1,2
256,64,133861,1,0
256,64,134209,1,0
256,64,134558,1,2
256,64,135255,1,2
128,256,135952,5,2
192,320,136301,1,0
256,256,136650,1,2
320,320,136998,1,0
384,256,137347,1,2
352,128,137695,5,0
320,96,137870,5,0
288,128,138044,5,2
256,160,138218,5,0
224,128,138393,5,0
192,96,138567,5,0
160,128,138741,5,6
256,192,138828,12,4,140136
160,128,141530,5,2
128,192,141704,1,0
160,256,141879,1,0
256,192,142227,1,0
352,128,142576,1,0
384,192,142750,1,0
352,256,142924,1,2
256,192,143273,5,0
256,192,143621,5,2
256,192,143970,5,0
256,192,144319,5,6
256,320,144842,5,0
256,320,145016,1,0
256,192,145364,1,0
256,64,145713,1,6
256,256,147107,5,2
320,192,147456,1,0
256,128,147805,1,2
192,192,148153,1,0
256,320,148502,5,2
384,192,148850,1,0
256,64,149199,1,2
128,192,149548,1,0
384,192,149896,5,2
320,192,150070,1,0
256,192,150245,1,0
192,192,150419,1,0
128,192,150593,1,0
256,64,150942,5,0
384,192,151291,1,6
256,320,151639,1,0
128,192,151988,1,0
352,288,152685,5,2
352,96,153034,1,0
160,96,153382,1,0
160,288,153731,1,0
256,192,154079,5,4
256,192,154776,5,2
480,192,155474,1,2
32,192,156171,1,0
256,192,156868,1,2
128,64,158262,5,2
384,64,158960,1,2
256,288,159657,1,2
256,288,160354,2,0,B|256:192,1,95,2|6
256,192,162097,5,2
256,192,162446,1,2
