osu file format v13

[General]
AudioFilename: dadadadadadadadadada.mp3
AudioLeadIn: 0
PreviewTime: 74232
Countdown: 0
SampleSet: Normal
StackLeniency: 0.7
Mode: 0
LetterboxInBreaks: 0
SkinPreference:Default
WidescreenStoryboard: 0

[Editor]
Bookmarks: 22309,46924,74617
DistanceSpacing: 0.7
BeatDivisor: 4
GridSize: 4
TimelineZoom: 8

[Metadata]
Title:Dadadadadadadadadada
TitleUnicode:打打打打打打打打打打
Artist:Hige Driver join. SELEN
ArtistUnicode:ヒゲドライバー join. SELEN
Creator:spboxer3
Version:SPECIAL
Source:REFLEC BEAT groovin'!!
Tags:kiddly Loneight BakaHuang Flask Oracle
BeatmapID:487384
BeatmapSetID:206750

[Difficulty]
HPDrainRate:7
CircleSize:4
OverallDifficulty:8.5
ApproachRate:9.7
SliderMultiplier:2.4
SliderTickRate:1

[Events]
//Background and Video events
0,0,"BG.jpg",0,0
//Break Periods
//Storyboard Layer 0 (Background)
//Storyboard Layer 1 (Fail)
//Storyboard Layer 2 (Pass)
//Storyboard Layer 3 (Foreground)
//Storyboard Sound Samples
//Background Colour Transformations
3,100,163,162,255

[TimingPoints]
771,384.615384615385,4,1,0,70,1,0
8463,-100,4,1,0,60,0,0
9665,-100,4,1,0,40,0,0
9761,-100,4,1,0,50,0,0
9857,-100,4,1,0,60,0,0
10001,-80,4,1,0,70,0,0
10194,-80,4,1,0,20,0,0
10290,-80,4,1,0,70,0,0
10482,-80,4,1,0,20,0,0
10578,-80,4,1,0,70,0,0
10674,-80,4,1,0,20,0,0
10771,-80,4,1,0,70,0,0
10963,-80,4,1,0,20,0,0
11059,-80,4,1,0,70,0,0
11251,-80,4,1,0,20,0,0
11347,-80,4,1,0,70,0,0
11444,-80,4,1,0,20,0,0
11540,-80,4,1,0,70,0,0
12021,-80,4,1,0,20,0,0
12117,-80,4,1,0,70,0,0
12213,-80,4,1,0,20,0,0
12309,-80,4,1,0,70,0,0
12597,-80,4,1,0,20,0,0
12694,-80,4,1,0,70,0,0
12790,-80,4,1,0,20,0,0
12886,-80,4,1,0,70,0,0
13271,-80,4,1,0,20,0,0
13367,-80,4,1,0,70,0,0
13559,-80,4,1,0,20,0,0
13655,-80,4,1,0,70,0,0
13751,-80,4,1,0,20,0,0
13847,-80,4,1,0,70,0,0
14328,-80,4,1,0,20,0,0
14424,-80,4,1,0,70,0,0
14521,-80,4,1,0,20,0,0
14617,-80,4,1,0,70,0,0
15097,-80,4,1,0,20,0,0
15194,-80,4,1,0,70,0,0
15290,-80,4,1,0,20,0,0
15386,-80,4,1,0,70,0,0
15674,-80,4,1,0,20,0,0
15771,-57.1428571428571,4,1,0,70,0,0
15867,-80,4,1,0,20,0,0
15963,-80,4,1,0,70,0,0
18174,-80,4,1,0,20,0,0
18271,-80,4,1,0,70,0,0
18367,-80,4,1,0,20,0,0
18463,-80,4,1,0,70,0,0
18751,-80,4,1,0,20,0,0
18847,-80,4,1,0,70,0,0
18944,-80,4,1,0,20,0,0
19040,-80,4,1,0,70,0,0
22309,-100,4,1,0,50,0,0
25386,-80,4,1,18,70,0,0
25674,-80,4,1,18,20,0,0
25771,-80,4,1,18,70,0,0
26059,-80,4,1,18,20,0,0
26155,-80,4,1,18,70,0,0
26444,-80,4,1,18,20,0,0
26540,-80,4,1,18,70,0,0
26828,-80,4,1,18,20,0,0
26924,-80,4,1,18,70,0,0
27213,-80,4,1,18,20,0,0
27309,-80,4,1,18,70,0,0
27597,-80,4,1,18,20,0,0
27694,-80,4,1,0,70,0,0
27886,-100,4,1,0,70,0,0
28078,-80,4,1,0,70,0,0
28271,-100,4,1,0,50,0,0
28751,-100,4,1,0,20,0,0
28847,-100,4,1,0,50,0,0
30290,-100,4,1,0,20,0,0
30386,-100,4,1,0,50,0,0
31444,-100,4,1,0,20,0,0
31540,-80,4,1,0,70,0,0
31732,-80,4,1,18,70,0,0
31828,-80,4,1,0,20,0,0
31924,-80,4,1,0,70,0,0
32117,-80,4,1,18,70,0,0
32213,-80,4,1,0,20,0,0
32309,-80,4,1,0,70,0,0
32501,-80,4,1,18,70,0,0
32597,-80,4,1,0,20,0,0
32694,-80,4,1,0,70,0,0
32886,-80,4,1,18,70,0,0
32982,-80,4,1,0,20,0,0
33078,-80,4,1,0,70,0,0
33271,-80,4,1,18,70,0,0
33367,-80,4,1,0,20,0,0
33463,-80,4,1,0,70,0,0
33655,-80,4,1,18,70,0,0
33751,-80,4,1,0,20,0,0
33847,-80,4,1,0,70,0,0
34232,-80,4,1,0,70,0,0
36924,-80,4,1,18,70,0,0
37405,-80,4,1,0,70,0,0
40386,-80,4,1,0,70,0,0
40434,-80,4,1,18,70,0,0
46155,-66.6666666666667,4,1,0,50,0,0
46251,-66.6666666666667,4,1,0,20,0,0
46347,-80,4,1,0,50,0,0
46444,-80,4,1,0,20,0,0
46540,-66.6666666666667,4,1,0,70,0,0
46732,-66.6666666666667,4,1,0,20,0,0
46924,-100,4,1,0,50,0,0
47021,-100,4,1,0,20,0,0
47117,-100,4,1,0,50,0,0
47213,-100,4,1,0,20,0,0
47309,-100,4,1,0,50,0,0
50001,-80,4,1,18,70,0,0
50290,-80,4,1,18,20,0,0
50386,-80,4,1,18,70,0,0
50674,-80,4,1,18,20,0,0
50771,-80,4,1,18,70,0,0
51059,-80,4,1,18,20,0,0
51155,-80,4,1,18,70,0,0
51828,-80,4,1,18,20,0,0
51924,-80,4,1,18,70,0,0
52213,-80,4,1,18,20,0,0
52309,-80,4,1,0,70,0,0
52501,-80,4,1,18,70,0,0
52597,-80,4,1,0,20,0,0
52694,-80,4,1,0,70,0,0
53078,-100,4,1,0,50,0,0
55867,-100,4,1,0,20,0,0
55963,-100,4,1,0,50,0,0
56059,-100,4,1,0,20,0,0
56155,-80,4,1,18,70,0,0
56444,-80,4,1,18,20,0,0
56540,-80,4,1,18,70,0,0
56828,-80,4,1,18,20,0,0
56924,-80,4,1,18,70,0,0
57213,-80,4,1,18,20,0,0
57309,-80,4,1,18,70,0,0
57790,-80,4,1,18,20,0,0
57886,-80,4,1,18,70,0,0
58174,-80,4,1,18,20,0,0
58271,-80,4,1,18,70,0,0
58559,-80,4,1,18,70,0,0
58944,-80,4,1,0,70,0,0
59040,-80,4,1,18,70,0,0
59136,-80,4,1,0,70,0,0
59232,-66.6666666666667,4,1,0,70,0,0
59521,-66.6666666666667,4,1,18,70,0,0
59617,-66.6666666666667,4,1,0,70,0,0
60290,-66.6666666666667,4,1,18,70,0,0
60386,-66.6666666666667,4,1,0,70,0,0
61059,-66.6666666666667,4,1,18,70,0,0
61155,-66.6666666666667,4,1,0,70,0,0
61636,-66.6666666666667,4,1,0,20,0,0
61732,-66.6666666666667,4,1,0,70,0,0
61828,-66.6666666666667,4,1,0,20,0,0
61924,-66.6666666666667,4,1,0,70,0,0
62021,-66.6666666666667,4,1,0,20,0,0
62117,-66.6666666666667,4,1,0,70,0,0
63078,-66.6666666666667,4,1,18,70,0,0
63174,-66.6666666666667,4,1,0,70,0,0
63367,-66.6666666666667,4,1,18,70,0,0
63463,-66.6666666666667,4,1,0,70,0,0
63944,-66.6666666666667,4,1,0,20,0,0
64040,-66.6666666666667,4,1,0,70,0,0
64136,-66.6666666666667,4,1,0,20,0,0
64232,-66.6666666666667,4,1,18,70,0,0
64328,-66.6666666666667,4,1,0,20,0,0
64424,-66.6666666666667,4,1,18,70,0,0
64521,-66.6666666666667,4,1,0,20,0,0
64617,-66.6666666666667,4,1,18,70,0,0
64713,-66.6666666666667,4,1,0,70,0,0
65194,-66.6666666666667,4,1,18,70,0,0
65386,-66.6666666666667,4,1,0,70,0,0
65674,-66.6666666666667,4,1,18,70,0,0
65771,-66.6666666666667,4,1,0,70,0,0
66444,-66.6666666666667,4,1,18,70,0,0
66540,-66.6666666666667,4,1,0,70,0,0
67213,-66.6666666666667,4,1,18,70,0,0
67309,-66.6666666666667,4,1,0,70,0,0
67694,-66.6666666666667,4,1,18,70,0,0
67790,-66.6666666666667,4,1,0,20,0,0
67886,-66.6666666666667,4,1,18,70,0,0
67982,-66.6666666666667,4,1,0,20,0,0
68078,-66.6666666666667,4,1,18,70,0,0
68174,-66.6666666666667,4,1,0,70,0,0
68463,-100,4,1,0,50,0,0
68559,-80,4,1,18,50,0,0
68655,-100,4,1,0,20,0,0
68751,-100,4,1,0,50,0,0
68847,-80,4,1,18,50,0,0
68944,-100,4,1,0,20,0,0
69040,-100,4,1,18,50,0,0
69328,-80,4,1,18,50,0,0
69424,-100,4,1,0,20,0,0
69521,-100,4,1,0,50,0,0
69617,-80,4,1,18,50,0,0
69713,-100,4,1,0,20,0,0
69809,-100,4,1,18,50,0,0
70001,-100,4,1,0,70,0,0
70097,-100,4,1,18,50,0,0
70194,-100,4,1,0,20,0,0
70290,-100,4,1,0,50,0,0
70386,-100,4,1,18,50,0,0
70482,-100,4,1,0,20,0,0
70578,-100,4,1,18,50,0,0
70963,-100,4,1,0,20,0,0
71059,-100,4,1,0,50,0,0
71155,-100,4,1,18,50,0,0
71251,-100,4,1,0,20,0,0
71347,-100,4,1,18,50,0,0
73078,-100,4,3,0,50,0,0
73847,-100,4,1,2,100,0,0
73871,-100,4,1,2,30,0,0
74232,-100,4,1,2,70,0,0
74256,-100,4,1,2,30,0,0
74617,-100,4,1,18,70,0,1
75771,-100,4,1,18,70,0,1
86540,-66.6666666666667,4,1,0,70,0,0
86828,-80,4,1,0,20,0,0
86924,-80,4,1,18,70,0,1
89521,-80,4,1,0,70,0,0
89617,-80,4,1,18,70,0,1
89713,-80,4,1,0,70,0,0
90194,-80,4,1,0,20,0,0
90290,-80,4,1,0,70,0,0
90482,-80,4,1,0,20,0,0
90578,-66.6666666666667,4,1,0,70,0,0
90674,-66.6666666666667,4,1,0,20,0,0
90771,-80,4,1,0,70,0,0
90963,-80,4,1,0,20,0,0
91059,-80,4,1,0,70,0,0
91251,-80,4,1,0,20,0,0
91347,-66.6666666666667,4,1,0,70,0,0
91444,-66.6666666666667,4,1,0,20,0,0
91540,-80,4,1,0,70,0,0
92021,-80,4,1,0,20,0,0
92117,-80,4,1,0,70,0,0
92213,-80,4,1,0,20,0,0
92309,-80,4,1,0,70,0,0
92597,-80,4,1,0,20,0,0
92694,-80,4,1,0,70,0,0
92790,-80,4,1,0,20,0,0
92886,-80,4,1,0,70,0,0
93271,-80,4,1,0,20,0,0
93367,-80,4,1,0,70,0,0
93559,-80,4,1,0,20,0,0
93655,-80,4,1,0,70,0,0
93751,-80,4,1,0,20,0,0
93847,-80,4,1,0,70,0,0
94328,-80,4,1,0,20,0,0
94424,-80,4,1,0,70,0,0
94521,-80,4,1,0,20,0,0
94617,-80,4,1,0,70,0,0
95097,-80,4,1,0,20,0,0
95194,-80,4,1,0,70,0,0
95290,-80,4,1,0,20,0,0
95386,-80,4,1,0,70,0,0
95674,-80,4,1,0,20,0,0
95771,-66.6666666666667,4,1,0,70,0,0
95867,-66.6666666666667,4,1,0,20,0,0
95963,-80,4,1,0,70,0,0
98174,-80,4,1,0,20,0,0
98271,-80,4,1,0,70,0,0
98367,-80,4,1,0,20,0,0
98463,-80,4,1,0,70,0,0
98751,-80,4,1,0,20,0,0
98847,-80,4,1,0,70,0,0
98944,-80,4,1,0,20,0,0
99040,-80,4,1,0,70,0,0
101540,-80,4,1,18,70,0,0
102117,-80,4,1,0,20,0,0

[Colours]
Combo1 : 183,111,255
Combo2 : 255,128,64
Combo3 : 128,191,255
Combo4 : 255,136,196

[HitObjects]
396,60,8463,5,0,0:0:0:0:
372,68,8591,1,2,0:2:0:0:
348,76,8719,1,2,0:2:0:0:
116,120,8847,5,0,0:0:0:0:
140,128,8975,1,2,0:2:0:0:
164,136,9103,1,2,0:2:0:0:
384,192,9232,5,8,0:3:0:0:
360,200,9360,1,2,0:2:0:0:
336,208,9488,1,2,0:2:0:0:
256,296,9617,6,0,L|256:344,7,30,4|0|0|0|0|0|0|0,0:3|0:0|0:0|0:0|0:0|0:0|0:0|0:0,0:0:0:0:
256,364,10001,5,6,0:2:0:0:
242,368,10097,2,0,B|196:376|196:376|166:367,1,75,0|0,0:0|0:0,0:0:0:0:
36,272,10290,1,2,0:2:0:0:
56,268,10386,2,0,B|102:260|102:260|132:269,1,75,4|0,0:3|0:0,0:0:0:0:
136,284,10578,2,0,P|128:240|136:196,1,75,2|0,0:2|0:0,0:0:0:0:
172,88,10771,5,2,0:2:0:0:
172,88,10867,2,0,L|92:83,1,75
336,128,11059,1,2,0:2:0:0:
336,128,11155,2,0,L|243:133,1,75,8|0,0:3|0:0,0:0:0:0:
260,120,11347,2,0,P|260:180|268:220,1,75,2|0,0:2|0:0,0:0:0:0:
344,328,11540,6,0,P|424:328|480:272,1,150
480,256,11828,1,0,0:0:0:0:
475,231,11924,2,0,P|464:196|469:159,1,75,4|2,0:3|0:2,0:0:0:0:
408,20,12117,2,0,P|419:55|414:92,1,75,2|0,0:2|0:0,0:0:0:0:
304,184,12309,5,0,0:0:0:0:
380,172,12405,1,0,0:0:0:0:
224,264,12501,2,0,L|136:248,1,75,2|0,0:2|0:0,0:0:0:0:
96,344,12694,2,0,L|8:328,1,75,10|0,0:3|0:0,0:0:0:0:
40,144,12886,6,0,L|52:180,3,37.5,0|0|0|0,0:0|0:0|0:0|0:0,0:0:0:0:
32,120,13078,5,6,0:2:0:0:
88,56,13174,2,0,P|128:56|168:40,1,75
304,184,13367,1,2,0:2:0:0:
280,108,13463,2,0,P|320:108|360:124,1,75,4|0,0:3|0:0,0:0:0:0:
440,188,13655,2,0,P|480:188|520:172,1,75,2|0,0:2|0:0,0:0:0:0:
407,284,13847,6,0,P|406:321|419:356,1,75
512,176,14040,2,0,P|513:138|500:103,1,75,2|0,0:2|0:0,0:0:0:0:
352,40,14232,2,0,L|426:31,1,75,8|0,0:3|0:0,0:0:0:0:
204,100,14424,2,0,L|278:108,1,75,2|0,0:2|0:0,0:0:0:0:
88,56,14617,6,0,P|76:148|88:204,1,150
100,224,14905,1,0,0:0:0:0:
120,240,15001,2,0,L|28:264,1,75,4|0,0:3|0:0,0:0:0:0:
192,312,15194,2,0,L|100:336,1,75,2|0,0:2|0:0,0:0:0:0:
300,304,15386,5,8,0:3:0:0:
372,248,15482,1,0,0:0:0:0:
284,232,15578,2,0,P|283:194|293:158,1,75,2|4,0:2|0:3,0:0:0:0:
319,144,15771,2,0,P|270:159|218:152,1,105.000001001358,4|0,0:2|0:0,0:0:0:0:
112,76,15963,2,0,L|96:34,1,37.5,4|0,0:3|0:0,0:0:0:0:
125,66,16059,2,0,L|117:21,1,37.5
139,55,16155,6,0,P|177:42|216:46,1,75,4|0,0:2|0:0,0:0:0:0:
328,80,16347,2,0,P|365:93|404:89,1,75,2|0,0:2|0:0,0:0:0:0:
224,20,16540,6,0,P|149:24|84:61,1,150,6|2,0:3|0:2,0:0:0:0:
36,136,16828,1,0,0:0:0:0:
36,136,16924,2,0,L|48:216,1,75
104,272,17117,2,0,L|116:352,1,75,2|0,0:2|0:0,0:0:0:0:
128,192,17309,2,0,P|216:164|300:208,1,150,10|2,0:3|0:2,0:0:0:0:
280,192,17597,1,0,0:0:0:0:
344,256,17694,6,0,P|432:284|516:240,1,150
492,280,17982,1,0,0:0:0:0:
500,292,18078,2,0,L|488:204,1,75,6|0,0:3|0:0,0:0:0:0:
400,40,18271,2,0,L|388:128,1,75,2|0,0:2|0:0,0:0:0:0:
196,92,18463,5,0,0:0:0:0:
280,80,18559,1,0,0:0:0:0:
120,68,18655,2,0,P|124:124|144:152,1,75,2|0,0:2|0:0,0:0:0:0:
172,320,18847,2,0,P|186:286|185:249,1,75,10|0,0:3|0:0,0:0:0:0:
76,336,19040,6,0,P|57:339|38:339,3,37.5,0|0|0|0,0:0|0:0|0:0|0:0,0:0:0:0:
172,320,19232,2,0,P|186:286|185:249,1,75,4|0,0:2|0:0,0:0:0:0:
165,161,19424,2,0,P|150:127|123:101,1,75,2|0,0:2|0:0,0:0:0:0:
52,76,19617,2,0,P|136:100|228:80,1,150,6|2,0:3|0:2,0:2:0:0:
272,60,19905,1,0,0:0:0:0:
360,32,20001,6,0,P|361:69|347:103,1,75
299,180,20193,2,0,P|273:207|239:221,1,75,2|0,0:2|0:0,0:0:0:0:
380,176,20386,2,0,P|451:196|509:243,1,150,10|2,0:3|0:2,0:0:0:0:
509,243,20674,1,0,0:0:0:0:
456,320,20771,6,0,L|368:332,1,75
76,248,20963,2,0,L|164:260,1,75,2|0,0:2|0:0,0:0:0:0:
360,32,21155,2,0,L|328:120,1,75,6|0,0:3|0:0,0:0:0:0:
175,329,21347,2,0,L|150:259,1,75,2|0,0:2|0:0,0:0:0:0:
335,102,21540,5,0,0:0:0:0:
176,330,21732,1,2,0:2:0:0:
80,104,21924,1,4,0:3:0:0:
104,100,22021,1,0,0:0:0:0:
128,96,22117,1,0,0:0:0:0:
152,92,22213,1,4,0:3:0:0:
176,88,22309,6,0,L|184:160,1,60,4|0,0:2|0:0,0:0:0:0:
176,60,22501,1,4,0:3:0:0:
216,248,22694,1,8,0:3:0:0:
225,264,22790,2,0,P|243:294|263:310,1,60
308,320,22982,2,0,L|436:296,2,120,0|0|0,0:0|0:0|0:0,0:0:0:0:
176,332,23463,2,0,L|100:324,1,60,8|0,0:3|0:0,0:0:0:0:
89,222,23655,2,0,L|165:230,1,60,4|0,0:3|0:0,0:0:0:0:
192,132,23847,6,0,P|192:64|156:12,2,120,4|0|8,0:3|0:0|0:3,0:0:0:0:
180,160,24328,1,0,0:0:0:0:
164,180,24424,1,0,0:0:0:0:
216,68,24617,1,4,0:3:0:0:
244,57,24713,1,0,0:0:0:0:
273,52,24809,1,0,0:0:0:0:
303,52,24905,1,0,0:0:0:0:
332,59,25001,2,0,B|352:72|404:72|428:60|428:60|404:52|384:40,1,120,8|8,0:3|0:3,0:0:0:0:
328,160,25386,5,0,0:0:0:0:
376,156,25482,1,0,0:0:0:0:
424,152,25578,2,0,L|504:143,1,75,8|0,0:0|0:0,0:0:0:0:
268,260,25771,1,0,0:0:0:0:
316,256,25867,1,0,0:0:0:0:
364,252,25963,2,0,L|444:243,1,75,8|0,0:0|0:0,0:0:0:0:
180,176,26155,5,0,0:0:0:0:
176,224,26251,1,0,0:0:0:0:
172,272,26347,2,0,L|163:346,1,75,8|0,0:0|0:0,0:0:0:0:
72,104,26540,1,0,0:0:0:0:
68,152,26636,1,0,0:0:0:0:
64,200,26732,2,0,L|55:274,1,75,8|0,0:0|0:0,0:0:0:0:
188,56,26924,5,0,0:0:0:0:
228,28,27021,1,0,0:0:0:0:
276,19,27117,2,0,P|306:19|345:37,1,75,8|0,0:0|0:0,0:0:0:0:
368,216,27309,1,0,0:0:0:0:
328,244,27406,1,0,0:0:0:0:
280,252,27501,2,0,P|249:252|210:234,1,75,8|0,0:0|0:0,0:0:0:0:
440,92,27694,6,0,L|452:168,1,75,4|0,0:3|0:0,0:0:0:0:
328,244,27886,2,0,L|340:320,1,60,0|8,0:0|0:3,0:0:0:0:
180,100,28078,6,0,L|192:176,1,75
68,252,28271,2,0,L|80:328,1,60,8|0,0:3|0:0,0:0:0:0:
156,372,28463,6,0,P|188:376|220:368,1,60,4|0,0:3|0:0,0:0:0:0:
260,352,28655,2,0,L|252:292,1,60,0|0,0:0|0:0,0:0:0:0:
320,184,28847,2,0,L|328:252,2,60,8|0|0,0:3|0:0|0:0,0:0:0:0:
316,135,29136,6,0,P|372:115|431:123,2,120,0|0|0,0:0|0:0|0:0,0:0:0:0:
336,52,29617,2,0,P|364:44|394:46,1,60,8|0,0:3|0:0,0:0:0:0:
490,118,29809,2,0,P|461:125|431:123,1,60
264,80,30001,6,0,P|235:72|205:74,1,60,4|0,0:3|0:0,0:0:0:0:
160,92,30194,2,0,L|165:151,1,60,0|0,0:0|0:0,0:0:0:0:
72,228,30386,2,0,L|66:168,2,60,8|0|0,0:3|0:0|0:0,0:0:0:0:
96,268,30674,2,0,P|176:288|224:268,1,120
228,264,30963,1,0,0:0:0:0:
248,252,31059,1,0,0:0:0:0:
272,248,31155,1,8,0:3:0:0:
296,252,31251,1,0,0:0:0:0:
320,260,31347,2,0,P|352:260|384:248,1,60,8|0,0:3|0:0,0:0:0:0:
476,228,31540,5,0,0:0:0:0:
464,168,31636,1,0,0:0:0:0:
448,108,31732,2,0,L|432:28,1,75,8|0,0:0|0:0,0:0:0:0:
332,320,31924,1,0,0:0:0:0:
320,260,32020,1,0,0:0:0:0:
304,200,32116,2,0,L|288:120,1,75,8|0,0:0|0:0,0:0:0:0:
56,264,32309,5,0,0:0:0:0:
116,276,32405,1,0,0:0:0:0:
176,292,32501,2,0,L|256:308,1,75,8|0,0:0|0:0,0:0:0:0:
28,136,32694,1,0,0:0:0:0:
88,148,32790,1,0,0:0:0:0:
148,164,32886,2,0,L|228:180,1,75,8|0,0:0|0:0,0:0:0:0:
372,148,33078,5,0,0:0:0:0:
380,88,33174,1,0,0:0:0:0:
384,28,33271,2,0,L|316:64,1,75,8|0,0:0|0:0,0:0:0:0:
148,164,33463,1,0,0:0:0:0:
140,224,33559,1,0,0:0:0:0:
136,284,33656,2,0,L|204:248,1,75,8|0,0:0|0:0,0:0:0:0:
304,200,33847,5,4,0:3:0:0:
316,228,33944,1,0,0:0:0:0:
316,256,34040,1,0,0:0:0:0:
308,284,34136,1,8,0:3:0:0:
292,308,34232,2,0,L|380:296,1,75
424,356,34424,2,0,L|512:344,1,75,8|0,0:3|0:0,0:0:0:0:
444,200,34617,5,4,0:2:0:0:
296,176,34713,1,0,0:0:0:0:
448,168,34809,1,0,0:0:0:0:
304,200,34905,2,2,P|287:127|302:54,1,150,0|0,0:0|0:0,0:0:0:0:
320,32,35194,6,0,P|272:84|192:112,1,150,2|0,0:0|0:0,0:0:0:0:
52,136,35482,1,0,0:0:0:0:
204,144,35578,1,0,0:0:0:0:
60,111,35674,2,2,P|43:183|58:256,1,150,2|0,0:0|0:0,0:0:0:0:
72,284,35963,6,2,B|134:278|134:278|168:288|168:288|240:280,1,150,0|0,0:0|0:0,0:0:0:0:
368,260,36251,1,0,0:0:0:0:
216,256,36347,1,0,0:0:0:0:
360,291,36444,2,0,P|372:218|362:144,1,150,2|0,0:0|0:0,0:0:0:0:
216,256,36732,2,0,P|260:260|292:248,1,75,2|0,0:0|0:0,0:0:0:0:
312,232,36924,5,4,0:0:0:0:
144,40,37117,1,8,0:0:0:0:
72,284,37309,1,4,0:0:0:0:
72,284,37694,5,0,0:0:0:0:
216,272,37790,1,0,0:0:0:0:
72,268,37886,1,0,0:0:0:0:
215,256,37982,2,2,P|212:181|189:110,1,150,0|0,0:0|0:0,0:0:0:0:
156,92,38271,6,0,P|222:126|295:141,1,150,2|0,0:0|0:0,0:0:0:0:
428,108,38559,1,0,0:0:0:0:
296,116,38655,1,0,0:0:0:0:
424,140,38751,2,2,P|432:232|460:288,1,150,2|0,0:0|0:0,0:0:0:0:
492,300,39040,6,2,P|423:270|348:267,1,150,0|0,0:0|0:0,0:0:0:0:
216,320,39328,1,0,0:0:0:0:
352,300,39424,1,0,0:0:0:0:
212,288,39521,2,2,P|142:315|87:366,1,150,0|0,0:0|0:0,0:0:0:0:
104,260,39809,6,2,P|94:228|68:183,1,75,2|0,0:0|0:0,0:0:0:0:
52,164,40001,1,0,0:0:0:0:
256,56,40194,1,0,0:0:0:0:
460,164,40386,2,0,L|464:208,4,37.5,8|0|0|0|0,0:2|0:0|0:0|0:0|0:0,0:0:0:0:
384,80,40771,5,2,0:0:0:0:
348,92,40867,1,0,0:0:0:0:
312,104,40963,2,0,L|224:104,1,75,0|8,0:0|0:0,0:0:0:0:
460,164,41155,1,0,0:0:0:0:
424,176,41251,1,0,0:0:0:0:
388,188,41347,2,0,L|300:188,1,75,8|0,0:0|0:0,0:0:0:0:
192,248,41540,5,2,0:0:0:0:
228,260,41636,1,0,0:0:0:0:
264,272,41732,2,0,L|352:272,1,75,0|8,0:0|0:0,0:0:0:0:
116,332,41924,1,0,0:0:0:0:
152,344,42020,1,0,0:0:0:0:
188,356,42116,2,0,L|276:356,1,75,8|0,0:0|0:0,0:0:0:0:
404,316,42309,5,2,0:0:0:0:
420,284,42405,1,0,0:0:0:0:
427,248,42501,2,0,P|430:210|422:174,1,75,0|8,0:0|0:0,0:0:0:0:
219,136,42694,1,0,0:0:0:0:
203,168,42790,1,0,0:0:0:0:
196,204,42886,2,0,P|192:241|200:277,1,75,8|0,0:0|0:0,0:0:0:0:
312,224,43078,5,2,0:0:0:0:
270,41,43271,1,8,0:0:0:0:
48,176,43463,1,12,0:0:0:0:
312,224,43655,2,0,L|305:149,1,75,0|0,0:0|0:0,0:0:0:0:
300,264,43847,5,2,0:0:0:0:
271,288,43943,1,0,0:0:0:0:
238,305,44039,1,0,0:0:0:0:
201,312,44135,1,0,0:0:0:0:
160,316,44232,6,0,L|232:344,1,75
72,280,44424,2,0,L|144:308,1,75
48,176,44616,5,2,0:0:0:0:
49,138,44712,1,0,0:0:0:0:
60,102,44808,1,0,0:0:0:0:
79,70,44904,1,0,0:0:0:0:
108,44,45001,6,0,L|24:32,1,75
216,60,45194,2,0,L|132:48,1,75
340,68,45386,6,0,L|424:56,1,75,2|0,0:0|0:0,0:0:0:0:
242,146,45578,2,0,L|168:136,1,75,0|2,0:0|0:0,0:0:0:0:
349,161,45771,2,0,L|360:236,1,75,0|0,0:0|0:0,0:0:0:0:
212,356,45963,2,0,L|222:281,1,75,2|0,0:0|0:0,0:0:0:0:
48,200,46155,6,0,P|96:184|140:196,1,90.0000034332277,2|0,0:0|0:0,0:0:0:0:
224,228,46347,2,2,P|264:236|320:220,1,75,0|0,0:0|0:0,0:0:0:0:
464,176,46540,6,0,B|400:180|348:160|348:160|380:188|404:188,1,180.000006866455,2|0,0:0|0:0,0:0:0:0:
496,212,46924,6,0,L|503:152,1,60,4|0,0:0|0:0,0:0:0:0:
448,92,47117,2,0,L|455:32,1,60,0|0,0:0|0:0,0:0:0:0:
360,52,47309,2,8,P|288:48|236:64,1,120,0|0,0:0|0:0,0:3:0:0:
224,68,47597,2,0,P|152:72|100:56,1,120,0|0,0:0|0:0,0:0:0:0:
80,44,47886,1,0,0:0:0:0:
56,28,47982,1,0,0:0:0:0:
36,4,48078,2,0,P|52:76|36:148,1,120,8|0,0:3|0:0,0:0:0:0:
24,256,48463,5,4,0:3:0:0:
52,264,48559,1,0,0:0:0:0:
80,264,48655,1,0,0:0:0:0:
108,260,48751,1,0,0:0:0:0:
136,252,48847,1,8,0:3:0:0:
164,244,48944,1,0,0:0:0:0:
192,244,49040,1,0,0:0:0:0:
220,248,49136,2,0,P|272:268|316:340,2,120,0|0|0,0:0|0:0|0:0,0:0:0:0:
196,160,49617,2,0,P|198:130|209:102,1,60,8|0,0:3|0:0,0:0:0:0:
280,52,49809,1,0,0:0:0:0:
472,64,50001,5,0,0:0:0:0:
376,92,50097,2,0,L|380:16,2,75,0|8|0,0:0|0:0|0:0,0:0:0:0:
288,208,50386,1,0,0:0:0:0:
384,236,50482,2,0,L|380:160,2,75,0|8|0,0:0|0:0|0:0,0:0:0:0:
476,352,50771,1,0,0:0:0:0:
380,380,50867,2,0,L|383:305,2,75,0|8|0,0:0|0:0|0:0,0:0:0:0:
217,350,51155,6,0,L|292:344,1,75
69,338,51347,2,0,L|144:332,1,75,8|8,0:0|0:0,0:0:0:0:
32,344,51540,5,0,0:0:0:0:
128,372,51636,2,0,L|124:297,2,75,0|8|0,0:0|0:0|0:0,0:0:0:0:
220,200,51925,1,0,0:0:0:0:
124,228,52021,2,0,L|128:152,2,75,0|8|0,0:0|0:0|0:0,0:0:0:0:
36,56,52309,1,4,0:3:0:0:
132,84,52405,2,0,L|128:8,2,75,0|8|8,0:0|0:0|0:3,0:0:0:0:
308,52,52694,6,0,P|270:56|233:53,1,75
400,32,52886,2,0,P|437:27|474:30,1,75,8|0,0:3|0:0,0:0:0:0:
372,120,53078,5,4,0:3:0:0:
344,128,53174,1,0,0:0:0:0:
312,132,53271,1,0,0:0:0:0:
284,132,53367,2,0,P|216:124|160:108,1,120
108,164,53655,2,0,P|168:188|188:188,1,60
248,204,53847,1,4,0:3:0:0:
256,232,53944,2,0,P|252:308|232:356,1,120,0|0,0:0|0:0,0:0:0:0:
212,364,54232,2,0,P|279:329|331:322,1,120,8|0,0:3|0:0,0:0:0:0:
448,332,54617,5,4,0:3:0:0:
456,304,54713,1,0,0:0:0:0:
460,276,54809,1,0,0:0:0:0:
456,248,54905,1,0,0:0:0:0:
444,220,55001,2,8,L|384:227,1,60,8|0,0:3|0:3,0:3:0:0:
280,196,55194,2,0,L|212:208,1,60,0|0,0:0|0:0,0:0:0:0:
188,212,55322,6,0,P|167:167|179:103,1,100
187,91,55578,1,0,0:0:0:0:
211,71,55674,2,0,B|256:72|300:80|300:80|280:72|264:56,1,120
396,96,55963,6,0,P|425:99|455:95,1,60,8|0,0:3|0:0,0:0:0:0:
336,144,56155,5,0,0:0:0:0:
428,196,56251,2,0,P|464:204|512:196,2,75,0|8|0,0:0|0:0|0:0,0:0:0:0:
228,244,56540,5,0,0:0:0:0:
320,192,56636,2,0,P|356:183|404:191,2,75,0|8|0,0:0|0:0|0:0,0:0:0:0:
120,140,56924,5,0,0:0:0:0:
212,192,57020,2,0,P|248:200|296:192,2,75,0|8|0,0:0|0:0|0:0,0:0:0:0:
128,224,57309,6,0,L|136:304,1,75
40,180,57501,2,0,L|32:100,1,75,8|4,0:0|0:0,0:0:0:0:
92,40,57694,6,0,P|176:32|208:36,1,75,2|0,0:0|0:0,0:0:0:0:
248,56,57886,1,0,0:0:0:0:
264,68,57982,2,0,P|344:80|416:52,1,150,2|0,0:0|0:0,0:0:0:0:
488,8,58271,1,2,0:0:0:0:
424,156,58463,2,0,L|440:248,1,75,2|2,0:2|0:0,0:0:0:0:
420,136,58655,1,8,0:0:0:0:
468,316,58847,1,2,0:0:0:0:
440,320,58944,1,2,0:2:0:0:
412,324,59040,1,2,0:0:0:0:
384,328,59136,1,2,0:2:0:0:
360,332,59232,6,0,B|220:352|220:352|272:312,1,180.000006866455,4|0,0:2|0:0,0:0:0:0:
264,320,59521,2,0,B|200:364|124:340|124:340|176:300,1,180.000006866455,8|0,0:0|0:0,0:0:0:0:
164,276,59809,5,0,0:0:0:0:
164,232,59905,1,0,0:0:0:0:
156,188,60001,2,0,B|124:136|72:116|72:116|96:96|136:116,1,180.000006866455,4|0,0:0|0:0,0:0:0:0:
164,124,60290,2,0,B|248:152|304:120|304:120|256:80,1,180.000006866455,8|0,0:0|0:0,0:0:0:0:
244,72,60578,5,0,0:0:0:0:
208,44,60674,1,0,0:0:0:0:
172,16,60771,2,0,P|272:32|360:16,1,180.000006866455,4|0,0:2|0:0,0:0:0:0:
368,60,61059,2,0,P|384:160|368:248,1,180.000006866455,8|0,0:0|0:0,0:0:0:0:
352,276,61347,5,0,0:0:0:0:
320,308,61444,1,0,0:0:0:0:
280,328,61540,2,0,P|236:344|180:348,1,90.0000034332277,4|0,0:3|0:0,0:0:0:0:
128,240,61732,2,0,P|174:248|224:272,1,90.0000034332277,12|0,0:3|0:0,0:0:0:0:
92,320,61924,2,0,B|48:304|40:256|40:256|60:160,1,180.000006866455,4|0,0:2|0:0,0:0:0:0:
68,136,62213,1,0,0:0:0:0:
76,108,62309,1,0,0:0:0:0:
172,16,62501,5,4,2:0:0:0:
204,44,62597,1,0,2:0:0:0:
244,63,62694,2,0,P|318:81|418:50,1,180.000006866455,0|0,0:0|0:0,2:0:0:0:
452,28,62982,1,0,0:0:0:0:
484,0,63078,6,0,B|456:80|512:80|484:176,1,180.000006866455,8|0,0:0|0:0,0:0:0:0:
416,136,63367,2,0,B|388:216|444:216|416:312,1,180.000006866455,8|0,0:0|0:0,0:0:0:0:
380,340,63655,1,0,0:0:0:0:
340,356,63751,1,0,0:0:0:0:
296,356,63847,6,0,L|206:352,1,90.0000034332277
46,299,64040,2,0,L|136:296,1,90.0000034332277
285,223,64232,6,0,L|196:224,1,90.0000034332277,8|0,0:0|0:0,0:0:0:0:
377,128,64424,2,0,L|288:132,1,90.0000034332277,2|0,0:0|0:0,0:0:0:0:
456,24,64617,2,0,L|367:35,2,90.0000034332277,6|0|0,0:0|0:0|0:0,0:0:0:0:
192,80,65001,1,0,0:0:0:0:
148,76,65097,1,0,0:0:0:0:
104,72,65194,1,2,0:0:0:0:
60,68,65290,1,0,0:0:0:0:
16,64,65386,6,0,B|40:104|40:104|188:116,1,180.000006866455,4|0,0:2|0:0,0:0:0:0:
192,79,65674,2,0,B|148:155|164:219|164:219|168:203|188:183,1,180.000006866455,8|0,0:0|0:0,0:0:0:0:
200,228,65963,5,0,0:0:0:0:
216,272,66059,1,0,0:0:0:0:
228,316,66155,2,0,B|156:312|96:344|96:344|120:316|128:284,1,180.000006866455,4|0,0:0|0:0,0:0:0:0:
164,308,66444,2,0,B|92:312|32:280|32:280|56:308|64:340,1,180.000006866455,8|0,0:0|0:0,0:0:0:0:
76,356,66732,5,0,0:0:0:0:
120,364,66828,1,0,0:0:0:0:
163,359,66924,2,0,P|252:351|328:304,1,180.000006866455,4|0,0:2|0:0,0:0:0:0:
320,260,67213,2,0,P|328:171|375:95,1,180.000006866455,8|0,0:0|0:0,0:0:0:0:
416,72,67501,1,0,0:0:0:0:
456,56,67597,1,0,0:0:0:0:
440,140,67694,6,0,L|464:232,1,90.0000034332277,4|0,0:0|0:0,0:0:0:0:
256,176,67886,2,0,L|256:266,1,90.0000034332277,4|0,0:0|0:0,0:0:0:0:
72,140,68078,2,0,B|36:244|36:244|32:284|88:272|80:244,1,180.000006866455,10|0,0:0|0:0,0:0:0:0:
304,344,68463,5,0,0:0:0:0:
304,344,68559,2,0,L|392:328,1,75,2|0,0:0|0:0,0:0:0:0:
148,312,68751,1,0,0:0:0:0:
148,312,68847,2,0,L|223:326,1,75,2|0,0:0|0:0,0:0:0:0:
332,218,69040,1,2,0:0:0:0:
164,180,69232,5,0,0:0:0:0:
164,180,69328,2,0,L|85:165,1,75,2|0,0:0|0:0,0:0:0:0:
332,216,69521,1,0,0:0:0:0:
331,217,69617,2,0,L|254:231,1,75,2|0,0:0|0:0,0:0:0:0:
256,104,69809,2,0,L|256:180,1,60,2|0,0:0|0:0,0:0:0:0:
284,64,70001,5,0,0:0:0:0:
284,64,70097,2,0,L|368:52,1,60,2|0,0:0|0:0,0:0:0:0:
416,100,70290,1,0,0:0:0:0:
416,100,70386,2,0,L|500:88,1,60,2|0,0:0|0:0,0:0:0:0:
492,188,70578,1,2,0:0:0:0:
236,156,70771,5,0,0:0:0:0:
236,156,70867,2,0,L|152:144,1,60,2|0,0:0|0:0,0:0:0:0:
96,188,71060,1,0,0:0:0:0:
96,188,71156,2,0,L|12:176,1,60,2|0,0:0|0:0,0:0:0:0:
20,276,71348,1,2,0:0:0:0:
100,344,71540,5,0,0:0:0:0:
128,352,71636,1,0,0:0:0:0:
156,352,71732,1,0,0:0:0:0:
184,348,71828,1,0,0:0:0:0:
212,340,71924,1,0,0:0:0:0:
240,332,72020,1,0,0:0:0:0:
268,332,72116,1,0,0:0:0:0:
296,336,72212,1,0,0:0:0:0:
339,347,72309,5,0,0:0:0:0:
381,332,72405,1,0,0:0:0:0:
408,296,72501,1,0,0:0:0:0:
421,253,72597,1,0,0:0:0:0:
417,207,72694,1,0,0:0:0:0:
399,165,72790,1,0,0:0:0:0:
363,137,72886,1,0,0:0:0:0:
318,128,72982,1,0,0:0:0:0:
216,164,73078,6,2,L|171:171,15,30,0|0|0|0|0|0|0|0|0|0|0|0|0|0|0|0,0:0|0:0|0:0|0:0|0:0|0:0|0:0|0:0|0:0|0:0|0:0|0:0|0:0|0:0|0:0|0:0,0:0:0:0:
80,144,73847,6,0,B|56:140|56:140|59:142,14,15,8|0|0|0|0|0|0|0|0|0|0|0|0|0|0,0:0|0:0|0:0|0:0|0:0|0:0|0:0|0:0|0:0|0:0|0:0|0:0|0:0|0:0|0:0,0:0:0:0:
108,228,74232,6,0,B|84:224|84:224|87:226,14,15,2|0|0|0|0|0|0|0|0|0|0|0|0|0|0,0:0|0:0|0:0|0:0|0:0|0:0|0:0|0:0|0:0|0:0|0:0|0:0|0:0|0:0|0:0,0:0:0:0:
148,312,74617,5,0,0:0:0:0:
184,304,74745,1,0,0:0:0:0:
220,296,74873,1,0,0:0:0:0:
413,225,75001,5,8,0:0:0:0:
388,198,75129,1,8,0:0:0:0:
364,171,75257,1,8,0:0:0:0:
206,38,75386,5,0,0:0:0:0:
195,73,75514,1,0,0:0:0:0:
183,108,75642,1,0,0:0:0:0:
414,226,75771,1,10,0:0:0:0:
58,150,76155,5,0,0:0:0:0:
89,184,76283,1,0,0:0:0:0:
120,218,76411,1,0,0:0:0:0:
318,383,76539,5,8,0:0:0:0:
332,339,76667,1,8,0:0:0:0:
346,295,76795,1,8,0:0:0:0:
391,42,76924,5,0,0:0:0:0:
346,52,77052,1,0,0:0:0:0:
301,61,77180,1,0,0:0:0:0:
332,340,77309,1,10,0:0:0:0:
220,248,77694,5,0,0:0:0:0:
320,196,77822,1,0,0:0:0:0:
225,135,77950,1,0,0:0:0:0:
257,273,78078,5,8,0:0:0:0:
332,154,78206,1,8,0:0:0:0:
192,148,78334,1,8,0:0:0:0:
308,282,78463,5,0,0:0:0:0:
315,106,78591,1,0,0:0:0:0:
160,188,78719,1,0,0:0:0:0:
368,256,78847,5,8,0:0:0:0:
266,62,78975,1,8,0:0:0:0:
149,247,79103,1,8,0:0:0:0:
357,318,79232,5,0,0:0:0:0:
219,33,79360,1,0,0:0:0:0:
219,350,79488,1,0,0:0:0:0:
357,65,79617,1,8,0:0:0:0:
109,262,79745,1,0,0:0:0:0:
418,192,79873,1,8,0:0:0:0:
109,121,80001,1,8,0:0:0:0:
109,121,80386,6,0,L|76:116,4,30,0|0|0|0|0,0:0|0:0|0:0|0:0|0:0,0:0:0:0:
147,243,80771,5,4,0:0:0:0:
249,256,80899,1,4,0:0:0:0:
352,268,81027,1,0,0:0:0:0:
272,80,81155,5,6,0:0:0:0:
209,161,81283,1,4,0:0:0:0:
147,243,81411,1,0,0:0:0:0:
352,268,81540,5,4,0:0:0:0:
310,171,81668,1,4,0:0:0:0:
272,80,81796,1,0,0:0:0:0:
147,242,81924,1,2,0:0:0:0:
387,139,82309,5,4,0:0:0:0:
260,121,82437,1,4,0:0:0:0:
132,105,82565,1,0,0:0:0:0:
233,343,82694,5,6,0:0:0:0:
312,237,82822,1,4,0:0:0:0:
387,139,82950,1,0,0:0:0:0:
132,106,83078,5,4,0:0:0:0:
182,225,83206,1,4,0:0:0:0:
232,343,83334,1,0,0:0:0:0:
388,140,83462,1,2,0:0:0:0:
168,116,83847,5,4,0:0:0:0:
224,208,83976,1,4,0:0:0:0:
244,304,84104,1,0,0:0:0:0:
310,54,84232,5,6,0:0:0:0:
240,136,84361,1,4,0:0:0:0:
154,184,84489,1,0,0:0:0:0:
414,169,84617,5,4,0:0:0:0:
314,128,84746,1,4,0:0:0:0:
242,61,84874,1,0,0:0:0:0:
335,302,85001,5,6,0:0:0:0:
344,194,85130,1,4,0:0:0:0:
385,105,85258,1,0,0:0:0:0:
184,269,85386,5,4,0:0:0:0:
288,245,85515,1,4,0:0:0:0:
386,256,85643,1,0,0:0:0:0:
256,344,85771,5,6,0:0:0:0:
137,96,85899,1,0,0:0:0:0:
397,137,86027,1,6,0:0:0:0:
256,192,86155,1,6,0:0:0:0:
256,192,86540,6,0,B|200:208|256:272|300:228|292:185|256:149|256:149|262:122|262:122|249:101|249:101|256:80|256:80|256:50,1,270.000010299683
336,36,86924,5,4,0:0:0:0:
436,20,87053,1,4,0:0:0:0:
340,64,87181,1,4,0:0:0:0:
440,48,87309,1,8,0:0:0:0:
176,92,87694,5,4,0:0:0:0:
76,76,87823,1,4,0:0:0:0:
172,120,87951,1,4,0:0:0:0:
72,104,88079,1,8,0:0:0:0:
256,260,88463,5,4,0:0:0:0:
336,268,88591,1,4,0:0:0:0:
416,284,88719,1,8,0:0:0:0:
256,260,88847,5,4,0:0:0:0:
172,268,88975,1,8,0:0:0:0:
208,200,89104,1,4,0:0:0:0:
92,284,89232,2,8,B|66:285|38:303|38:303|57:224|129:199|100:159|74:165|74:165|39:174|54:220|79:215,1,300,8|10,0:0|0:0,0:0:0:0:
296,332,90001,5,6,0:2:0:0:
324,348,90097,2,0,L|404:348,1,75,2|0,0:2|0:0,0:0:0:0:
376,236,90290,1,2,0:2:0:0:
404,252,90386,2,0,L|484:252,1,75,4|0,0:3|0:0,0:0:0:0:
476,272,90578,6,0,P|484:227|480:183,1,90.0000034332277,10|0,0:3|0:0,0:0:0:0:
388,40,90771,5,2,0:2:0:0:
376,64,90867,2,0,P|368:100|369:137,1,75
284,200,91059,1,2,0:2:0:0:
260,212,91155,2,8,P|223:219|186:218,1,75,8|0,0:3|0:0,0:0:0:0:
180,200,91347,6,0,P|188:243|181:288,1,90.0000034332277,10|0,0:3|0:2,0:2:0:0:
36,360,91540,6,0,B|14:319|37:283|37:283|73:285|101:262,1,150,2|0,0:2|0:0,0:0:0:0:
132,160,91828,1,0,0:0:0:0:
100,164,91924,2,0,L|16:172,1,75,4|0,0:3|0:0,0:0:0:0:
240,92,92117,2,0,L|156:100,1,75,6|0,0:3|0:0,0:0:0:0:
300,36,92309,5,0,0:0:0:0:
376,64,92405,1,0,0:0:0:0:
353,217,92501,2,0,P|347:180|356:144,1,75,6|0,0:3|0:0,0:0:0:0:
408,280,92694,2,0,P|413:316|405:353,1,75,10|0,0:3|0:0,0:0:0:0:
288,344,92886,2,0,L|336:348,3,37.5,0|0|0|0,0:0|0:0|0:0|0:0,0:0:0:0:
256,340,93078,5,2,0:2:0:0:
180,324,93174,2,0,B|143:329|143:329|107:317,1,75,0|0,0:0|0:0,0:0:0:0:
56,224,93367,1,2,0:2:0:0:
100,156,93463,2,0,B|64:144|64:144|27:149,1,75,4|0,0:3|0:0,0:0:0:0:
170,196,93655,2,0,P|180:160|176:124,1,75,6|0,0:3|0:0,0:0:0:0:
132,40,93847,6,0,B|148:32|148:32|212:32,1,75,2|0,0:2|0:0,0:0:0:0:
353,96,94039,2,0,B|296:96|296:96|280:88,1,75,0|2,0:0|0:2,0:0:0:0:
428,56,94231,2,0,P|436:100|428:131,1,75,8|0,0:3|0:0,0:0:0:0:
360,248,94424,2,0,P|352:211|360:175,1,75,6|0,0:3|0:0,0:0:0:0:
436,304,94617,6,0,P|324:332|280:304,1,150
252,248,94905,1,0,0:0:0:0:
252,224,95001,2,0,L|256:140,1,75,4|0,0:3|0:0,0:0:0:0:
160,116,95194,2,0,L|164:32,1,75,10|0,0:3|0:0,0:0:0:0:
104,184,95386,5,0,0:0:0:0:
40,232,95482,1,0,0:0:0:0:
112,264,95578,2,0,P|104:312|88:348,1,75,6|0,0:3|0:0,0:0:0:0:
72,344,95771,2,0,P|115:332|159:335,1,90.0000034332277,10|0,0:3|0:0,0:0:0:0:
260,348,95963,6,0,L|264:300,1,37.5
276,352,96059,2,0,L|288:305,1,37.5
292,356,96155,6,0,P|328:364|368:360,1,75,0|2,0:0|0:2,0:0:0:0:
452,312,96347,2,0,P|476:284|493:248,1,75
366,361,96540,6,0,P|291:357|227:319,1,150,4|0,0:3|0:0,0:0:0:0:
180,240,96828,1,0,0:0:0:0:
180,240,96924,2,0,L|172:144,1,75,0|2,0:0|0:2,0:0:0:0:
260,152,97117,2,0,L|253:77,1,75
196,32,97309,2,0,P|112:24|32:48,1,150,8|0,0:3|0:0,0:0:0:0:
49,39,97597,1,0,0:0:0:0:
31,178,97694,6,0,B|32:160|24:136|24:136|88:152|124:108,1,150
152,28,97982,1,0,0:0:0:0:
152,28,98078,2,0,P|190:29|226:20,1,75,4|0,0:3|0:0,0:0:0:0:
336,68,98271,2,0,P|373:67|409:76,1,75,2|0,0:2|0:0,0:0:0:0:
508,184,98463,5,0,0:0:0:0:
472,120,98559,1,0,0:0:0:0:
464,244,98655,2,0,P|459:281|468:317,1,75,2|0,0:2|0:0,0:0:0:0:
412,176,98847,2,0,P|374:171|338:180,1,75,2|0,0:2|0:0,0:0:0:0:
284,252,99040,2,0,L|292:308,2,37.5,0|0|0,0:0|0:0|0:0,0:0:0:0:
204,296,99232,5,0,0:0:0:0:
128,288,99328,1,2,0:2:0:0:
64,248,99424,1,0,0:0:0:0:
24,184,99521,2,0,P|4:104|28:32,1,150,2|0,0:2|0:0,0:0:0:0:
80,92,99809,2,0,P|47:110|10:114,1,75
140,48,100001,5,0,0:0:0:0:
212,36,100097,1,2,0:2:0:0:
288,48,100194,1,0,0:0:0:0:
356,84,100290,2,0,P|400:152|412:232,1,150
360,272,100578,2,0,P|396:292|432:292,1,75
328,204,100771,6,0,L|254:217,1,75,0|2,0:0|0:2,0:0:0:0:
148,288,100963,2,0,L|74:274,1,75
184,72,101155,2,0,L|170:145,1,75,2|0,0:2|0:0,0:0:0:0:
284,372,101347,2,0,L|270:298,1,75
364,36,101540,5,8,0:0:0:0:
380,368,101732,5,4,0:0:0:0:
85,214,101924,6,0,B|96:207|96:207|105:218|105:218|140:196|196:208|212:244,1,150,2|0,0:0|0:0,0:0:0:0:
