osu file format v13

[General]
AudioFilename: dadadadadadadadadada.mp3
AudioLeadIn: 0
PreviewTime: 74232
Countdown: 0
SampleSet: Normal
StackLeniency: 0.7
Mode: 0
LetterboxInBreaks: 0
SkinPreference:Default
WidescreenStoryboard: 0

[Editor]
DistanceSpacing: 1.4
BeatDivisor: 3
GridSize: 4
TimelineZoom: 6.199996

[Metadata]
Title:Dadadadadadadadadada
TitleUnicode:打打打打打打打打打打
Artist:Hige Driver join. SELEN
ArtistUnicode:ヒゲドライバー join. SELEN
Creator:spboxer3
Version:INSANE
Source:REFLEC BEAT groovin'!!
Tags:kiddly Loneight BakaHuang Flask Oracle
BeatmapID:517432
BeatmapSetID:206750

[Difficulty]
HPDrainRate:6
CircleSize:4
OverallDifficulty:7.5
ApproachRate:9
SliderMultiplier:2
SliderTickRate:1

[Events]
//Background and Video events
0,0,"BG.jpg",0,0
//Break Periods
//Storyboard Layer 0 (Background)
//Storyboard Layer 1 (Fail)
//Storyboard Layer 2 (Pass)
//Storyboard Layer 3 (Foreground)
//Storyboard Sound Samples
//Background Colour Transformations
3,100,163,162,255

[TimingPoints]
771,384.615384615385,4,1,0,70,1,0
10001,-100,4,1,18,70,0,0
10194,-100,4,1,18,20,0,0
10290,-100,4,1,18,70,0,0
10482,-100,4,1,18,20,0,0
10578,-100,4,1,18,70,0,0
10771,-100,4,1,18,70,0,0
10963,-100,4,1,18,20,0,0
11059,-100,4,1,18,70,0,0
11251,-100,4,1,18,20,0,0
11347,-100,4,1,18,70,0,0
11540,-100,4,1,18,70,0,0
12021,-100,4,1,18,20,0,0
12117,-100,4,1,18,70,0,0
12309,-100,4,1,18,70,0,0
12694,-100,4,1,18,70,0,0
12886,-100,4,1,18,70,0,0
13271,-100,4,1,18,20,0,0
13367,-100,4,1,18,70,0,0
13559,-100,4,1,18,20,0,0
13655,-100,4,1,18,70,0,0
13847,-100,4,1,18,70,0,0
14328,-100,4,1,18,20,0,0
14424,-100,4,1,18,70,0,0
14617,-100,4,1,18,70,0,0
15097,-100,4,1,18,20,0,0
15194,-100,4,1,18,70,0,0
15386,-100,4,1,18,70,0,0
15771,-100,4,1,18,70,0,0
15867,-100,4,1,18,20,0,0
15963,-100,4,1,18,70,0,0
16347,-100,4,1,18,20,0,0
16444,-100,4,1,18,70,0,0
16540,-100,4,1,18,70,0,0
16636,-100,4,1,18,70,0,0
16828,-100,4,1,18,20,0,0
16924,-100,4,1,18,70,0,0
17405,-100,4,1,18,20,0,0
17501,-100,4,1,18,70,0,0
17597,-100,4,1,18,20,0,0
17694,-100,4,1,18,70,0,0
18078,-100,4,1,5,70,0,0
18174,-100,4,1,18,20,0,0
18271,-100,4,1,18,70,0,0
18367,-100,4,1,18,20,0,0
18463,-100,4,1,18,70,0,0
18847,-100,4,1,18,70,0,0
19040,-100,4,1,18,70,0,0
22309,-125,4,2,18,70,0,0
23078,-125,4,2,4,70,0,0
23174,-125,4,2,18,70,0,0
25001,-100,4,1,18,70,0,0
25386,-100,4,1,18,70,0,0
25771,-100,4,1,18,70,0,0
26155,-100,4,1,18,70,0,0
26540,-100,4,1,18,70,0,0
26924,-100,4,1,18,70,0,0
27309,-100,4,1,18,70,0,0
27694,-100,4,1,18,70,0,0
27886,-100,4,1,18,70,0,0
28078,-100,4,1,18,70,0,0
28271,-125,4,1,18,70,0,0
28463,-125,4,2,18,70,0,0
28751,-125,4,2,18,20,0,0
28847,-125,4,2,18,70,0,0
29232,-125,4,2,4,70,0,0
30290,-125,4,2,18,20,0,0
30386,-125,4,2,18,70,0,0
31444,-125,4,2,18,20,0,0
31540,-100,4,1,18,70,0,0
31924,-100,4,1,18,70,0,0
32309,-100,4,1,18,70,0,0
32694,-100,4,1,18,70,0,0
33078,-100,4,1,18,70,0,0
33463,-100,4,1,18,70,0,0
33847,-100,4,1,18,70,0,0
34232,-100,4,1,18,70,0,0
41155,-100,4,1,5,70,0,0
41251,-100,4,1,18,70,0,0
41924,-100,4,1,5,70,0,0
42021,-100,4,1,18,70,0,0
42694,-100,4,1,5,70,0,0
42790,-100,4,1,18,70,0,0
46155,-100,4,1,18,20,0,0
46540,-100,4,1,18,70,0,0
46732,-100,4,1,18,20,0,0
46924,-125,4,2,18,70,0,0
47021,-125,4,2,18,20,0,0
47117,-125,4,2,18,70,0,0
47309,-125,4,2,18,70,0,0
47694,-125,4,2,4,70,0,0
47790,-125,4,2,18,70,0,0
49232,-125,4,2,4,70,0,0
49328,-125,4,2,18,70,0,0
50001,-100,4,1,18,70,0,0
50386,-100,4,1,18,70,0,0
50771,-100,4,1,18,70,0,0
51155,-100,4,1,18,70,0,0
51924,-100,4,1,18,70,0,0
52309,-100,4,1,18,70,0,0
53078,-125,4,2,18,70,0,0
53463,-125,4,2,4,70,0,0
53559,-125,4,2,18,70,0,0
54232,-125,4,2,4,70,0,0
54328,-125,4,2,18,70,0,0
55963,-100,4,1,18,70,0,0
56059,-100,4,1,18,20,0,0
56155,-100,4,1,18,70,0,0
56540,-100,4,1,18,70,0,0
56924,-100,4,1,18,70,0,0
57309,-100,4,1,18,70,0,0
57790,-100,4,1,18,20,0,0
57886,-100,4,1,18,70,0,0
58174,-100,4,1,18,20,0,0
58271,-100,4,1,18,70,0,0
59232,-100,4,1,1,70,0,0
59328,-100,4,1,18,70,0,0
59617,-100,4,1,5,70,0,0
59713,-100,4,1,18,70,0,0
60386,-100,4,1,5,70,0,0
60482,-100,4,1,18,70,0,0
61155,-100,4,1,5,70,0,0
61251,-100,4,1,18,70,0,0
61732,-100,4,1,18,70,0,0
61924,-100,4,1,18,70,0,0
62021,-100,4,1,18,20,0,0
62117,-100,4,1,18,70,0,0
63463,-100,4,1,5,70,0,0
63559,-100,4,1,18,70,0,0
64040,-100,4,1,18,70,0,0
64424,-100,4,1,18,70,0,0
64617,-100,4,1,18,70,0,0
65771,-100,4,1,5,70,0,0
65867,-100,4,1,18,70,0,0
66540,-100,4,1,5,70,0,0
66636,-100,4,1,18,70,0,0
67309,-100,4,1,5,70,0,0
67405,-100,4,1,18,70,0,0
67886,-100,4,1,18,70,0,0
68078,-100,4,1,18,70,0,0
68463,-100,4,1,18,70,0,0
68559,-100,4,1,18,70,0,0
68751,-100,4,1,18,70,0,0
68847,-100,4,1,18,70,0,0
69040,-100,4,1,18,70,0,0
69328,-100,4,1,18,70,0,0
69521,-100,4,1,18,70,0,0
69617,-100,4,1,18,70,0,0
69809,-100,4,1,18,70,0,0
70001,-100,4,1,18,70,0,0
70194,-100,4,1,18,20,0,0
70290,-100,4,1,18,70,0,0
70482,-100,4,1,18,20,0,0
70578,-100,4,1,18,70,0,0
70963,-100,4,1,18,20,0,0
71059,-100,4,1,18,70,0,0
71251,-100,4,1,18,20,0,0
71347,-100,4,1,18,70,0,0
73078,-100,4,1,18,50,0,0
73847,-200,4,1,2,30,0,0
74232,-66.6666666666667,4,1,2,70,0,0
74617,-100,4,1,18,70,0,1
75771,-200,4,1,18,70,0,1
76091,-100,4,1,18,20,0,1
76155,-100,4,1,18,70,0,1
77309,-200,4,1,18,70,0,1
77629,-200,4,1,18,20,0,1
77694,-100,4,1,18,70,0,1
80001,-200,4,1,18,70,0,1
80322,-200,4,1,18,20,0,1
80386,-66.6666666666667,4,1,18,70,0,1
81155,-100,4,1,18,70,0,1
81924,-200,4,1,18,70,0,1
82245,-200,4,1,18,20,0,1
82309,-200,4,1,18,70,0,1
82694,-100,4,1,18,70,0,1
83463,-200,4,1,18,70,0,1
83783,-200,4,1,18,20,0,1
83847,-200,4,1,18,70,0,1
84232,-100,4,1,18,70,0,1
86155,-200,4,1,18,70,0,1
86476,-200,4,1,18,20,0,1
86540,-66.6666666666667,4,1,18,70,0,0
86796,-100,4,1,18,20,0,0
86924,-100,4,1,18,70,0,1
89232,-200,4,1,18,70,0,1
89521,-100,4,1,18,70,0,0
89617,-66.6666666666667,4,1,18,70,0,1
89713,-100,4,1,18,70,0,0
90194,-100,4,1,18,20,0,0
90290,-100,4,1,18,70,0,0
90482,-100,4,1,18,20,0,0
90578,-100,4,1,18,70,0,0
90771,-100,4,1,18,70,0,0
90963,-100,4,1,18,20,0,0
91059,-100,4,1,18,70,0,0
91251,-100,4,1,18,20,0,0
91347,-100,4,1,18,70,0,0
91540,-100,4,1,18,70,0,0
92021,-100,4,1,18,20,0,0
92117,-100,4,1,18,70,0,0
92213,-100,4,1,18,20,0,0
92309,-100,4,1,18,70,0,0
92694,-100,4,1,18,70,0,0
92886,-100,4,1,18,70,0,0
93271,-100,4,1,18,20,0,0
93367,-100,4,1,18,70,0,0
93559,-100,4,1,18,20,0,0
93655,-100,4,1,18,70,0,0
93847,-100,4,1,18,70,0,0
94328,-100,4,1,18,20,0,0
94424,-100,4,1,18,70,0,0
94617,-100,4,1,18,70,0,0
95097,-100,4,1,18,20,0,0
95194,-100,4,1,18,70,0,0
95290,-100,4,1,18,20,0,0
95386,-100,4,1,18,70,0,0
96540,-100,4,1,5,70,0,0
96636,-100,4,1,18,70,0,0
97405,-100,4,1,18,70,0,0
98174,-100,4,1,18,20,0,0
98271,-100,4,1,18,70,0,0
98367,-100,4,1,18,20,0,0
98463,-100,4,1,18,70,0,0
98847,-100,4,1,18,70,0,0
99040,-100,4,1,18,70,0,0
99617,-100,4,1,5,70,0,0
99713,-100,4,1,18,70,0,0
100386,-100,4,1,5,70,0,0
100482,-100,4,1,18,70,0,0
101540,-66.6666666666667,4,1,18,70,0,0

[Colours]
Combo1 : 183,111,255
Combo2 : 255,128,64
Combo3 : 128,191,255
Combo4 : 255,136,196

[HitObjects]
104,88,8463,5,0,0:0:0:0:
158,87,8591,1,0,0:0:0:0:
198,122,8719,1,0,0:0:0:0:
208,174,8847,1,0,0:0:0:0:
181,221,8976,1,0,0:0:0:0:
131,239,9104,1,0,0:0:0:0:
81,221,9232,1,4,0:3:0:0:
55,175,9360,1,0,0:0:0:0:
63,122,9488,1,0,0:0:0:0:
104,88,9617,2,0,L|96:48,6,25,0|0|0|0|0|0|0,0:0|0:0|0:0|0:0|0:0|0:0|0:0,0:0:0:0:
132,160,10001,5,2,0:2:0:0:
132,160,10097,2,0,P|176:184|232:168,1,100,2|2,0:2|0:2,0:0:0:0:
252,156,10386,2,0,P|304:144|360:156,1,100,8|2,0:0|0:2,0:0:0:0:
460,320,10771,5,2,0:2:0:0:
460,320,10867,2,0,P|408:332|360:320,1,100,2|2,0:2|0:2,0:0:0:0:
332,308,11155,2,0,P|284:296|236:312,1,100,8|2,0:0|0:2,0:0:0:0:
28,356,11540,5,2,0:2:0:0:
28,356,11636,2,0,P|40:308|32:256,1,100,2|2,0:2|0:2,0:0:0:0:
24,224,11924,2,0,P|16:172|28:120,1,100,8|2,0:0|0:2,0:0:0:0:
168,104,12309,5,2,0:2:0:0:
44,44,12501,1,2,0:2:0:0:
152,180,12694,1,8,0:0:0:0:
336,116,12886,2,0,L|324:64,1,50
356,84,13078,5,2,0:2:0:0:
392,88,13174,2,0,P|448:88|484:56,1,100,2|2,0:2|0:2,0:0:0:0:
480,28,13463,2,0,L|504:148,1,100,8|2,0:0|0:2,0:0:0:0:
404,344,13847,5,2,0:2:0:0:
404,344,13944,2,0,L|424:236,1,100,2|2,0:2|0:2,0:0:0:0:
452,236,14232,2,0,P|400:244|348:228,1,100,8|2,0:0|0:2,0:0:0:0:
136,176,14617,5,2,0:2:0:0:
136,176,14713,2,0,P|180:148|240:144,1,100,2|2,0:2|0:2,0:0:0:0:
248,160,15001,2,0,P|220:116|236:64,1,100,8|2,0:0|0:2,0:0:0:0:
444,44,15386,5,2,0:2:0:0:
376,184,15578,1,2,0:2:0:0:
276,68,15771,2,0,L|264:20,3,50,8|0|0|0,0:0|0:0|0:0|0:0,0:0:0:0:
240,44,16155,5,2,0:2:0:0:
208,60,16251,2,0,P|160:72|112:60,1,100,2|2,0:2|0:2,0:0:0:0:
32,20,16540,2,0,P|40:48|32:80,1,50,8|0,0:0|0:0,0:0:0:0:
16,140,16732,2,0,P|12:164|16:192,1,50,2|0,0:2|0:0,0:0:0:0:
112,336,16924,5,2,0:2:0:0:
120,304,17021,2,0,P|124:256|108:200,1,100,2|2,0:2|0:2,0:0:0:0:
144,132,17309,2,0,L|200:136,1,50,8|0,0:0|0:0,0:0:0:0:
252,192,17501,2,0,L|308:196,1,50,2|0,0:2|0:0,0:0:0:0:
360,344,17694,5,2,0:2:0:0:
392,352,17790,2,0,P|440:348|472:308,1,100
440,232,18078,2,0,P|432:204|432:180,1,50
500,132,18271,2,0,P|499:107|491:83,1,50,2|0,0:2|0:0,0:0:0:0:
484,8,18463,5,2,0:2:0:0:
356,24,18655,1,2,0:2:0:0:
500,132,18847,1,8,0:0:0:0:
312,164,19040,2,0,L|260:172,1,50
236,192,19232,5,2,0:2:0:0:
236,192,19328,2,0,L|344:172,1,100,2|2,0:2|0:2,0:0:0:0:
368,184,19617,2,0,P|388:232|384:284,1,100,8|2,0:0|0:2,0:0:0:0:
156,160,20001,5,2,0:2:0:0:
156,160,20097,2,0,P|196:112|232:104,1,100,2|2,0:2|0:2,0:0:0:0:
260,84,20386,2,0,L|156:68,1,100,8|2,0:0|0:2,0:0:0:0:
48,260,20771,5,2,0:2:0:0:
48,260,20867,2,0,P|92:276|152:260,1,100,2|2,0:2|0:2,0:0:0:0:
164,292,21155,2,0,L|268:304,1,100,8|2,0:0|0:2,0:0:0:0:
464,344,21540,5,2,0:2:0:0:
484,316,21636,1,0,0:0:0:0:
484,280,21732,1,2,0:2:0:0:
468,248,21828,1,0,0:0:0:0:
440,228,21924,1,8,0:0:0:0:
424,196,22021,1,0,0:0:0:0:
432,160,22117,1,0,0:0:0:0:
452,132,22213,1,0,0:0:0:0:
464,100,22309,6,0,L|456:52,1,40,0|0,1:0|0:0,0:0:0:0:
392,24,22501,2,0,P|368:20|344:20,1,40,0|0,0:0|0:0,0:0:0:0:
280,48,22694,2,0,P|236:56|192:48,1,80,0|0,1:0|0:0,0:0:0:0:
128,80,22982,2,0,P|88:76|48:80,2,80,0|0|0,0:0|0:0|0:0,0:0:0:0:
196,136,23463,1,0,1:0:0:0:
84,36,23655,1,0,0:0:0:0:
48,180,23847,5,0,1:0:0:0:
176,44,24040,1,0,0:0:0:0:
136,208,24232,2,0,L|128:256,2,40,0|0|0,1:0|0:0|0:0,0:0:0:0:
344,180,24617,2,0,P|300:168|256:180,1,80,0|0,1:0|0:0,0:0:0:0:
248,184,24905,1,0,0:0:0:0:
236,208,25001,2,0,L|228:284,1,50
284,316,25194,2,0,L|280:372,1,50
372,360,25386,5,2,0:0:0:0:
372,360,25482,1,0,0:0:0:0:
372,360,25578,1,0,0:0:0:0:
456,200,25771,1,8,0:0:0:0:
456,200,25867,1,0,0:0:0:0:
456,200,25963,1,0,0:0:0:0:
492,360,26155,1,2,0:0:0:0:
492,360,26251,1,0,0:0:0:0:
492,360,26347,1,0,0:0:0:0:
348,184,26540,1,8,0:0:0:0:
348,184,26636,1,0,0:0:0:0:
348,184,26732,1,0,0:0:0:0:
200,336,26924,5,2,0:0:0:0:
200,336,27021,1,0,0:0:0:0:
200,336,27117,1,0,0:0:0:0:
388,272,27309,1,10,0:0:0:0:
388,272,27405,1,0,0:0:0:0:
388,272,27501,1,0,0:0:0:0:
240,132,27694,2,0,P|192:120|136:128,1,100,2|2,0:0|0:0,0:0:0:0:
112,140,27982,1,0,0:0:0:0:
112,140,28078,2,0,P|128:96|116:44,1,100,10|2,0:0|0:0,0:0:0:0:
32,184,28463,6,0,L|36:232,1,40,0|0,1:0|0:0,0:0:0:0:
76,286,28655,2,0,P|95:297|121:301,1,40,0|0,0:0|0:0,0:0:0:0:
178,269,28847,2,0,L|263:276,1,80,0|0,1:0|0:0,0:0:0:0:
316,324,29136,2,0,P|332:284|328:248,2,80,0|0|0,0:0|0:0|0:0,0:0:0:0:
244,360,29617,1,0,1:0:0:0:
396,336,29809,1,0,0:0:0:0:
308,160,30001,5,2,1:2:0:0:
300,188,30097,1,2,0:2:0:0:
300,216,30194,2,0,P|340:240|384:236,1,80,2|0,0:2|1:0,0:0:0:0:
448,212,30482,2,0,L|496:220,2,40,0|2|0,0:0|0:2|0:0,0:0:0:0:
436,136,30771,1,2,1:2:0:0:
432,108,30867,1,2,0:2:0:0:
436,80,30963,1,2,0:2:0:0:
448,56,31059,1,0,0:0:0:0:
468,36,31155,2,0,L|424:24,1,40,2|0,1:2|0:0,0:0:0:0:
336,76,31347,2,0,L|284:84,1,40
216,32,31540,5,2,0:0:0:0:
216,32,31636,1,0,0:0:0:0:
216,32,31732,1,0,0:0:0:0:
340,176,31924,1,8,0:0:0:0:
340,176,32021,1,0,0:0:0:0:
340,176,32117,1,0,0:0:0:0:
140,56,32309,1,2,0:0:0:0:
140,56,32405,1,0,0:0:0:0:
140,56,32501,1,0,0:0:0:0:
176,236,32694,1,8,0:0:0:0:
176,236,32790,1,0,0:0:0:0:
176,236,32886,1,0,0:0:0:0:
64,36,33078,5,2,0:0:0:0:
64,36,33174,1,0,0:0:0:0:
64,36,33271,1,0,0:0:0:0:
8,204,33463,1,10,0:0:0:0:
8,204,33559,1,0,0:0:0:0:
8,204,33655,1,0,0:0:0:0:
132,356,33847,2,0,P|184:368|244:296,1,150,2|0,0:0|0:0,0:0:0:0:
212,268,34232,2,0,P|248:304|300:292,1,100,10|2,0:0|0:0,0:0:0:0:
492,224,34617,5,0,0:0:0:0:
468,196,34713,1,0,0:0:0:0:
436,184,34809,1,0,0:0:0:0:
400,180,34905,2,0,P|364:204|360:272,1,100
320,324,35194,2,0,L|264:332,1,50
160,360,35386,5,0,0:0:0:0:
124,356,35482,1,0,0:0:0:0:
96,336,35578,1,0,0:0:0:0:
80,308,35674,2,0,P|92:268|80:208,1,100
48,144,35963,2,0,P|40:116|44:88,1,50
160,44,36155,6,0,P|204:56|264:48,1,100
328,24,36444,2,0,P|384:16|432:24,1,100
484,76,36732,2,0,L|492:136,1,50
456,192,36924,1,0,0:0:0:0:
504,4,37117,1,0,0:0:0:0:
388,152,37309,2,0,P|380:216|440:272,1,150,8|0,0:0|0:0,0:0:0:0:
484,336,37694,5,0,0:0:0:0:
452,348,37790,1,0,0:0:0:0:
420,360,37886,1,0,0:0:0:0:
388,372,37982,2,0,P|344:344|296:344,1,100
224,352,38271,2,0,L|168:348,1,50
56,280,38463,5,0,0:0:0:0:
92,276,38559,1,0,0:0:0:0:
124,260,38655,1,0,0:0:0:0:
148,236,38751,2,0,P|168:188|160:136,1,100
128,72,39040,2,0,P|96:60|72:60,1,50
204,72,39232,6,0,P|256:72|304:32,1,100
368,24,39521,2,0,L|472:36,1,100
496,116,39809,2,0,L|440:112,1,50
376,288,40001,1,0,0:0:0:0:
320,152,40194,1,0,0:0:0:0:
504,252,40386,2,0,P|440:272|352:264,1,150,8|0,0:0|0:0,0:0:0:0:
292,232,40771,5,0,0:0:0:0:
256,260,40867,1,0,0:0:0:0:
212,264,40963,1,0,0:0:0:0:
168,248,41059,2,0,P|168:188|144:152,1,100
72,132,41347,2,0,P|40:144|16:164,1,50
104,328,41540,6,0,P|152:344|220:336,1,100
276,324,41828,2,0,P|324:312|384:328,1,100
448,356,42117,2,0,L|460:304,1,50
476,80,42309,6,0,B|480:188,1,100
392,152,42597,2,0,L|380:272,1,100
296,176,42886,2,0,L|280:236,1,50
204,196,43078,1,0,0:0:0:0:
324,84,43271,1,0,0:0:0:0:
272,260,43463,2,0,P|224:280|176:280,1,100,8|0,0:0|0:0,0:0:0:0:
76,48,43847,5,0,0:0:0:0:
116,28,43944,1,0,0:0:0:0:
160,28,44040,1,0,0:0:0:0:
196,56,44136,2,0,L|252:48,2,50,0|8|0,0:0|0:0|0:0,0:0:0:0:
140,124,44424,2,0,L|92:140,1,50
188,232,44617,6,0,L|200:184,2,50,0|0|0,0:0|0:0|0:0,0:0:0:0:
112,280,44905,2,0,L|64:264,2,50,0|8|0,0:0|0:0|0:0,0:0:0:0:
192,320,45194,2,0,L|256:312,1,50
436,264,45386,6,0,L|448:204,2,50,0|0|0,0:0|0:0|0:0,0:0:0:0:
364,320,45674,2,0,L|376:376,1,50,0|8,0:0|0:0,0:0:0:0:
304,248,45867,1,0,0:0:0:0:
304,248,45963,2,0,L|308:176,1,50
448,136,46155,5,8,0:0:0:0:
504,256,46347,1,8,0:0:0:0:
472,56,46540,2,0,B|416:28|360:60|360:60|408:80,1,150,8|0,0:0|0:0,0:0:0:0:
304,120,46924,6,0,P|280:84|280:40,1,80,0|0,1:0|0:0,0:0:0:0:
108,100,47309,2,0,P|104:144|84:180,1,80,0|0,1:0|0:0,0:0:0:0:
52,244,47597,2,0,P|44:288|56:332,1,80
120,360,47886,2,0,L|168:364,1,40
224,312,48078,2,0,L|312:308,1,80,0|0,1:0|0:0,0:0:0:0:
472,176,48463,6,0,L|476:236,2,40,0|0|0,1:0|0:0|0:0,0:0:0:0:
392,144,48751,1,0,0:0:0:0:
392,144,48847,2,0,L|396:252,1,80,0|0,1:0|0:0,0:0:0:0:
432,292,49136,2,0,P|476:296|516:288,2,80,0|0|0,0:0|0:0|0:0,0:0:0:0:
352,288,49617,1,0,1:0:0:0:
308,280,49713,1,0,0:0:0:0:
268,296,49809,1,0,1:0:0:0:
248,336,49905,1,0,1:0:0:0:
252,380,50001,6,0,L|200:352,2,50,2|0|0,0:0|0:0|0:0,0:0:0:0:
56,384,50386,2,0,L|89:341,2,50,8|0|0,0:0|0:0|0:0,0:0:0:0:
24,196,50771,2,0,L|66:223,2,50,2|0|0,0:0|0:0|0:0,0:0:0:0:
181,116,51155,2,0,L|171:165,2,50,8|0|0,0:0|0:0|0:0,0:0:0:0:
307,257,51540,6,0,L|259:247,2,50,2|0|0,0:0|0:0|0:0,0:0:0:0:
456,344,51924,2,0,L|508:340,2,50,10|0|0,0:0|0:0|0:0,0:0:0:0:
452,148,52309,2,0,L|452:92,2,50,10|0|0,0:0|0:0|0:0,0:0:0:0:
420,180,52597,1,0,0:0:0:0:
376,184,52694,1,8,0:0:0:0:
332,188,52790,1,0,0:0:0:0:
288,192,52886,1,0,0:0:0:0:
72,72,53078,6,0,L|56:24,2,40,4|0|0,1:0|0:0|0:0,0:0:0:0:
32,140,53367,2,0,P|72:152|144:104,1,120
408,40,53847,2,0,P|364:24|328:32,1,53.3333333333333,0|0,1:0|0:0,0:0:0:0:
376,184,54136,2,0,P|409:162|434:131,1,80
280,92,54424,2,0,P|278:111|284:131,1,40
312,236,54617,5,0,1:0:0:0:
304,272,54713,1,0,0:0:0:0:
308,308,54809,2,0,L|320:356,1,40
224,304,55001,2,0,L|236:252,2,40,0|0|0,1:0|0:0|0:0,0:0:0:0:
152,344,55290,2,0,L|104:336,2,40,0|0|0,0:0|1:0|0:0,0:0:0:0:
32,368,55578,2,0,L|24:268,1,80,0|0,0:0|1:0,0:0:0:0:
28,96,55963,5,0,0:0:0:0:
36,132,56059,1,0,0:0:0:0:
64,152,56155,2,0,L|48:200,2,50,2|0|0,0:0|0:0|0:0,0:0:0:0:
168,20,56540,1,8,0:0:0:0:
168,20,56636,1,0,0:0:0:0:
168,20,56732,1,0,0:0:0:0:
176,184,56924,2,0,L|180:240,1,50,2|0,0:0|0:0,0:0:0:0:
96,224,57117,1,0,0:0:0:0:
256,108,57309,1,8,0:0:0:0:
256,108,57405,1,0,0:0:0:0:
256,108,57501,1,0,0:0:0:0:
452,245,57694,6,0,L|460:187,1,50,2|0,0:0|0:0,0:0:0:0:
407,272,57886,2,0,L|416:214,1,50,0|0,0:0|0:0,0:0:0:0:
362,298,58078,2,0,L|371:241,1,50,10|0,0:0|0:0,0:0:0:0:
322,321,58271,2,0,L|331:263,1,50,0|0,0:0|0:0,0:0:0:0:
180,244,58463,6,0,L|240:252,1,50,2|0,0:0|0:0,0:0:0:0:
132,320,58655,2,0,L|120:376,1,50,0|0,0:0|0:0,0:0:0:0:
52,280,58847,2,0,L|-8:272,1,50,10|8,0:0|0:0,0:0:0:0:
96,204,59039,2,0,L|108:148,1,50,10|8,0:0|0:0,0:0:0:0:
304,104,59232,6,0,P|352:120|412:96,1,100,4|0,0:0|0:0,0:0:0:0:
440,44,59521,2,0,L|456:160,1,100,2|0,0:2|0:0,0:0:0:0:
396,248,59809,2,0,L|392:192,1,50,2|0,0:2|0:0,0:0:0:0:
460,344,60001,6,0,P|412:360|360:356,1,100,2|0,0:2|0:0,0:0:0:0:
292,328,60290,2,0,P|248:316|188:324,1,100,2|0,0:2|0:0,0:0:0:0:
40,348,60578,2,0,L|-20:340,1,50,2|0,0:2|0:0,0:0:0:0:
120,360,60771,6,0,L|128:248,1,100,2|0,0:2|0:0,0:0:0:0:
72,200,61059,2,0,P|120:180|168:188,1,100,2|0,0:2|0:0,0:0:0:0:
332,212,61347,2,0,L|396:208,1,50,2|0,0:2|0:0,0:0:0:0:
208,288,61540,5,2,0:2:0:0:
212,108,61732,1,2,0:2:0:0:
332,212,61924,2,0,L|448:204,1,100,8|0,0:0|0:0,0:0:0:0:
488,256,62213,1,0,0:0:0:0:
488,256,62309,1,0,0:0:0:0:
376,120,62501,5,2,0:2:0:0:
312,316,62694,2,0,L|416:308,1,100,8|2,0:0|0:2,0:0:0:0:
256,88,63078,2,0,P|216:60|152:64,1,100,2|0,0:2|0:0,0:0:0:0:
104,108,63367,2,0,P|99:156|135:210,1,100,2|0,0:2|0:0,0:0:0:0:
220,216,63655,2,0,P|224:192|208:148,1,50,2|0,0:2|0:0,0:0:0:0:
72,268,63847,5,2,0:2:0:0:
220,216,64040,1,2,0:2:0:0:
220,216,64136,1,0,0:0:0:0:
220,216,64232,1,8,0:0:0:0:
336,344,64424,1,2,0:2:0:0:
482,306,64617,2,0,L|494:366,1,50,2|0,0:2|0:0,0:0:0:0:
488,232,64809,2,0,L|500:292,1,50
497,157,65001,2,0,L|509:217,1,50,8|0,0:0|0:0,0:0:0:0:
498,78,65193,2,0,L|510:138,1,50
416,44,65386,6,0,P|368:72|324:64,1,100,2|0,0:2|0:0,0:0:0:0:
256,32,65674,2,0,L|152:24,1,100,2|0,0:2|0:0,0:0:0:0:
68,100,65963,2,0,L|120:104,1,50,2|0,0:2|0:0,0:0:0:0:
192,240,66155,6,0,P|208:196|200:128,1,100,2|0,0:2|0:0,0:0:0:0:
108,280,66444,2,0,P|138:315|200:342,1,100,2|0,0:2|0:0,0:0:0:0:
116,188,66732,2,0,P|88:188|56:204,1,50,2|0,0:2|0:0,0:0:0:0:
192,240,66924,6,0,P|240:244|300:240,1,100,2|0,0:2|0:0,0:0:0:0:
360,284,67213,2,0,P|409:281|459:285,1,100,2|0,0:2|0:0,0:0:0:0:
288,326,67501,2,0,L|292:376,1,50,2|0,0:2|0:0,0:0:0:0:
416,208,67694,5,2,0:2:0:0:
364,364,67886,1,2,0:2:0:0:
200,336,68078,2,0,B|144:356|88:308|88:308|68:356,1,150,8|0,0:0|0:0,0:0:0:0:
8,364,68463,5,2,0:2:0:0:
8,364,68559,1,2,0:2:0:0:
80,192,68751,1,2,0:2:0:0:
80,192,68847,1,2,0:2:0:0:
200,336,69040,1,2,0:2:0:0:
96,296,69232,1,2,0:2:0:0:
96,296,69328,1,2,0:2:0:0:
268,252,69521,1,2,0:2:0:0:
268,252,69617,1,2,0:2:0:0:
408,344,69809,1,2,0:2:0:0:
496,208,70001,6,0,P|504:156|496:100,1,100,8|0,0:0|0:0,0:0:0:0:
320,28,70386,2,0,P|312:80|320:132,1,100,8|0,0:0|0:0,0:0:0:0:
156,176,70771,2,0,L|48:168,1,100,8|0,0:0|0:0,0:0:0:0:
232,336,71155,2,0,L|348:324,1,100,8|0,0:0|0:0,0:0:0:0:
476,196,71540,5,0,0:0:0:0:
484,164,71636,1,0,0:0:0:0:
480,128,71732,1,0,0:0:0:0:
460,100,71828,1,0,0:0:0:0:
428,88,71924,1,0,0:0:0:0:
392,88,72021,1,0,0:0:0:0:
360,104,72117,1,0,0:0:0:0:
340,132,72213,1,0,0:0:0:0:
332,168,72309,2,0,L|344:228,3,50,0|0|0|0,0:0|0:0|0:0|0:0,0:0:0:0:
248,96,72694,2,0,L|264:40,3,50,0|0|0|0,0:0|0:0|0:0|0:0,0:0:0:0:
160,152,73078,6,0,L|140:180,14,25,0|0|0|0|0|0|0|0|0|0|0|0|0|0|0,0:0|0:0|0:0|0:0|0:0|0:0|0:0|0:0|0:0|0:0|0:0|0:0|0:0|0:0|0:0,0:0:0:0:
164,64,73847,6,0,P|124:52|84:56,1,75,2|0,0:0|0:0,0:0:0:0:
24,100,74232,6,0,B|32:140|35:178|35:178|16:220|32:264|32:264|100:312,1,225.000008583069,2|0,0:0|0:0,0:0:0:0:
238,336,74617,5,0,0:0:0:0:
316,350,74745,1,0,0:0:0:0:
390,322,74873,1,0,0:0:0:0:
421,248,75001,1,0,0:0:0:0:
417,168,75129,1,0,0:0:0:0:
366,105,75258,1,0,0:0:0:0:
287,86,75386,1,0,0:0:0:0:
214,120,75514,1,0,0:0:0:0:
183,193,75642,1,0,0:0:0:0:
200,272,75771,6,0,P|172:309|136:304,1,83.3333333333333,0|0,0:0|0:0,0:0:0:0:
85,260,76155,5,0,0:0:0:0:
37,194,76283,1,0,0:0:0:0:
37,115,76412,1,0,0:0:0:0:
85,49,76540,1,0,0:0:0:0:
162,25,76668,1,0,0:0:0:0:
238,49,76796,1,0,0:0:0:0:
286,115,76924,1,0,0:0:0:0:
286,195,77053,1,0,0:0:0:0:
238,260,77181,1,0,0:0:0:0:
162,285,77309,6,0,P|172:328|212:344,1,83.3333333333333,0|0,0:0|0:0,0:0:0:0:
276,342,77694,5,0,0:0:0:0:
355,327,77822,1,0,0:0:0:0:
437,335,77950,1,0,0:0:0:0:
510,368,78078,1,0,0:0:0:0:
499,288,78206,1,0,0:0:0:0:
496,208,78335,1,0,0:0:0:0:
510,129,78463,5,0,0:0:0:0:
457,66,78591,1,0,0:0:0:0:
377,66,78719,1,0,0:0:0:0:
297,94,78847,1,0,0:0:0:0:
216,116,78976,1,0,0:0:0:0:
136,107,79104,1,0,0:0:0:0:
54,75,79232,6,0,L|62:162,1,66.6666666666667
12,204,79488,1,0,0:0:0:0:
60,320,79617,2,0,L|124:344,1,66.6666666666667
200,312,79873,1,0,0:0:0:0:
344,352,80001,6,0,P|372:320|340:292,1,83.3333333333333
320,360,80386,6,0,P|380:356|316:288,1,200.000007629395,8|0,0:0|0:0,0:0:0:0:
168,316,80771,5,0,0:0:0:0:
88,336,80899,1,0,0:0:0:0:
24,288,81027,1,0,0:0:0:0:
35,201,81155,2,0,P|67:197|107:205,2,66.6666666666667,8|0|0,0:0|0:0|0:0,0:0:0:0:
14,117,81540,1,0,0:0:0:0:
82,66,81668,1,0,0:0:0:0:
172,71,81796,1,0,0:0:0:0:
240,132,81924,6,0,P|256:176|232:212,1,83.3333333333333,8|0,0:0|0:0,0:0:0:0:
256,276,82309,5,0,0:0:0:0:
320,324,82437,1,0,0:0:0:0:
400,332,82565,1,0,0:0:0:0:
480,312,82694,2,0,L|492:380,2,66.6666666666667,8|0|0,0:0|0:0|0:0,0:0:0:0:
500,168,83078,2,0,L|484:232,1,66.6666666666667
500,88,83335,1,0,0:0:0:0:
428,40,83463,6,0,P|388:36|344:48,1,83.3333333333333,8|0,0:0|0:0,0:0:0:0:
276,64,83847,5,0,0:0:0:0:
200,96,83976,1,0,0:0:0:0:
136,48,84104,1,0,0:0:0:0:
60,76,84232,2,0,L|40:8,2,66.6666666666667,8|0|0,0:0|0:0|0:0,0:0:0:0:
56,216,84617,2,0,L|40:152,1,66.6666666666667,0|0,0:0|0:0,0:0:0:0:
24,292,84873,1,0,0:0:0:0:
100,316,85001,2,0,P|101:357|92:384,2,66.6666666666667,8|0|0,0:0|0:0|0:0,0:0:0:0:
172,284,85386,5,0,0:0:0:0:
228,228,85514,1,0,0:0:0:0:
308,236,85642,1,0,0:0:0:0:
364,292,85771,1,8,0:0:0:0:
440,316,85899,1,0,0:0:0:0:
512,280,86027,1,0,0:0:0:0:
512,200,86155,6,0,P|512:160|488:120,1,83.3333333333333
420,124,86540,6,0,P|492:96|412:64,1,200.000007629395,8|0,0:0|0:0,0:0:0:0:
256,72,86924,5,8,0:0:0:0:
256,72,87053,1,0,0:0:0:0:
256,72,87181,1,0,0:0:0:0:
256,72,87309,1,8,0:0:0:0:
256,312,87694,5,8,0:0:0:0:
256,312,87823,1,0,0:0:0:0:
256,312,87951,1,0,0:0:0:0:
256,312,88079,1,8,0:0:0:0:
256,72,88463,5,8,0:0:0:0:
180,96,88591,1,0,0:0:0:0:
124,152,88719,1,0,0:0:0:0:
124,232,88847,1,8,0:0:0:0:
180,288,88975,1,0,0:0:0:0:
256,312,89103,1,0,0:0:0:0:
332,288,89232,6,0,P|376:272|424:280,1,75,0|0,0:0|0:0,0:0:0:0:
476,304,89617,6,0,P|516:260|404:204,1,225.000008583069,2|0,0:0|0:0,0:0:0:0:
332,204,90001,5,2,0:2:0:0:
332,204,90097,2,0,P|280:212|232:204,1,100,2|2,0:2|0:2,0:0:0:0:
164,172,90386,2,0,P|116:164|60:172,1,100,8|2,0:0|0:2,0:0:0:0:
40,336,90771,5,2,0:2:0:0:
40,336,90867,2,0,L|140:328,1,100,2|2,0:2|0:2,0:0:0:0:
216,348,91155,2,0,P|272:360|328:344,1,100,8|2,0:0|0:2,0:0:0:0:
428,268,91540,6,0,L|420:152,1,100,2|0,0:2|0:0,0:0:0:0:
403,90,91828,2,0,L|474:98,2,50,0|8|0,0:0|0:0|0:0,0:0:0:0:
328,64,92117,2,0,L|278:59,1,50,2|0,0:2|0:0,0:0:0:0:
316,144,92309,5,2,0:2:0:0:
436,24,92501,1,2,0:2:0:0:
316,160,92694,1,8,0:0:0:0:
148,104,92886,1,0,0:0:0:0:
200,312,93078,5,2,0:2:0:0:
200,312,93174,2,0,P|208:264|160:240,1,100,2|2,0:2|0:2,0:0:0:0:
128,340,93463,2,0,L|248:356,1,100,8|0,0:0|0:2,0:0:0:0:
480,296,93847,5,2,0:2:0:0:
480,296,93944,2,0,L|380:308,1,100,2|2,0:2|0:2,0:0:0:0:
340,360,94232,2,0,P|348:304|332:252,1,100,8|2,0:0|0:2,0:0:0:0:
240,52,94617,6,0,P|216:96|172:120,1,100,2|0,0:2|0:0,0:0:0:0:
94,118,94905,2,0,P|66:115|34:122,2,50,0|8|0,0:0|0:0|0:0,0:0:0:0:
104,248,95194,2,0,P|104:212|96:184,1,50,2|0,0:2|0:0,0:0:0:0:
36,328,95386,5,2,0:2:0:0:
72,328,95482,1,0,0:0:0:0:
108,328,95578,1,2,0:2:0:0:
144,328,95674,1,0,0:0:0:0:
172,348,95771,1,10,0:0:0:0:
208,348,95867,1,0,0:0:0:0:
244,348,95963,1,0,0:0:0:0:
280,348,96059,1,0,0:0:0:0:
316,364,96155,6,0,L|368:368,2,50,2|2|0,0:2|0:2|0:0,0:0:0:0:
440,344,96444,2,0,P|456:304|436:244,1,100,2|0,0:2|0:0,0:0:0:0:
372,196,96732,2,0,L|364:136,1,50,2|0,0:2|0:0,0:0:0:0:
460,12,96924,6,0,P|464:56|428:104,1,100,2|0,0:2|0:0,0:0:0:0:
365,146,97213,2,0,L|312:141,2,50,2|8|0,0:2|0:0|0:0,0:0:0:0:
185,158,97501,2,0,L|245:166,1,50,2|0,0:2|0:0,0:0:0:0:
65,107,97694,6,0,P|74:160|66:205,1,100,2|0,0:2|0:0,0:0:0:0:
47,279,97982,2,0,L|53:337,2,50,0|8|0,0:0|0:0|0:0,0:0:0:0:
127,356,98271,2,0,L|135:304,1,50,2|0,0:2|0:0,0:0:0:0:
218,347,98463,5,2,0:2:0:0:
315,217,98655,1,2,0:2:0:0:
312,379,98847,1,8,0:0:0:0:
219,247,99040,1,0,0:0:0:0:
372,299,99232,5,0,0:2:0:0:
406,305,99328,1,0,0:2:0:0:
440,299,99424,1,2,0:2:0:0:
468,278,99521,2,0,P|485:234|488:175,1,100,2|0,0:2|0:0,0:0:0:0:
488,104,99809,2,0,L|500:48,1,50,2|0,0:2|0:0,0:0:0:0:
288,56,100001,6,0,L|296:156,1,100,2|0,0:2|0:0,0:0:0:0:
232,208,100290,2,0,P|184:220|128:212,1,100,2|0,0:2|0:0,0:0:0:0:
28,168,100578,2,0,L|88:156,1,50,2|0,0:2|0:0,0:0:0:0:
64,332,100771,5,2,0:2:0:0:
64,332,100867,2,0,P|24:320|56:256,1,100,2|0,0:2|0:0,0:0:0:0:
172,124,101155,2,0,L|176:248,1,100,8|2,0:0|0:2,0:0:0:0:
220,296,101444,1,0,0:0:0:0:
296,348,101540,6,0,L|380:352,1,75.0000028610231,2|0,0:2|0:0,0:0:0:0:
480,180,101732,2,0,L|400:176,1,75.0000028610231,2|0,0:2|0:0,0:0:0:0:
256,32,101924,1,10,0:0:0:0:
