osu file format v13

[General]
AudioFilename: dadadadadadadadadada.mp3
AudioLeadIn: 0
PreviewTime: 74232
Countdown: 0
SampleSet: Normal
StackLeniency: 0.7
Mode: 0
LetterboxInBreaks: 0
SkinPreference:Default
WidescreenStoryboard: 1

[Editor]
DistanceSpacing: 1.2
BeatDivisor: 3
GridSize: 4
TimelineZoom: 2.100001

[Metadata]
Title:Dadadadadadadadadada
TitleUnicode:打打打打打打打打打打
Artist:Hige Driver join. SELEN
ArtistUnicode:ヒゲドライバー join. SELEN
Creator:spboxer3
Version:HARD
Source:REFLEC BEAT groovin'!!
Tags:kiddly Loneight BakaHuang Flask Oracle
BeatmapID:490679
BeatmapSetID:206750

[Difficulty]
HPDrainRate:5
CircleSize:4
OverallDifficulty:6
ApproachRate:8
SliderMultiplier:1.6
SliderTickRate:1

[Events]
//Background and Video events
0,0,"BG.jpg",0,0
//Break Periods
//Storyboard Layer 0 (Background)
//Storyboard Layer 1 (Fail)
//Storyboard Layer 2 (Pass)
//Storyboard Layer 3 (Foreground)
//Storyboard Sound Samples
//Background Colour Transformations
3,100,163,162,255

[TimingPoints]
771,384.615384615385,4,1,18,80,1,0
71540,-100,4,1,18,60,0,0
73078,-125,4,1,18,80,0,0
73847,-125,4,1,2,80,0,0
74617,-100,4,1,18,80,0,1
76027,-100,4,2,0,5,0,1
76155,-100,4,1,18,80,0,1
77565,-100,4,2,0,5,0,1
77694,-100,4,1,18,80,0,1
86540,-100,4,1,18,80,0,0
86924,-100,4,1,18,80,0,1
89521,-100,4,1,18,80,0,0
89617,-100,4,1,18,80,0,1
89713,-100,4,1,18,80,0,0

[Colours]
Combo1 : 183,111,255
Combo2 : 255,128,64
Combo3 : 128,191,255
Combo4 : 255,136,196

[HitObjects]
384,200,8463,6,0,L|397:275,2,53.3333333333333,4|0|4,0:0|0:0|0:0,0:0:0:0:
329,139,8847,2,0,L|257:111,2,53.3333333333333,4|0|4,0:0|0:0|0:0,0:0:0:0:
409,123,9232,2,0,L|469:74,2,53.3333333333333,4|0|4,0:0|0:0|0:0,0:0:0:0:
384,200,9617,2,0,P|392:280|420:328,1,120,4|0,0:0|0:0,0:0:0:0:
452,336,10001,5,0,0:0:0:0:
452,336,10097,2,0,P|412:336|372:348,1,80,8|0,0:0|0:0,0:0:0:0:
480,192,10578,1,8,0:0:0:0:
384,200,10771,5,0,0:0:0:0:
384,200,10867,2,0,P|349:220|320:250,1,80,8|0,0:0|0:0,0:0:0:0:
336,61,11348,1,8,0:0:0:0:
256,112,11540,5,0,0:0:0:0:
256,112,11636,2,0,P|236:146|226:187,1,80,8|0,0:0|0:0,0:0:0:0:
145,16,12117,1,8,0:0:0:0:
76,84,12309,6,0,P|75:123|88:163,1,80,8|4,0:0|0:0,0:0:0:0:
160,228,12694,2,0,P|160:288|120:340,1,120,2|0,0:0|0:0,0:0:0:0:
80,344,13078,5,0,0:0:0:0:
80,344,13174,2,0,L|176:356,1,80,8|0,0:0|0:0,0:0:0:0:
48,224,13655,1,8,0:0:0:0:
140,200,13847,5,0,0:0:0:0:
140,200,13943,2,0,L|217:258,1,80,8|0,0:0|0:0,0:0:0:0:
172,80,14424,1,8,0:0:0:0:
264,112,14617,5,0,0:0:0:0:
264,112,14713,2,0,L|301:201,1,80,8|0,0:0|0:0,0:0:0:0:
351,24,15194,1,8,0:0:0:0:
420,92,15386,6,0,L|408:188,1,80,8|4,0:0|0:0,0:0:0:0:
428,268,15771,2,0,P|480:256|484:328,1,120,2|0,0:0|0:0,0:0:0:0:
468,344,16155,5,0,0:0:0:0:
468,344,16251,2,0,L|380:340,1,80,8|0,0:0|0:0,0:0:0:0:
232,272,16732,1,8,0:0:0:0:
232,272,16924,5,0,0:0:0:0:
232,272,17020,2,0,L|320:268,1,80,8|0,0:0|0:0,0:0:0:0:
468,200,17501,1,8,0:0:0:0:
468,200,17694,5,0,0:0:0:0:
468,200,17790,2,0,L|380:196,1,80,8|0,0:0|0:0,0:0:0:0:
232,128,18271,1,8,0:0:0:0:
232,128,18463,6,0,L|320:124,1,80,8|4,0:0|0:0,0:0:0:0:
380,56,18847,2,0,L|244:44,1,120,2|0,0:0|0:0,0:0:0:0:
212,40,19232,5,0,0:0:0:0:
212,40,19328,2,0,L|112:48,1,80,8|0,0:0|0:0,0:0:0:0:
36,184,19809,1,8,0:0:0:0:
36,184,20001,5,0,0:0:0:0:
36,184,20097,2,0,L|136:192,1,80,8|0,0:0|0:0,0:0:0:0:
212,328,20578,1,8,0:0:0:0:
212,328,20771,5,0,0:0:0:0:
212,328,20867,2,0,L|312:320,1,80,8|0,0:0|0:0,0:0:0:0:
388,184,21348,1,8,0:0:0:0:
388,184,21540,6,0,L|288:176,1,80,8|4,0:0|0:0,0:0:0:0:
224,136,21924,2,0,P|216:80|236:16,1,120,2|0,0:0|0:0,0:0:0:0:
280,8,22309,5,0,0:0:0:0:
468,40,22694,1,0,0:0:0:0:
432,228,23078,1,0,0:0:0:0:
244,196,23463,1,0,0:0:0:0:
224,104,23655,1,0,0:0:0:0:
208,8,23847,5,0,0:0:0:0:
20,40,24232,1,0,0:0:0:0:
56,228,24616,1,0,0:0:0:0:
244,196,25001,1,0,0:0:0:0:
252,100,25194,5,0,0:0:0:0:
252,100,25290,1,0,0:0:0:0:
252,100,25386,2,0,P|288:88|344:96,1,80,4|0,0:0|0:0,0:0:0:0:
424,80,25771,2,0,P|464:64|520:72,1,80,8|0,0:0|0:0,0:0:0:0:
480,160,26155,2,0,L|492:260,1,80,4|0,0:0|0:0,0:0:0:0:
406,288,26540,2,0,L|394:188,1,80,4|0,0:0|0:0,0:0:0:0:
304,184,26924,6,0,L|316:284,1,80,4|0,0:0|0:0,0:0:0:0:
252,336,27309,2,0,P|216:344|156:332,1,80,8|0,0:0|0:0,0:0:0:0:
96,384,27694,2,0,L|84:300,1,80,4|0,0:0|0:0,0:0:0:0:
168,128,28078,2,0,P|176:192|160:252,1,120,8|0,0:0|0:0,0:0:0:0:
136,284,28463,5,0,0:0:0:0:
52,112,28847,1,0,0:0:0:0:
212,220,29232,1,0,0:0:0:0:
128,48,29617,1,0,0:0:0:0:
128,48,29809,1,0,0:0:0:0:
128,48,30001,5,0,0:0:0:0:
212,220,30385,1,0,0:0:0:0:
52,112,30770,1,0,0:0:0:0:
136,284,31155,1,2,0:0:0:0:
228,316,31347,5,0,0:0:0:0:
228,316,31444,1,0,0:0:0:0:
228,316,31540,2,0,P|264:320|312:312,1,80,4|0,0:0|0:0,0:0:0:0:
396,348,31924,2,0,L|392:264,1,80,8|0,0:0|0:0,0:0:0:0:
428,180,32309,2,0,P|392:176|344:184,1,80,4|0,0:0|0:0,0:0:0:0:
260,148,32693,2,0,L|264:232,1,80,4|0,0:0|0:0,0:0:0:0:
349,182,33078,6,0,L|345:98,1,80,4|0,0:0|0:0,0:0:0:0:
200,84,33463,1,8,0:0:0:0:
148,8,33655,1,0,0:0:0:0:
200,84,33847,2,0,P|120:100|76:76,1,120,4|8,0:0|0:0,0:0:0:0:
60,44,34232,1,0,0:0:0:0:
148,8,34424,1,0,0:0:0:0:
200,84,34617,5,0,0:0:0:0:
200,84,34713,2,0,L|196:176,1,80,8|0,0:0|0:0,0:0:0:0:
296,24,35194,1,8,0:0:0:0:
316,116,35386,5,0,0:0:0:0:
316,116,35482,2,0,L|266:193,1,80,8|0,0:0|0:0,0:0:0:0:
429,112,35963,1,8,0:0:0:0:
400,204,36155,5,0,0:0:0:0:
400,204,36251,2,0,L|318:246,1,80,8|0,0:0|0:0,0:0:0:0:
499,257,36732,1,8,0:0:0:0:
432,324,36924,6,0,L|340:320,1,80,8|4,0:0|0:0,0:0:0:0:
272,376,37309,2,0,P|216:384|128:364,1,120,2|0,0:0|0:0,0:0:0:0:
116,344,37694,5,0,0:0:0:0:
116,344,37790,2,0,L|104:256,1,80,8|0,0:0|0:0,0:0:0:0:
48,104,38271,1,8,0:0:0:0:
48,104,38463,5,0,0:0:0:0:
48,104,38559,2,0,L|136:92,1,80,8|0,0:0|0:0,0:0:0:0:
288,36,39040,1,8,0:0:0:0:
288,36,39232,5,0,0:0:0:0:
288,36,39328,2,0,L|300:124,1,80,8|0,0:0|0:0,0:0:0:0:
356,276,39809,1,8,0:0:0:0:
356,276,40001,6,0,L|268:288,1,80,8|4,0:0|0:0,0:0:0:0:
188,252,40386,1,2,0:0:0:0:
212,160,40578,1,0,0:0:0:0:
308,136,40771,6,0,L|332:172,2,40,0|8|0,0:0|0:0|0:0,0:0:0:0:
280,96,41059,2,0,P|224:72|144:92,1,120,0|8,0:0|0:0,0:0:0:0:
92,140,41540,6,0,L|44:120,2,40,0|8|0,0:0|0:0|0:0,0:0:0:0:
112,184,41828,2,0,P|88:232|100:304,1,120,0|8,0:0|0:0,0:0:0:0:
176,352,42309,6,0,L|216:376,2,40,0|8|0,0:0|0:0|0:0,0:0:0:0:
180,304,42597,2,0,P|244:284|304:300,1,120,0|8,0:0|0:0,0:0:0:0:
372,352,43078,5,8,0:0:0:0:
384,256,43271,1,4,0:0:0:0:
392,160,43463,2,0,L|380:56,1,80,2|0,0:0|0:0,0:0:0:0:
472,44,43847,6,0,L|520:56,2,40,0|8|0,0:0|0:0|0:0,0:0:0:0:
492,88,44136,2,0,P|500:148|496:216,1,120,0|8,0:0|0:0,0:0:0:0:
422,266,44617,6,0,L|374:254,2,40,0|8|0,0:0|0:0|0:0,0:0:0:0:
402,222,44906,2,0,P|394:162|398:94,1,120,0|8,0:0|0:0,0:0:0:0:
320,44,45386,6,0,L|272:56,2,40,0|8|0,0:0|0:0|0:0,0:0:0:0:
300,88,45675,2,0,P|292:148|296:216,1,120,0|8,0:0|0:0,0:0:0:0:
312,300,46155,5,8,0:0:0:0:
312,300,46347,1,8,0:0:0:0:
200,360,46540,2,0,P|136:364|52:352,1,120,2|0,0:0|0:0,0:0:0:0:
32,360,46924,5,0,0:0:0:0:
44,260,47309,1,0,0:0:0:0:
56,160,47694,1,0,0:0:0:0:
72,64,48078,1,0,0:0:0:0:
108,96,48271,1,0,0:0:0:0:
144,128,48463,5,0,0:0:0:0:
56,160,48847,1,0,0:0:0:0:
72,64,49232,1,0,0:0:0:0:
164,36,49617,1,0,0:0:0:0:
260,24,49809,5,0,0:0:0:0:
260,24,49905,1,0,0:0:0:0:
260,24,50001,2,0,L|356:16,1,80,4|0,0:0|0:0,0:0:0:0:
368,112,50386,2,0,L|272:104,1,80,8|0,0:0|0:0,0:0:0:0:
248,196,50771,2,0,L|344:188,1,80,4|0,0:0|0:0,0:0:0:0:
376,184,51059,1,0,0:0:0:0:
424,188,51155,2,0,L|503:194,1,80,4|0,0:0|0:0,0:0:0:0:
476,288,51540,6,0,L|397:282,1,80,4|0,0:0|0:0,0:0:0:0:
300,284,51924,2,0,L|220:290,1,80,8|0,0:0|0:0,0:0:0:0:
136,240,52309,2,0,P|124:276|132:332,1,80,4|0,0:0|0:0,0:0:0:0:
80,328,52597,2,0,P|104:260|92:204,1,120,4|0,0:0|0:0,0:0:0:0:
12,168,53078,5,0,0:0:0:0:
60,84,53463,1,0,0:0:0:0:
152,60,53847,1,0,0:0:0:0:
240,100,54232,1,0,0:0:0:0:
256,144,54424,1,0,0:0:0:0:
264,192,54617,5,0,0:0:0:0:
248,288,55001,1,0,0:0:0:0:
332,336,55386,1,0,0:0:0:0:
400,268,55771,1,0,0:0:0:0:
360,180,55963,5,2,0:0:0:0:
360,180,56059,1,0,0:0:0:0:
360,180,56155,2,0,P|392:172|456:188,1,80,4|0,0:0|0:0,0:0:0:0:
484,96,56540,2,0,P|461:72|442:8,1,80,8|0,0:0|0:0,0:0:0:0:
348,32,56924,2,0,P|338:63|293:111,1,80,4|0,0:0|0:0,0:0:0:0:
272,128,57213,1,0,0:0:0:0:
228,152,57309,2,0,P|188:160|148:152,1,80,4|0,0:0|0:0,0:0:0:0:
148,56,57694,6,0,P|184:48|240:64,1,80,4|0,0:0|0:0,0:0:0:0:
228,152,58078,2,0,L|216:288,1,120,8|0,0:0|0:0,0:0:0:0:
180,304,58463,1,4,0:0:0:0:
84,300,58655,2,0,L|44:292,4,40,8|8|8|8|8,0:0|0:0|0:0|0:0|0:0,0:0:0:0:
24,276,59136,1,0,0:0:0:0:
8,260,59232,6,0,P|0:216|20:128,1,120,4|8,0:0|0:0,0:0:0:0:
56,116,59617,2,0,L|144:128,1,80,0|8,0:0|0:0,0:0:0:0:
228,152,60001,2,0,L|360:128,1,120,4|8,0:0|0:0,0:0:0:0:
384,104,60386,2,0,P|388:68|380:20,1,80,0|8,0:0|0:0,0:0:0:0:
468,68,60771,6,0,L|476:224,1,120,4|8,0:0|0:0,0:0:0:0:
436,220,61155,2,0,P|392:228|348:224,1,80,0|8,0:0|0:0,0:0:0:0:
212,272,61540,2,0,P|256:272|308:292,1,80,4|8,0:0|0:0,0:0:0:0:
124,332,61924,2,0,P|104:268|132:204,1,120,4|0,0:0|0:0,0:0:0:0:
156,188,62309,5,4,0:0:0:0:
80,132,62501,2,0,L|-4:144,2,80,8|0|8,0:0|0:0|0:0,0:0:0:0:
132,52,63078,2,0,P|192:40|272:52,1,120,4|8,0:0|0:0,0:0:0:0:
292,72,63463,2,0,P|336:72|384:64,1,80,0|8,0:0|0:0,0:0:0:0:
460,28,63847,6,0,L|464:120,1,80,4|8,0:0|0:0,0:0:0:0:
403,259,64232,2,0,L|400:180,1,80,0|8,0:0|0:0,0:0:0:0:
448,344,64617,1,0,0:0:0:0:
448,344,64713,2,0,P|396:340|348:352,1,80,8|0,0:0|0:0,0:0:0:0:
324,364,65001,2,0,P|288:368|232:360,1,80,8|8,0:0|0:0,0:0:0:0:
148,376,65386,6,0,L|160:236,1,120,4|8,0:0|0:0,0:0:0:0:
132,216,65771,2,0,P|92:208|52:216,1,80,0|8,0:0|0:0,0:0:0:0:
32,120,66155,2,0,P|92:112|168:124,1,120,4|8,0:0|0:0,0:0:0:0:
196,132,66540,2,0,P|232:124|284:124,1,80,0|8,0:0|0:0,0:0:0:0:
352,64,66924,6,0,L|344:196,1,120,4|8,0:0|0:0,0:0:0:0:
364,228,67309,2,0,P|400:240|456:232,1,80,0|8,0:0|0:0,0:0:0:0:
508,168,67694,1,4,0:0:0:0:
496,72,67886,1,8,0:0:0:0:
412,20,68078,2,0,P|348:12|280:20,1,120,4|0,0:0|0:0,0:0:0:0:
256,48,68463,5,4,0:0:0:0:
256,48,68559,2,0,P|212:52|164:44,1,80,8|0,0:0|0:0,0:0:0:0:
32,64,69040,1,8,0:0:0:0:
96,136,69232,5,0,0:0:0:0:
96,136,69328,2,0,L|100:220,1,80,8|0,0:0|0:0,0:0:0:0:
212,308,69809,1,8,0:0:0:0:
276,236,70001,5,0,0:0:0:0:
276,236,70097,2,0,L|272:152,1,80,8|0,0:0|0:0,0:0:0:0:
396,84,70578,1,8,0:0:0:0:
472,144,70771,5,0,0:0:0:0:
472,144,70867,2,0,L|476:228,1,80,8|0,0:0|0:0,0:0:0:0:
352,296,71348,1,8,0:0:0:0:
276,236,71540,6,0,L|220:228,7,40,8|8|8|8|8|8|8|8,0:0|0:0|0:0|0:0|0:0|0:0|0:0|0:0,0:0:0:0:
192,252,72309,6,0,L|144:264,3,40,8|8|8|8,0:0|0:0|0:0|0:0,0:0:0:0:
104,264,72694,2,0,L|48:256,3,40,8|8|8|8,0:0|0:0|0:0|0:0,0:0:0:0:
32,228,73078,6,0,B|20:184|40:152|40:152|20:156|20:156|48:120|36:60,1,192,4|0,0:0|0:0,0:0:0:0:
104,32,73847,2,0,P|164:24|240:32,1,128,8|2,0:0|0:0,0:0:0:0:
376,112,74617,6,0,P|404:104|452:108,2,53.3333333333333,4|0|4,0:0|0:0|0:0,0:0:0:0:
304,148,75001,2,0,P|283:127|262:84,2,53.3333333333333,4|0|4,0:0|0:0|0:0,0:0:0:0:
372,192,75386,2,0,P|364:220|337:259,2,53.3333333333333,4|0|4,0:0|0:0|0:0,0:0:0:0:
304,148,75771,2,0,P|244:144|184:152,1,106.666666666667,4|0,0:0|0:0,0:0:0:0:
124,180,76155,6,0,L|60:176,2,53.3333333333333,4|0|4,0:0|0:0|0:0,0:0:0:0:
124,260,76540,2,0,L|61:272,2,53.3333333333333,4|0|4,0:0|0:0|0:0,0:0:0:0:
168,328,76924,2,0,L|110:356,2,53.3333333333333,4|0|4,0:0|0:0|0:0,0:0:0:0:
248,308,77309,2,0,L|372:324,1,106.666666666667,4|0,0:0|0:0,0:0:0:0:
432,304,77694,6,0,L|488:260,2,53.3333333333333,4|0|4,0:0|0:0|0:0,0:0:0:0:
404,228,78078,2,0,L|430:161,2,53.3333333333333,4|0|4,0:0|0:0|0:0,0:0:0:0:
344,172,78463,2,0,L|333:101,2,53.3333333333333,4|0|4,0:0|0:0|0:0,0:0:0:0:
264,164,78847,2,0,L|220:108,2,53.3333333333333,4|0|4,0:0|0:0|0:0,0:0:0:0:
192,196,79232,2,0,L|125:169,2,53.3333333333333,4|0|4,0:0|0:0|0:0,0:0:0:0:
148,264,79617,2,0,L|77:274,2,53.3333333333333,4|0|4,0:0|0:0|0:0,0:0:0:0:
160,344,80001,6,0,B|76:356|76:356|0:332,1,160,4|8,0:0|0:0,0:0:0:0:
72,152,80771,6,0,P|68:120|56:84,2,53.3333333333333,4|0|4,0:0|0:0|0:0,0:0:0:0:
124,212,81155,2,0,P|153:224|190:232,2,53.3333333333333,8|0|4,0:0|0:0|0:0,0:0:0:0:
44,228,81540,2,0,P|18:247|-6:275,2,53.3333333333333,4|0|4,0:0|0:0|0:0,0:0:0:0:
72,152,81924,2,0,P|120:132|176:152,1,106.666666666667,8|0,0:0|0:0,0:0:0:0:
244,184,82309,6,0,L|300:180,2,53.3333333333333,4|0|4,0:0|0:0|0:0,0:0:0:0:
240,104,82694,2,0,L|293:85,2,53.3333333333333,8|0|4,0:0|0:0|0:0,0:0:0:0:
204,32,83078,2,0,L|250:0,2,53.3333333333333,4|0|4,0:0|0:0|0:0,0:0:0:0:
164,104,83463,2,0,P|160:160|176:220,1,106.666666666667,8|0,0:0|0:0,0:0:0:0:
140,284,83847,6,0,L|120:340,2,53.3333333333333,4|0|4,0:0|0:0|0:0,0:0:0:0:
220,304,84232,2,0,L|215:363,2,53.3333333333333,8|0|4,0:0|0:0|0:0,0:0:0:0:
300,296,84617,2,0,L|310:354,2,53.3333333333333,4|0|4,0:0|0:0|0:0,0:0:0:0:
372,264,85001,2,0,L|397:317,2,53.3333333333333,8|0|4,0:0|0:0|0:0,0:0:0:0:
428,208,85386,2,0,L|466:253,2,53.3333333333333,4|0|4,0:0|0:0|0:0,0:0:0:0:
468,140,85771,2,0,L|516:173,2,53.3333333333333,8|0|4,0:0|0:0|0:0,0:0:0:0:
448,64,86155,6,0,B|416:80|376:64|376:64|336:72|336:72|292:64,1,160,4|8,0:0|0:0,0:0:0:0:
100,44,86924,6,0,L|48:36,2,53.3333333333333,4|0|4,0:0|0:0|0:0,0:0:0:0:
176,20,87309,1,8,0:0:0:0:
184,172,87694,2,0,L|236:164,2,53.3333333333333,4|0|4,0:0|0:0|0:0,0:0:0:0:
104,156,88078,1,8,0:0:0:0:
88,284,88463,6,0,L|36:276,2,53.3333333333333,4|0|4,0:0|0:0|0:0,0:0:0:0:
156,328,88847,2,0,L|208:320,2,53.3333333333333,4|0|4,0:0|0:0|0:0,0:0:0:0:
160,248,89232,2,0,B|176:164|176:164|160:80,1,160,4|2,0:0|0:0,0:0:0:0:
400,56,90001,5,0,0:0:0:0:
400,56,90097,2,0,L|492:60,1,80,8|0,0:0|0:0,0:0:0:0:
316,100,90578,1,8,0:0:0:0:
376,176,90771,5,0,0:0:0:0:
376,176,90867,2,0,L|463:203,1,80,8|0,0:0|0:0,0:0:0:0:
283,196,91348,1,8,0:0:0:0:
324,284,91540,5,0,0:0:0:0:
324,284,91636,2,0,L|401:333,1,80,8|0,0:0|0:0,0:0:0:0:
228,279,92117,1,8,0:0:0:0:
228,279,92309,6,0,P|188:288|128:276,1,80,8|4,0:0|0:0,0:0:0:0:
72,344,92694,2,0,L|64:216,1,120,2|0,0:0|0:0,0:0:0:0:
76,176,93078,5,0,0:0:0:0:
76,176,93174,2,0,L|72:80,1,80,8|0,0:0|0:0,0:0:0:0:
208,196,93655,1,8,0:0:0:0:
208,196,93847,5,0,0:0:0:0:
208,196,93943,2,0,L|228:102,1,80,8|0,0:0|0:0,0:0:0:0:
330,249,94424,1,8,0:0:0:0:
330,249,94617,5,0,0:0:0:0:
330,249,94713,2,0,L|374:163,1,80,8|0,0:0|0:0,0:0:0:0:
434,331,95194,1,8,0:0:0:0:
434,331,95386,6,0,L|499:260,1,80,8|4,0:0|0:0,0:0:0:0:
456,180,95771,2,0,P|444:116|460:64,1,120,2|0,0:0|0:0,0:0:0:0:
492,32,96155,5,0,0:0:0:0:
492,32,96251,2,0,P|452:32|408:24,1,80,8|0,0:0|0:0,0:0:0:0:
264,104,96732,1,8,0:0:0:0:
188,48,96924,5,0,0:0:0:0:
188,48,97021,2,0,P|148:40|100:48,1,80,8|0,0:0|0:0,0:0:0:0:
212,176,97501,1,8,0:0:0:0:
308,188,97694,5,0,0:0:0:0:
308,188,97790,2,0,P|352:180|400:188,1,80,8|0,0:0|0:0,0:0:0:0:
244,272,98271,1,8,0:0:0:0:
164,328,98463,6,0,P|120:316|72:320,1,80,8|4,0:0|0:0,0:0:0:0:
12,376,98847,2,0,L|20:232,1,120,2|0,0:0|0:0,0:0:0:0:
36,212,99232,5,0,0:0:0:0:
36,212,99328,2,0,P|40:172|32:128,1,80,8|0,0:0|0:0,0:0:0:0:
168,32,99809,1,8,0:0:0:0:
168,32,100001,5,0,0:0:0:0:
168,32,100097,2,0,P|208:36|252:28,1,80,8|0,0:0|0:0,0:0:0:0:
348,164,100578,1,8,0:0:0:0:
348,164,100771,5,0,0:0:0:0:
348,164,100867,2,0,P|344:204|352:248,1,80,8|0,0:0|0:0,0:0:0:0:
376,284,101155,2,0,P|380:332|368:372,1,80,0|8,0:0|0:0,0:0:0:0:
288,316,101540,5,4,0:0:0:0:
288,316,101732,1,2,0:0:0:0:
288,316,101924,1,4,0:0:0:0:
