osu file format v14

[General]
AudioFilename: Dadadadadadadadada.mp3
AudioLeadIn: 0
PreviewTime: 74232
Countdown: 0
SampleSet: Normal
StackLeniency: 0.7
Mode: 1
LetterboxInBreaks: 0
WidescreenStoryboard: 0

[Editor]
DistanceSpacing: 1.3
BeatDivisor: 4
GridSize: 32
TimelineZoom: 2.7

[Metadata]
Title:Dadadadadadadadadada
TitleUnicode:打打打打打打打打打打
Artist:Hige Driver join. SELEN
ArtistUnicode:ヒゲドライバー join. SELEN
Creator:qoot8123
Version:Muzukashii
Source:REFLEC BEAT groovin'!!
Tags:
BeatmapID:549276
BeatmapSetID:237306

[Difficulty]
HPDrainRate:5
CircleSize:5
OverallDifficulty:5
ApproachRate:5
SliderMultiplier:1.4
SliderTickRate:1

[Events]
//Background and Video events
0,0,"BG.png",0,100
//Break Periods
//Storyboard Layer 0 (Background)
//Storyboard Layer 1 (Fail)
//Storyboard Layer 2 (Pass)
//Storyboard Layer 3 (Foreground)
//Storyboard Sound Samples

[TimingPoints]
771,384.615384615385,4,1,0,90,1,0
22117,-100,4,1,0,60,0,0
24905,-100,4,1,0,65,0,0
25097,-100,4,1,0,75,0,0
25290,-100,4,1,0,90,0,0
28367,-100,4,1,0,60,0,0
31059,-100,4,1,0,65,0,0
31251,-100,4,1,0,80,0,0
31444,-100,4,1,0,90,0,0
46732,-100,4,1,0,60,0,0
49521,-100,4,1,0,65,0,0
49713,-100,4,1,0,75,0,0
49905,-100,4,1,0,90,0,0
52982,-100,4,1,0,60,0,0
55674,-100,4,1,0,65,0,0
55867,-100,4,1,0,80,0,0
56059,-100,4,1,0,90,0,0
69809,-96.1538461538461,4,1,0,90,0,0
70001,-95.2380952380952,4,1,0,90,0,0
70771,-94.3396226415094,4,1,0,90,0,0
71540,-93.4579439252336,4,1,0,90,0,0
72309,-92.5925925925926,4,1,0,90,0,0
73078,-83.3333333333333,4,1,0,90,0,0
74617,-86.9565217391304,4,1,0,90,0,1
90001,-100,4,1,0,90,0,0

[Colours]
Combo1 : 255,217,85
Combo2 : 123,249,113
Combo3 : 238,121,251

[HitObjects]
256,192,9232,5,0,0:0:0:0:
256,192,9617,1,8,0:0:0:0:
256,192,10001,1,4,0:0:0:0:
256,192,10290,1,8,0:0:0:0:
256,192,10578,1,8,0:0:0:0:
256,192,10771,1,0,0:0:0:0:
256,192,11059,1,0,0:0:0:0:
256,192,11347,1,0,0:0:0:0:
256,192,11540,1,8,0:0:0:0:
256,192,11828,1,8,0:0:0:0:
256,192,12117,1,8,0:0:0:0:
256,192,12501,1,0,0:0:0:0:
256,192,12694,1,8,0:0:0:0:
256,192,13078,1,0,0:0:0:0:
256,192,13367,1,8,0:0:0:0:
256,192,13655,1,8,0:0:0:0:
256,192,13847,1,0,0:0:0:0:
256,192,14136,1,0,0:0:0:0:
256,192,14424,1,0,0:0:0:0:
256,192,14617,1,8,0:0:0:0:
256,192,14905,1,8,0:0:0:0:
256,192,15194,1,8,0:0:0:0:
256,192,15386,1,0,0:0:0:0:
256,192,15482,1,0,0:0:0:0:
256,192,15578,1,0,0:0:0:0:
256,192,15771,1,8,0:0:0:0:
256,192,16155,1,4,0:0:0:0:
256,192,16444,1,0,0:0:0:0:
256,192,16732,1,0,0:0:0:0:
256,192,16924,1,8,0:0:0:0:
256,192,17213,1,8,0:0:0:0:
256,192,17501,1,8,0:0:0:0:
256,192,17694,1,0,0:0:0:0:
256,192,17982,1,0,0:0:0:0:
256,192,18271,1,8,0:0:0:0:
256,192,18655,1,0,0:0:0:0:
256,192,18847,1,8,0:0:0:0:
256,192,19232,1,0,0:0:0:0:
256,192,19521,1,0,0:0:0:0:
256,192,19809,1,0,0:0:0:0:
256,192,20001,1,8,0:0:0:0:
256,192,20290,1,8,0:0:0:0:
256,192,20578,1,8,0:0:0:0:
256,192,20771,1,0,0:0:0:0:
256,192,21059,1,0,0:0:0:0:
256,192,21347,1,8,0:0:0:0:
256,192,21540,1,0,0:0:0:0:
256,192,21732,1,0,0:0:0:0:
256,192,21924,1,8,0:0:0:0:
256,192,22309,1,0,0:0:0:0:
256,192,23078,1,0,0:0:0:0:
256,192,23847,1,0,0:0:0:0:
256,192,24232,1,0,0:0:0:0:
256,192,24617,1,0,0:0:0:0:
256,192,25001,1,0,0:0:0:0:
256,192,25194,1,8,0:0:0:0:
256,192,25386,1,4,0:0:0:0:
256,192,25771,1,0,0:0:0:0:
256,192,25963,1,8,0:0:0:0:
256,192,26155,1,0,0:0:0:0:
256,192,26347,1,8,0:0:0:0:
256,192,26540,1,0,0:0:0:0:
256,192,26732,1,8,0:0:0:0:
256,192,26924,1,0,0:0:0:0:
256,192,27309,1,0,0:0:0:0:
256,192,27501,1,8,0:0:0:0:
256,192,27694,1,0,0:0:0:0:
256,192,27790,1,0,0:0:0:0:
256,192,27886,1,0,0:0:0:0:
256,192,28078,1,8,0:0:0:0:
256,192,28271,1,8,0:0:0:0:
256,192,28463,1,0,0:0:0:0:
256,192,29232,1,0,0:0:0:0:
256,192,30001,1,0,0:0:0:0:
256,192,30386,1,0,0:0:0:0:
256,192,30771,1,0,0:0:0:0:
256,192,31155,1,0,0:0:0:0:
256,192,31347,1,8,0:0:0:0:
256,192,31540,1,4,0:0:0:0:
256,192,31924,1,0,0:0:0:0:
256,192,32117,1,8,0:0:0:0:
256,192,32309,1,0,0:0:0:0:
256,192,32501,1,8,0:0:0:0:
256,192,32694,1,0,0:0:0:0:
256,192,32886,1,8,0:0:0:0:
256,192,33078,1,0,0:0:0:0:
256,192,33463,1,0,0:0:0:0:
256,192,33655,1,8,0:0:0:0:
256,192,33847,1,0,0:0:0:0:
256,192,33944,1,0,0:0:0:0:
256,192,34040,1,0,0:0:0:0:
256,192,34232,1,12,0:0:0:0:
256,192,34617,1,4,0:0:0:0:
256,192,34905,1,8,0:0:0:0:
256,192,35194,1,8,0:0:0:0:
256,192,35386,1,0,0:0:0:0:
256,192,35963,1,0,0:0:0:0:
256,192,36155,1,0,0:0:0:0:
256,192,36444,1,8,0:0:0:0:
256,192,36732,1,8,0:0:0:0:
256,192,36924,1,0,0:0:0:0:
256,192,37117,1,8,0:0:0:0:
256,192,37309,1,8,0:0:0:0:
256,192,37694,1,0,0:0:0:0:
256,192,37982,1,8,0:0:0:0:
256,192,38271,1,8,0:0:0:0:
256,192,38463,1,0,0:0:0:0:
256,192,39040,1,0,0:0:0:0:
256,192,39232,1,0,0:0:0:0:
256,192,39521,1,8,0:0:0:0:
256,192,39809,1,8,0:0:0:0:
256,192,40001,1,0,0:0:0:0:
256,192,40194,1,8,0:0:0:0:
256,192,40386,1,8,0:0:0:0:
256,192,40771,1,0,0:0:0:0:
256,192,41059,1,8,0:0:0:0:
256,192,41347,1,8,0:0:0:0:
256,192,41540,1,0,0:0:0:0:
256,192,42117,1,8,0:0:0:0:
256,192,42309,1,0,0:0:0:0:
256,192,42597,1,8,0:0:0:0:
256,192,42886,1,8,0:0:0:0:
256,192,43078,1,0,0:0:0:0:
256,192,43271,1,8,0:0:0:0:
256,192,43463,1,8,0:0:0:0:
256,192,43847,1,0,0:0:0:0:
256,192,44136,1,8,0:0:0:0:
256,192,44424,1,8,0:0:0:0:
256,192,44617,1,0,0:0:0:0:
256,192,45194,1,8,0:0:0:0:
256,192,45386,1,0,0:0:0:0:
256,192,45674,1,8,0:0:0:0:
256,192,45963,1,8,0:0:0:0:
256,192,46155,1,0,0:0:0:0:
256,192,46347,1,0,0:0:0:0:
256,192,46540,1,8,0:0:0:0:
256,192,46924,1,0,0:0:0:0:
256,192,47694,1,0,0:0:0:0:
256,192,48463,1,0,0:0:0:0:
224,192,48847,1,0,0:0:0:0:
256,192,49232,1,0,0:0:0:0:
256,192,49617,1,0,0:0:0:0:
256,192,49809,1,8,0:0:0:0:
256,192,50001,1,4,0:0:0:0:
256,192,50386,1,0,0:0:0:0:
256,192,50578,1,8,0:0:0:0:
256,192,50771,1,0,0:0:0:0:
256,192,50963,1,8,0:0:0:0:
256,192,51155,1,0,0:0:0:0:
256,192,51347,1,8,0:0:0:0:
256,192,51540,1,0,0:0:0:0:
256,192,51924,1,0,0:0:0:0:
256,192,52117,1,8,0:0:0:0:
256,192,52309,1,0,0:0:0:0:
256,192,52501,1,8,0:0:0:0:
256,192,52597,1,8,0:0:0:0:
256,192,52694,1,8,0:0:0:0:
256,192,52886,1,8,0:0:0:0:
256,192,53078,1,0,0:0:0:0:
256,192,53847,1,0,0:0:0:0:
256,192,54617,1,0,0:0:0:0:
256,192,55001,1,0,0:0:0:0:
256,192,55386,1,0,0:0:0:0:
256,192,55771,1,0,0:0:0:0:
256,192,55963,1,8,0:0:0:0:
256,192,56155,1,4,0:0:0:0:
256,192,56540,1,0,0:0:0:0:
256,192,56732,1,8,0:0:0:0:
256,192,56924,1,0,0:0:0:0:
256,192,57117,1,8,0:0:0:0:
256,192,57309,1,0,0:0:0:0:
256,192,57501,1,8,0:0:0:0:
256,192,57694,1,0,0:0:0:0:
256,192,58078,1,0,0:0:0:0:
256,192,58271,1,8,0:0:0:0:
256,192,58463,1,8,0:0:0:0:
256,192,58559,1,8,0:0:0:0:
256,192,58655,1,8,0:0:0:0:
256,192,58847,1,8,0:0:0:0:
256,192,59040,1,0,0:0:0:0:
256,192,59232,1,12,0:0:0:0:
256,192,59521,1,0,0:0:0:0:
256,192,59809,1,8,0:0:0:0:
256,192,60001,1,0,0:0:0:0:
256,192,60290,1,8,0:0:0:0:
256,192,60578,1,0,0:0:0:0:
256,192,60771,1,8,0:0:0:0:
256,192,61059,1,0,0:0:0:0:
256,192,61347,1,8,0:0:0:0:
256,192,61540,1,0,0:0:0:0:
256,192,61732,1,0,0:0:0:0:
256,192,61924,1,8,0:0:0:0:
256,192,62501,1,8,0:0:0:0:
256,192,62694,1,8,0:0:0:0:
256,192,62886,1,8,0:0:0:0:
256,192,63078,1,0,0:0:0:0:
256,192,63367,1,8,0:0:0:0:
256,192,63655,1,0,0:0:0:0:
256,192,63847,1,8,0:0:0:0:
256,192,64040,1,0,0:0:0:0:
256,192,64232,1,8,0:0:0:0:
256,192,64424,1,8,0:0:0:0:
256,192,64617,1,8,0:0:0:0:
256,192,65194,1,0,0:0:0:0:
256,192,65386,1,8,0:0:0:0:
256,192,65674,1,0,0:0:0:0:
256,192,65963,1,8,0:0:0:0:
256,192,66155,1,0,0:0:0:0:
256,192,66444,1,8,0:0:0:0:
256,192,66732,1,0,0:0:0:0:
256,192,66924,1,8,0:0:0:0:
256,192,67213,1,8,0:0:0:0:
256,192,67501,1,8,0:0:0:0:
256,192,67694,1,0,0:0:0:0:
256,192,67886,1,0,0:0:0:0:
256,192,68078,1,8,0:0:0:0:
256,192,68463,1,0,0:0:0:0:
256,192,69040,1,8,0:0:0:0:
256,192,69232,1,8,0:0:0:0:
256,192,69809,1,8,0:0:0:0:
256,192,70001,1,0,0:0:0:0:
256,192,70386,1,0,0:0:0:0:
256,192,70771,1,0,0:0:0:0:
256,192,70963,1,0,0:0:0:0:
256,192,71155,1,8,0:0:0:0:
256,192,71347,1,8,0:0:0:0:
256,192,71540,1,0,0:0:0:0:
256,192,71924,1,0,0:0:0:0:
256,192,72117,1,8,0:0:0:0:
256,192,72309,1,0,0:0:0:0:
256,192,72694,1,0,0:0:0:0:
256,256,73078,2,0,L|256:160,4,83.9999974365235
256,192,74232,1,8,0:0:0:0:
256,192,74617,1,12,0:0:0:0:
256,192,75386,1,8,0:0:0:0:
256,192,75514,1,8,0:0:0:0:
256,192,75642,1,8,0:0:0:0:
256,192,75771,1,8,0:0:0:0:
256,192,76155,1,12,0:0:0:0:
256,192,76924,1,8,0:0:0:0:
256,192,77053,1,8,0:0:0:0:
256,192,77181,1,8,0:0:0:0:
256,192,77309,1,8,0:0:0:0:
256,192,77694,1,12,0:0:0:0:
256,192,78463,1,8,0:0:0:0:
256,192,79232,1,8,0:0:0:0:
256,192,79360,1,8,0:0:0:0:
256,192,79488,1,8,0:0:0:0:
256,192,79617,1,8,0:0:0:0:
256,192,79745,1,8,0:0:0:0:
256,192,79873,1,8,0:0:0:0:
256,192,80001,1,8,0:0:0:0:
256,192,80386,1,12,0:0:0:0:
256,192,80771,1,4,0:0:0:0:
256,192,81155,1,8,0:0:0:0:
256,192,81540,1,8,0:0:0:0:
256,192,81668,1,8,0:0:0:0:
256,192,81796,1,8,0:0:0:0:
256,192,81924,1,8,0:0:0:0:
256,192,82309,1,4,0:0:0:0:
256,192,82694,1,8,0:0:0:0:
256,192,83078,1,8,0:0:0:0:
256,192,83206,1,8,0:0:0:0:
256,192,83335,1,8,0:0:0:0:
256,192,83463,1,8,0:0:0:0:
256,192,83847,1,4,0:0:0:0:
256,192,84232,1,8,0:0:0:0:
256,192,84617,1,8,0:0:0:0:
256,192,85001,1,8,0:0:0:0:
256,192,85386,1,8,0:0:0:0:
256,192,85514,1,8,0:0:0:0:
256,192,85642,1,8,0:0:0:0:
256,192,85771,1,8,0:0:0:0:
256,192,85899,1,8,0:0:0:0:
256,192,86027,1,8,0:0:0:0:
256,192,86155,1,8,0:0:0:0:
256,192,86540,1,8,0:0:0:0:
256,192,86924,1,4,0:0:0:0:
256,192,87181,1,8,0:0:0:0:
256,192,87309,1,8,0:0:0:0:
256,192,87694,1,4,0:0:0:0:
256,192,87950,1,8,0:0:0:0:
256,192,88078,1,8,0:0:0:0:
256,192,88463,1,4,0:0:0:0:
256,192,88847,1,0,0:0:0:0:
256,192,88976,1,0,0:0:0:0:
256,192,89104,1,8,0:0:0:0:
256,192,89232,1,8,0:0:0:0:
256,192,90001,1,4,0:0:0:0:
256,192,90290,1,8,0:0:0:0:
256,192,90578,1,8,0:0:0:0:
256,192,90771,1,0,0:0:0:0:
256,192,91059,1,0,0:0:0:0:
256,192,91347,1,0,0:0:0:0:
256,192,91540,1,8,0:0:0:0:
256,192,91828,1,8,0:0:0:0:
256,192,92117,1,8,0:0:0:0:
256,192,92501,1,0,0:0:0:0:
256,192,92694,1,8,0:0:0:0:
256,192,93078,1,0,0:0:0:0:
256,192,93367,1,8,0:0:0:0:
256,192,93655,1,8,0:0:0:0:
256,192,93847,1,0,0:0:0:0:
256,192,94136,1,0,0:0:0:0:
256,192,94424,1,0,0:0:0:0:
256,192,94617,1,8,0:0:0:0:
256,192,94905,1,8,0:0:0:0:
256,192,95194,1,8,0:0:0:0:
256,192,95386,1,0,0:0:0:0:
256,192,95482,1,0,0:0:0:0:
256,192,95578,1,0,0:0:0:0:
256,192,95771,1,8,0:0:0:0:
256,192,96155,1,4,0:0:0:0:
256,192,96444,1,8,0:0:0:0:
256,192,96732,1,8,0:0:0:0:
256,192,96924,1,0,0:0:0:0:
256,192,97213,1,0,0:0:0:0:
256,192,97501,1,0,0:0:0:0:
256,192,97694,1,8,0:0:0:0:
256,192,97982,1,8,0:0:0:0:
256,192,98271,1,8,0:0:0:0:
256,192,98655,1,0,0:0:0:0:
256,192,98847,1,8,0:0:0:0:
256,192,99232,1,0,0:0:0:0:
256,192,99521,1,8,0:0:0:0:
256,192,99809,1,8,0:0:0:0:
256,192,100001,1,0,0:0:0:0:
256,192,100290,1,0,0:0:0:0:
256,192,100578,1,0,0:0:0:0:
256,192,100771,1,8,0:0:0:0:
256,192,101155,1,8,0:0:0:0:
256,192,101347,1,8,0:0:0:0:
256,192,101540,1,4,0:0:0:0:
256,192,101732,1,12,0:0:0:0:
256,192,101924,1,12,0:0:0:0:
