osu file format v13

[General]
AudioFilename: Dadadadadadadadada.mp3
AudioLeadIn: 0
PreviewTime: 74232
Countdown: 0
SampleSet: Normal
StackLeniency: 0.7
Mode: 1
LetterboxInBreaks: 0
WidescreenStoryboard: 0

[Editor]
DistanceSpacing: 1.3
BeatDivisor: 2
GridSize: 32
TimelineZoom: 2.7

[Metadata]
Title:Dadadadadadadadadada
TitleUnicode:打打打打打打打打打打
Artist:Hige Driver join. SELEN
ArtistUnicode:ヒゲドライバー join. SELEN
Creator:qoot8123
Version:Kantan
Source:REFLEC BEAT groovin'!!
Tags:
BeatmapID:549275
BeatmapSetID:237306

[Difficulty]
HPDrainRate:4
CircleSize:5
OverallDifficulty:3
ApproachRate:5
SliderMultiplier:1.4
SliderTickRate:1

[Events]
//Background and Video events
0,0,"BG.png",0,100
//Break Periods
//Storyboard Layer 0 (Background)
//Storyboard Layer 1 (Fail)
//Storyboard Layer 2 (Pass)
//Storyboard Layer 3 (Foreground)
//Storyboard Sound Samples

[TimingPoints]
771,384.615384615385,4,1,0,90,1,0
22117,-100,4,1,0,60,0,0
24809,-100,4,1,0,75,0,0
25194,-100,4,1,0,90,0,0
28271,-100,4,1,0,60,0,0
30963,-100,4,1,0,80,0,0
31347,-100,4,1,0,90,0,0
46732,-100,4,1,0,60,0,0
49424,-100,4,1,0,75,0,0
49809,-100,4,1,0,90,0,0
52886,-100,4,1,0,60,0,0
55578,-100,4,1,0,80,0,0
55963,-100,4,1,0,90,0,0
74617,-100,4,1,0,90,0,1
90001,-100,4,1,0,90,0,0

[Colours]
Combo1 : 255,217,85
Combo2 : 123,249,113
Combo3 : 238,121,251

[HitObjects]
256,192,10001,5,4,0:0:0:0:
256,192,10771,1,8,0:0:0:0:
256,192,11540,1,0,0:0:0:0:
256,192,12309,1,8,0:0:0:0:
256,192,12694,1,8,0:0:0:0:
256,192,13078,1,0,0:0:0:0:
256,192,13847,1,8,0:0:0:0:
256,192,14617,1,0,0:0:0:0:
256,192,15771,1,8,0:0:0:0:
256,192,16155,1,4,0:0:0:0:
256,192,16924,1,0,0:0:0:0:
256,192,17694,1,8,0:0:0:0:
256,192,18463,1,8,0:0:0:0:
256,192,18847,1,8,0:0:0:0:
256,192,19232,1,0,0:0:0:0:
256,192,20001,1,0,0:0:0:0:
256,192,20771,1,8,0:0:0:0:
256,192,21540,1,8,0:0:0:0:
256,192,21732,1,8,0:0:0:0:
256,192,21924,1,8,0:0:0:0:
256,192,22309,1,0,0:0:0:0:
256,192,25001,1,8,0:0:0:0:
256,192,25386,1,4,0:0:0:0:
256,192,26155,1,0,0:0:0:0:
256,192,26924,1,0,0:0:0:0:
256,192,27694,1,0,0:0:0:0:
256,192,28078,1,8,0:0:0:0:
256,192,28463,1,0,0:0:0:0:
256,192,31155,1,8,0:0:0:0:
256,192,31540,1,4,0:0:0:0:
256,192,32309,1,0,0:0:0:0:
256,192,33078,1,0,0:0:0:0:
256,192,33847,1,0,0:0:0:0:
256,192,34232,1,8,0:0:0:0:
256,192,34617,1,4,0:0:0:0:
256,192,35386,1,0,0:0:0:0:
256,192,36155,1,8,0:0:0:0:
256,192,37309,1,8,0:0:0:0:
256,192,37694,1,0,0:0:0:0:
256,192,38463,1,0,0:0:0:0:
256,192,39232,1,8,0:0:0:0:
256,192,40386,1,8,0:0:0:0:
256,192,40771,1,4,0:0:0:0:
256,192,41540,1,8,0:0:0:0:
256,192,42309,1,0,0:0:0:0:
256,192,43078,1,0,0:0:0:0:
256,192,43463,1,8,0:0:0:0:
256,192,43847,1,0,0:0:0:0:
256,192,44617,1,8,0:0:0:0:
256,192,45386,1,0,0:0:0:0:
256,192,46155,1,8,0:0:0:0:
256,192,46347,1,8,0:0:0:0:
256,192,46540,1,8,0:0:0:0:
256,192,46924,1,0,0:0:0:0:
256,192,49617,1,8,0:0:0:0:
256,192,50001,1,4,0:0:0:0:
256,192,50771,1,0,0:0:0:0:
256,192,51540,1,0,0:0:0:0:
256,192,52309,1,0,0:0:0:0:
256,192,52694,1,8,0:0:0:0:
256,192,53078,1,0,0:0:0:0:
256,192,55771,1,8,0:0:0:0:
256,192,56155,1,4,0:0:0:0:
256,192,56924,1,0,0:0:0:0:
256,192,57694,1,8,0:0:0:0:
256,192,58463,1,8,0:0:0:0:
256,192,58847,1,8,0:0:0:0:
256,192,59232,1,4,0:0:0:0:
256,192,60001,1,8,0:0:0:0:
256,192,60771,1,0,0:0:0:0:
256,192,61540,1,0,0:0:0:0:
256,192,61924,1,8,0:0:0:0:
256,192,62309,1,0,0:0:0:0:
256,192,63078,1,8,0:0:0:0:
256,192,63847,1,0,0:0:0:0:
256,192,64232,1,0,0:0:0:0:
256,192,64617,1,8,0:0:0:0:
256,192,65386,1,8,0:0:0:0:
256,192,66155,1,0,0:0:0:0:
256,192,66924,1,8,0:0:0:0:
256,192,67694,1,8,0:0:0:0:
256,192,68078,1,8,0:0:0:0:
256,192,68463,1,0,0:0:0:0:
256,192,70001,1,0,0:0:0:0:
256,192,70771,1,0,0:0:0:0:
256,192,71155,1,8,0:0:0:0:
256,192,71540,1,0,0:0:0:0:
256,192,72309,1,0,0:0:0:0:
256,192,72694,1,8,0:0:0:0:
256,192,73078,1,8,0:0:0:0:
256,192,73847,1,8,0:0:0:0:
256,192,74617,1,4,0:0:0:0:
256,192,76155,1,4,0:0:0:0:
256,192,77694,1,4,0:0:0:0:
256,192,80001,1,0,0:0:0:0:
256,192,80386,1,8,0:0:0:0:
256,192,80771,1,4,0:0:0:0:
256,192,82309,1,4,0:0:0:0:
256,192,83847,1,4,0:0:0:0:
256,192,86155,1,0,0:0:0:0:
256,192,86540,1,8,0:0:0:0:
256,192,86924,5,0,0:0:0:0:
256,192,87694,1,8,0:0:0:0:
256,192,88463,1,0,0:0:0:0:
256,192,88847,1,0,0:0:0:0:
256,192,89232,1,8,0:0:0:0:
256,192,90001,1,4,0:0:0:0:
256,192,90771,1,8,0:0:0:0:
256,192,91540,1,0,0:0:0:0:
256,192,92309,1,8,0:0:0:0:
256,192,92694,1,8,0:0:0:0:
256,192,93078,1,0,0:0:0:0:
256,192,93847,1,8,0:0:0:0:
256,192,94617,1,0,0:0:0:0:
256,192,95771,1,8,0:0:0:0:
256,192,96155,1,4,0:0:0:0:
256,192,96924,1,0,0:0:0:0:
256,192,97694,1,8,0:0:0:0:
256,192,98463,1,8,0:0:0:0:
256,192,98847,1,8,0:0:0:0:
256,192,99232,1,0,0:0:0:0:
256,192,100001,1,8,0:0:0:0:
256,192,100771,1,0,0:0:0:0:
256,192,101540,1,8,0:0:0:0:
256,192,101924,1,12,0:0:0:0:
