osu file format v14

[General]
AudioFilename: m.mp3
AudioLeadIn: 0
PreviewTime: -1
Countdown: 1
SampleSet: Normal
StackLeniency: 0.7
Mode: 0
LetterboxInBreaks: 1
WidescreenStoryboard: 0

[Editor]
Bookmarks: 125856,169702,178933
DistanceSpacing: 2
BeatDivisor: 6
GridSize: 32
TimelineZoom: 3.099999

[Metadata]
Title:DADADADADADADADADADA (Long Version)
TitleUnicode:打打打打打打打打打打(Long Version)
Artist:Hige Driver join. SELEN
ArtistUnicode:ヒゲドライバー join. SELEN
Creator:Lokovodo
Version:ULTRA BERZERK
Source:REFLEC BEAT groovin'!!
Tags:
BeatmapID:663725
BeatmapSetID:295422

[Difficulty]
HPDrainRate:2.5
CircleSize:4
OverallDifficulty:8
ApproachRate:10
SliderMultiplier:3
SliderTickRate:1

[Events]
//Background and Video events
0,0,"54ee19bcffffa20b58bc6fc0c042a588.jpg",0,0
//Break Periods
2,145286,153098
2,169902,178483
//Storyboard Layer 0 (Background)
//Storyboard Layer 1 (Fail)
//Storyboard Layer 2 (Pass)
//Storyboard Layer 3 (Foreground)
//Storyboard Sound Samples

[TimingPoints]
8933,384.615384615385,4,1,0,100,1,0
8933,-200,4,1,0,100,0,0
9317,-133.333333333333,4,1,0,100,0,0
9702,-100,4,1,0,100,0,0
31030,-66.6666666666667,4,1,0,100,0,0
31415,-100,4,1,0,100,0,0
58933,-80,4,1,0,100,0,0
73548,-80,4,1,0,50,0,0
73933,-80,4,1,0,100,0,0
74317,-80,4,1,0,100,0,1
88933,-66.6666666666667,4,1,0,100,0,0
89317,-80,4,1,0,100,0,0
129702,-80,4,1,0,100,0,1
132779,-66.6666666666667,4,1,0,100,0,1
138933,-57.1428571428571,4,1,0,100,0,1
145086,-80,4,1,0,100,0,0
157394,-66.6666666666667,4,1,0,100,0,0
186240,-57.1428571428571,4,1,0,100,0,0
192779,-57.1428571428571,4,1,0,100,0,1
210856,-80,4,1,0,100,0,0

[HitObjects]
80,192,8933,6,0,B|96:176|96:176|96:192|96:192|112:176|112:176|112:192|112:192|128:176|128:176|128:192|128:192|144:176,1,125
160,176,9317,6,0,B|176:128|192:128|192:128|192:144|176:144|176:144|192:160|208:184|208:184|208:232,1,168.750006437302
208,240,9702,6,0,B|256:240|256:240|224:224,1,75
128,224,9894,2,0,B|96:240|96:240|64:240|64:240|16:256|32:320,2,150
32,320,10471,2,0,P|80:336|112:320,1,75
224,256,10663,2,0,B|272:272|272:272|336:256|336:256|384:272,1,150
208,272,11048,2,0,L|160:192,1,75
144,304,11240,2,0,B|192:368|192:368|224:336|272:336,1,150
384,352,11529,1,0,0:0:0:0:
416,336,11625,1,0,0:0:0:0:
352,208,11817,1,0,0:0:0:0:
384,64,12009,5,0,0:0:0:0:
416,80,12106,1,0,0:0:0:0:
448,96,12202,2,0,P|400:112|368:112,1,75
256,96,12394,2,0,B|208:32|208:32|192:0|176:32|176:32|160:0|160:0|160:64|128:96,1,250
128,112,12779,2,0,P|80:96|48:96,1,75
64,208,12971,2,0,P|112:224|144:224,1,75
240,176,13163,2,0,B|320:160|320:160|304:208|272:208|272:208|288:224|288:224|272:224|272:224|288:240|288:240|272:240|272:240|288:256|288:256|272:256|272:256|288:272,1,225
272,272,13548,6,0,P|224:304|160:304,1,75
96,288,13740,1,0,0:0:0:0:
128,256,13836,1,0,0:0:0:0:
160,224,13933,2,0,B|160:176|160:176|176:112|176:112|176:64,2,150
192,304,14413,1,0,0:0:0:0:
208,320,14509,1,0,0:0:0:0:
256,336,14606,1,0,0:0:0:0:
304,320,14702,2,0,B|384:320|416:336|416:336|464:336|432:304|432:272|432:272|464:272,1,225
480,288,15086,5,0,0:0:0:0:
160,224,15279,1,0,0:0:0:0:
368,256,15471,2,0,B|416:256|416:256|384:224,1,75
288,160,15663,2,0,B|240:160|240:160|272:192,1,75
412,195,15856,2,0,P|464:160|480:64,1,150
416,32,16144,1,0,0:0:0:0:
336,48,16240,1,0,0:0:0:0:
176,96,16433,6,0,B|192:144|192:176|192:176|160:240,1,150
80,304,16721,1,0,0:0:0:0:
16,224,16817,2,0,P|32:192|64:160,1,75
144,128,17009,2,0,B|192:144|224:144|224:144|288:112,1,150
256,160,17298,1,0,0:0:0:0:
224,208,17394,2,0,B|272:240|272:240|320:224|320:224|368:256,1,150
416,288,17683,1,0,0:0:0:0:
480,256,17779,2,0,L|480:176,1,75
320,64,17971,2,0,L|320:139,1,75
400,208,18163,6,0,L|400:60,2,131.25
352,304,18548,2,0,B|304:256|304:256|304:160|304:160,1,150
224,208,18836,1,0,0:0:0:0:
144,176,18933,2,0,L|144:80,1,75
64,69,19125,2,0,L|64:144,1,75
64,272,19317,6,0,B|96:256|128:272|128:272|176:352|176:352|208:368|240:352,1,225
304,288,19702,5,0,0:0:0:0:
320,304,19798,1,0,0:0:0:0:
368,320,19894,1,0,0:0:0:0:
416,304,19990,1,0,0:0:0:0:
480,224,20086,6,0,L|384:192,1,100
352,144,20279,2,0,L|448:176,1,100
416,128,20471,5,0,0:0:0:0:
352,64,20567,1,0,0:0:0:0:
272,32,20663,1,0,0:0:0:0:
240,48,20759,1,0,0:0:0:0:
208,64,20856,6,0,L|208:139,1,75
304,320,21048,2,0,L|304:245,1,75
384,144,21240,2,0,L|459:144,1,75
128,240,21432,2,0,L|53:240,1,75
256,192,21625,2,0,B|248:176|248:176|264:160|264:160|248:144|248:144|264:128|264:128|248:112|248:112|264:96|264:96|248:80|248:80|264:64|264:64|248:48|248:48|256:32|256:32|256:16,1,225
272,56,22009,6,0,P|232:72|192:72,1,75
144,144,22202,2,0,P|104:127|76:98,1,75
120,32,22394,1,0,0:0:0:0:
208,256,22586,1,0,0:0:0:0:
136,280,22779,2,0,B|208:256|208:256|280:288,1,150
336,336,23067,1,0,0:0:0:0:
344,256,23163,2,0,B|312:224|312:224|272:208|272:208|296:152,1,150
344,256,23548,6,0,P|304:320|232:336,1,150
368,288,23933,1,0,0:0:0:0:
392,320,24029,1,0,0:0:0:0:
416,352,24125,2,0,B|464:352|464:352|464:320,1,75
464,168,24317,2,0,B|440:208|368:184|368:184|336:216,1,150
400,144,24606,1,0,0:0:0:0:
336,120,24702,2,0,B|336:208|336:208|304:144|304:144|248:120|248:184|152:176,1,300
144,208,25183,5,0,0:0:0:0:
120,240,25279,2,0,B|136:336|136:336|176:288|192:296,1,150
232,152,25663,1,0,0:0:0:0:
216,136,25759,1,0,0:0:0:0:
200,120,25856,2,0,B|208:40|208:40|248:16|256:72,1,150
272,88,26144,1,0,0:0:0:0:
288,104,26240,2,0,L|368:104,1,75
440,48,26433,2,0,B|456:96|456:96|448:120|448:144|448:144|477:192,1,150
405,187,26817,2,0,B|432:144|432:144|432:120|424:96|424:96|440:48,1,150
488,232,27202,5,0,0:0:0:0:
440,248,27298,1,0,0:0:0:0:
392,232,27394,2,0,L|384:152,1,75
312,248,27586,2,0,L|320:328,1,75
352,128,27779,2,0,B|320:128|320:128|272:136,1,75
352,352,27971,2,0,B|384:352|384:352|432:344,1,75
232,264,28163,5,0,0:0:0:0:
184,232,28259,1,0,0:0:0:0:
136,200,28356,1,0,0:0:0:0:
88,168,28452,1,0,0:0:0:0:
144,184,28548,2,0,B|200:184|200:184|240:156|240:156|292:156,1,150
172,104,28836,5,0,0:0:0:0:
152,104,28933,2,0,B|96:104|96:104|56:132|56:132|4:132,1,150
40,240,29221,5,0,0:0:0:0:
60,280,29317,2,0,B|92:324|92:324|140:308|196:324,1,150
352,304,29702,5,0,0:0:0:0:
384,256,29798,1,0,0:0:0:0:
416,208,29894,1,0,0:0:0:0:
448,160,29990,1,0,0:0:0:0:
496,224,30086,6,0,P|448:224|416:208,1,75
416,96,30279,2,0,P|464:96|496:112,1,75
336,128,30471,5,0,0:0:0:0:
256,112,30567,1,0,0:0:0:0:
176,128,30663,1,0,0:0:0:0:
112,176,30759,1,0,0:0:0:0:
192,176,30856,6,0,B|224:208|224:208|224:256|224:256,1,75
192,320,31048,6,0,B|208:336|208:336|240:320|240:320|256:336|256:336|288:320|288:320|304:336|304:336|336:320|336:320|352:336|352:336|384:320,1,225.000008583069
368,288,31336,1,0,0:0:0:0:
352,256,31433,2,0,L|272:256,1,75
124,312,31625,5,0,0:0:0:0:
160,304,31721,1,0,0:0:0:0:
192,288,31817,2,0,L|192:208,1,75
135,60,32009,5,0,0:0:0:0:
144,96,32105,1,0,0:0:0:0:
160,128,32201,2,0,L|240:128,1,75
387,71,32394,5,0,0:0:0:0:
352,80,32490,1,0,0:0:0:0:
320,96,32586,2,0,L|320:176,1,75
384,304,32779,6,0,L|384:224,1,75
304,261,32971,2,0,L|304:336,1,75
208,123,33163,2,0,L|208:48,1,75
128,80,33355,2,0,L|128:155,1,75
224,304,33548,6,0,B|184:320|184:320|144:320,1,75
288,80,33740,2,0,B|328:64|328:64|368:64,1,75
384,224,33933,5,0,0:0:0:0:
320,160,34029,1,0,0:0:0:0:
256,224,34125,1,0,0:0:0:0:
192,160,34221,1,0,0:0:0:0:
128,224,34317,5,0,0:0:0:0:
112,240,34413,1,0,0:0:0:0:
96,256,34509,1,0,0:0:0:0:
80,336,34606,1,0,0:0:0:0:
160,320,34702,2,0,B|224:304|224:304|256:304|256:304|312:288,1,150
304,200,34990,5,0,0:0:0:0:
384,160,35086,1,0,0:0:0:0:
400,144,35182,1,0,0:0:0:0:
416,128,35278,1,0,0:0:0:0:
432,48,35375,1,0,0:0:0:0:
352,64,35471,2,0,B|288:80|288:80|256:80|256:80|200:96,1,150
208,184,35759,5,0,0:0:0:0:
248,256,35856,1,0,0:0:0:0:
280,256,35952,1,0,0:0:0:0:
344,312,36048,2,0,P|376:288|416:272,1,75
352,344,36240,6,0,B|312:328|272:328|272:328|224:344|168:320|168:320|176:312|176:312|160:304|160:304|168:296|168:296|152:288|152:288|160:280|160:280|144:272|144:272|152:264|152:264|136:256|136:256|144:248|144:248|128:240|128:240,1,300
56,56,36817,1,0,0:0:0:0:
120,248,37009,1,0,0:0:0:0:
72,240,37106,1,0,0:0:0:0:
32,216,37202,1,0,0:0:0:0:
8,176,37298,1,0,0:0:0:0:
48,200,37394,6,0,B|40:280,1,75
192,336,37586,2,0,B|200:256,1,75
192,96,37779,1,0,0:0:0:0:
184,120,37971,1,0,0:0:0:0:
176,144,38163,6,0,B|184:200|184:200|208:240|208:240|216:224|216:224|224:272|224:272|232:256|232:256|264:280,1,225
280,312,38548,1,0,0:0:0:0:
272,64,38740,1,0,0:0:0:0:
400,272,38933,2,0,B|384:312|384:312|360:280,1,75
384,144,39125,2,0,B|424:160|424:160|392:184,1,75
304,48,39317,1,0,0:0:0:0:
200,220,39509,6,0,B|200:168|200:168|232:120|232:120|232:80,1,150
128,96,39894,1,0,0:0:0:0:
384,288,40086,2,0,B|384:336|384:336|400:304,1,75
312,163,40279,2,0,B|312:216|312:216|280:264|280:264|280:304,1,150
272,320,40567,5,0,0:0:0:0:
192,288,40663,1,0,0:0:0:0:
112,256,40759,1,0,0:0:0:0:
32,288,40856,2,0,B|96:336|96:336|128:320|128:320|160:332|160:332|192:324|192:324|216:332|216:332|232:328,1,225
240,296,41240,5,0,0:0:0:0:
200,216,41336,1,0,0:0:0:0:
136,152,41433,1,0,0:0:0:0:
48,128,41529,1,0,0:0:0:0:
0,208,41625,6,0,P|40:224|72:216,1,75
224,112,41817,2,0,P|260:105|293:121,1,75
416,296,42009,5,0,0:0:0:0:
432,248,42106,1,0,0:0:0:0:
456,200,42202,2,0,B|456:112|456:112|424:80|416:128,1,150
512,288,42586,1,0,0:0:0:0:
320,90,42779,6,0,L|320:128,1,37.5
256,293,42971,2,0,L|256:256,1,37.5
192,58,43163,2,0,L|192:96,1,37.5
128,325,43356,2,0,L|128:288,1,37.5
296,336,43548,6,0,P|336:344|368:336,1,75
432,192,43740,1,0,0:0:0:0:
360,176,43836,1,0,0:0:0:0:
288,192,43933,2,0,P|256:200|200:192,1,75
16,144,44125,2,0,P|48:136|104:144,1,75
304,288,44317,6,0,B|352:312|352:312|352:288,1,75
208,96,44509,2,0,B|160:72|160:72|160:96,1,75
80,192,44702,5,0,0:0:0:0:
152,208,44798,1,0,0:0:0:0:
224,192,44895,2,0,P|256:184|312:192,1,75
432,312,45086,1,0,0:0:0:0:
360,336,45183,1,0,0:0:0:0:
288,352,45279,1,0,0:0:0:0:
216,368,45375,1,0,0:0:0:0:
128,336,45471,6,0,B|128:296|128:296|152:224|152:224|152:184,1,150
96,64,45856,6,0,L|96:128,1,37.5
256,160,46048,2,0,L|256:197,1,37.5
416,256,46240,2,0,L|416:320,1,37.5
384,288,46625,6,0,L|288:320,1,75
136,248,46817,2,0,L|160:320,1,75
215,199,47009,2,0,L|192:128,1,75
368,190,47201,2,0,L|439:166,1,75
384,64,47394,5,0,0:0:0:0:
352,96,47490,1,0,0:0:0:0:
320,128,47586,1,0,0:0:0:0:
288,160,47683,1,0,0:0:0:0:
240,256,47779,6,0,B|208:208|208:208|176:208,1,75
240,336,47971,2,0,P|304:352|384:320,1,150
352,288,48259,1,0,0:0:0:0:
320,256,48356,1,0,0:0:0:0:
288,224,48452,1,0,0:0:0:0:
192,144,48548,5,0,0:0:0:0:
128,192,48644,1,0,0:0:0:0:
64,240,48740,1,0,0:0:0:0:
0,288,48836,1,0,0:0:0:0:
160,336,48933,5,0,0:0:0:0:
192,256,49029,1,0,0:0:0:0:
224,176,49125,1,0,0:0:0:0:
272,104,49221,1,0,0:0:0:0:
392,56,49317,6,0,L|392:136,1,75
416,240,49509,2,0,P|400:152|416:96,1,150
468,156,49798,1,0,0:0:0:0:
488,232,49894,2,0,L|456:304,1,75
95,288,50086,1,0,0:0:0:0:
44,228,50182,1,0,0:0:0:0:
24,152,50278,2,0,L|56:80,1,75
228,252,50471,5,0,0:0:0:0:
288,304,50567,1,0,0:0:0:0:
364,328,50663,2,0,P|384:288|384:248,1,75
284,132,50856,1,0,0:0:0:0:
224,80,50952,1,0,0:0:0:0:
148,56,51048,2,0,P|128:96|128:136,1,75
328,160,51240,5,0,0:0:0:0:
408,144,51336,1,0,0:0:0:0:
484,172,51433,2,0,B|452:204|452:204|416:220,1,75
184,224,51625,1,0,0:0:0:0:
104,240,51721,1,0,0:0:0:0:
28,212,51818,2,0,B|60:180|60:180|96:164,1,75
320,256,52009,6,0,B|336:296|336:296|360:324,1,75
384,128,52202,2,0,B|368:88|368:88|344:60,1,75
192,128,52394,5,0,0:0:0:0:
160,192,52490,1,0,0:0:0:0:
120,256,52586,1,0,0:0:0:0:
160,320,52683,1,0,0:0:0:0:
272,304,52779,5,0,0:0:0:0:
296,328,52875,1,0,0:0:0:0:
320,352,52971,2,0,B|416:352|416:352|432:320|432:320|416:296|416:296|432:264|432:264|416:240|416:240|432:216|432:216|416:192|416:192|432:168|432:168,1,300
200,256,53548,6,0,P|144:200|72:176,1,150
160,88,53836,2,0,P|216:144|288:168,1,150
400,88,54125,2,0,B|408:104|408:104|392:104|392:104|408:112|408:112|392:112|392:112|400:128|400:128|400:192,1,150
392,232,54413,5,0,0:0:0:0:
304,224,54509,1,0,0:0:0:0:
384,272,54606,1,0,0:0:0:0:
472,280,54702,1,0,0:0:0:0:
376,312,54798,1,0,0:0:0:0:
288,304,54894,1,0,0:0:0:0:
368,352,54991,1,0,0:0:0:0:
456,360,55087,5,0,0:0:0:0:
488,288,55183,1,0,0:0:0:0:
456,216,55279,1,0,0:0:0:0:
488,144,55375,1,0,0:0:0:0:
456,64,55471,6,0,B|440:56|440:56|440:72|440:72|432:56|432:56|432:72|432:72|424:56|424:56|424:72|424:72|416:56|416:56|416:72|416:72|408:56|408:56|408:72|408:72|400:56|400:56|400:72|400:72|392:56|392:56|392:72|392:72,1,225
360,48,55856,6,0,L|344:128,1,75
326,281,56048,2,0,L|400:296,1,75
185,281,56240,2,0,L|112:296,1,75
166,121,56432,2,0,L|152:48,1,75
256,32,56625,5,0,0:0:0:0:
256,128,56721,1,0,0:0:0:0:
256,224,56817,1,0,0:0:0:0:
256,320,56913,1,0,0:0:0:0:
352,352,57009,6,0,L|432:320,1,75
128,288,57202,2,0,L|48:256,1,75
384,224,57394,2,0,L|464:192,1,75
96,160,57586,2,0,L|16:128,1,75
416,96,57779,2,0,L|496:64,1,75
64,32,57971,2,0,L|-16:0,1,75
208,112,58163,5,0,0:0:0:0:
320,96,58259,1,0,0:0:0:0:
304,192,58356,1,0,0:0:0:0:
192,176,58452,1,0,0:0:0:0:
208,240,58548,1,0,0:0:0:0:
320,224,58644,1,0,0:0:0:0:
304,320,58740,1,0,0:0:0:0:
192,304,58836,1,0,0:0:0:0:
400,224,58933,6,0,P|432:192|448:144,1,93.75
400,32,59125,2,0,P|368:64|352:112,1,93.75
448,320,59317,1,0,0:0:0:0:
352,288,59413,1,0,0:0:0:0:
256,320,59509,1,0,0:0:0:0:
160,288,59606,1,0,0:0:0:0:
64,320,59702,2,0,L|64:224,1,93.75
160,48,59894,6,0,L|160:144,1,93.75
256,304,60086,1,0,0:0:0:0:
208,224,60183,1,0,0:0:0:0:
304,224,60279,1,0,0:0:0:0:
256,144,60375,1,0,0:0:0:0:
352,48,60471,2,0,L|352:144,1,93.75
448,320,60663,6,0,L|448:224,1,93.75
432,80,60856,1,0,0:0:0:0:
352,144,60952,1,0,0:0:0:0:
256,192,61048,1,0,0:0:0:0:
160,144,61144,1,0,0:0:0:0:
80,80,61240,2,0,L|176:48,1,93.75
368,16,61433,2,0,L|400:112,1,93.75
432,304,61625,2,0,L|336:336,1,93.75
144,368,61817,2,0,L|112:272,1,93.75
160,64,62009,5,0,0:0:0:0:
256,96,62106,1,0,0:0:0:0:
160,160,62202,1,0,0:0:0:0:
256,208,62298,1,0,0:0:0:0:
160,256,62394,2,0,L|80:208,1,93.75
80,304,62586,2,0,L|160:352,1,93.75
352,320,62779,5,0,0:0:0:0:
256,288,62876,1,0,0:0:0:0:
352,224,62972,1,0,0:0:0:0:
256,176,63068,1,0,0:0:0:0:
352,128,63164,2,0,L|432:176,1,93.75
432,80,63356,2,0,L|352:32,1,93.75
144,48,63548,6,0,B|208:32|208:32|224:64,1,93.75
291,327,63740,2,0,B|304:352|304:352|368:336,1,93.75
120,227,63933,2,0,B|96:240|96:240|112:304,1,93.75
391,156,64125,2,0,B|416:144|416:144|400:80,1,93.75
192,144,64317,5,0,0:0:0:0:
208,256,64413,1,0,0:0:0:0:
288,192,64509,1,0,0:0:0:0:
304,304,64605,1,0,0:0:0:0:
208,80,64702,5,0,0:0:0:0:
224,192,64798,1,0,0:0:0:0:
304,128,64894,1,0,0:0:0:0:
320,240,64990,1,0,0:0:0:0:
144,320,65086,6,0,L|48:320,1,93.75
0,144,65279,2,0,L|96:144,1,93.75
512,240,65471,2,0,L|418:240,1,93.75
368,64,65664,2,0,L|461:64,1,93.75
208,272,65856,6,0,L|208:176,1,93.75
96,32,66048,2,0,L|96:128,1,93.75
416,352,66240,2,0,L|416:258,1,93.75
304,112,66432,2,0,L|304:205,1,93.75
464,96,66625,6,0,P|432:48|384:32,1,93.75
111,33,66817,2,0,P|70:55|48:96,1,93.75
48,288,67009,2,0,P|80:336|128:352,1,93.75
400,350,67201,2,0,P|441:328|464:288,1,93.75
368,32,67394,6,0,P|320:16|272:16,1,93.75
32,80,67586,2,0,P|16:128|16:176,1,93.75
144,352,67779,2,0,P|192:368|240:368,1,93.75
480,304,67971,2,0,P|496:256|496:208,1,93.75
256,48,68163,5,0,0:0:0:0:
256,64,68259,1,0,0:0:0:0:
256,80,68356,1,0,0:0:0:0:
256,96,68452,1,0,0:0:0:0:
256,112,68548,1,0,0:0:0:0:
256,128,68644,1,0,0:0:0:0:
256,144,68740,1,0,0:0:0:0:
256,160,68836,1,0,0:0:0:0:
256,188,68933,5,0,0:0:0:0:
269,222,69029,1,0,0:0:0:0:
295,249,69125,1,0,0:0:0:0:
329,264,69221,1,0,0:0:0:0:
366,264,69317,1,0,0:0:0:0:
401,250,69413,1,0,0:0:0:0:
426,223,69509,1,0,0:0:0:0:
440,188,69606,1,0,0:0:0:0:
432,132,69702,5,0,0:0:0:0:
375,135,69798,1,0,0:0:0:0:
321,123,69894,1,0,0:0:0:0:
270,98,69990,1,0,0:0:0:0:
222,69,70086,1,0,0:0:0:0:
171,43,70183,1,0,0:0:0:0:
117,32,70279,1,0,0:0:0:0:
60,35,70375,1,0,0:0:0:0:
96,100,70471,5,0,0:0:0:0:
169,92,70567,1,0,0:0:0:0:
233,129,70663,1,0,0:0:0:0:
264,196,70759,1,0,0:0:0:0:
251,268,70855,1,0,0:0:0:0:
198,320,70951,1,0,0:0:0:0:
126,332,71047,1,0,0:0:0:0:
59,299,71144,1,0,0:0:0:0:
132,236,71240,5,0,0:0:0:0:
180,314,71336,1,0,0:0:0:0:
263,355,71432,1,0,0:0:0:0:
355,344,71528,1,0,0:0:0:0:
427,287,71624,1,0,0:0:0:0:
458,199,71720,1,0,0:0:0:0:
436,109,71816,1,0,0:0:0:0:
370,44,71913,1,0,0:0:0:0:
268,88,72009,5,0,0:0:0:0:
157,71,72105,1,0,0:0:0:0:
47,93,72201,1,0,0:0:0:0:
141,119,72297,1,0,0:0:0:0:
241,171,72393,1,0,0:0:0:0:
146,198,72489,1,0,0:0:0:0:
55,251,72585,1,0,0:0:0:0:
166,268,72682,1,0,0:0:0:0:
300,316,72778,5,0,0:0:0:0:
368,208,72875,1,0,0:0:0:0:
304,96,72971,1,0,0:0:0:0:
240,208,73067,1,0,0:0:0:0:
385,260,73163,5,0,0:0:0:0:
353,117,73260,1,0,0:0:0:0:
210,78,73356,1,0,0:0:0:0:
249,221,73452,1,0,0:0:0:0:
417,141,73548,6,0,L|444:172,11,31.25
404,172,73933,6,0,P|336:152|152:316,1,343.75
192,320,74317,5,0,0:0:0:0:
384,352,74445,1,0,0:0:0:0:
288,256,74574,1,0,0:0:0:0:
96,288,74702,1,0,0:0:0:0:
192,224,74830,1,0,0:0:0:0:
0,256,74958,1,0,0:0:0:0:
96,160,75087,1,0,0:0:0:0:
288,192,75215,1,0,0:0:0:0:
192,96,75343,1,0,0:0:0:0:
384,128,75471,1,0,0:0:0:0:
416,160,75856,5,0,0:0:0:0:
240,80,75984,1,0,0:0:0:0:
240,240,76112,1,0,0:0:0:0:
336,48,76240,1,0,0:0:0:0:
144,160,76368,1,0,0:0:0:0:
336,272,76497,1,0,0:0:0:0:
192,288,76625,1,0,0:0:0:0:
416,352,76753,1,0,0:0:0:0:
272,144,76881,1,0,0:0:0:0:
96,240,77009,1,0,0:0:0:0:
112,256,77394,5,0,0:0:0:0:
256,112,77522,1,0,0:0:0:0:
320,304,77650,1,0,0:0:0:0:
128,96,77779,1,0,0:0:0:0:
304,192,77907,1,0,0:0:0:0:
96,176,78035,1,0,0:0:0:0:
224,336,78163,1,0,0:0:0:0:
400,224,78291,1,0,0:0:0:0:
224,208,78420,1,0,0:0:0:0:
448,64,78548,1,0,0:0:0:0:
480,288,78676,1,0,0:0:0:0:
368,112,78804,1,0,0:0:0:0:
336,352,78933,1,0,0:0:0:0:
320,32,79061,1,0,0:0:0:0:
480,176,79189,1,0,0:0:0:0:
240,192,79317,1,0,0:0:0:0:
368,272,79445,1,0,0:0:0:0:
48,256,79574,1,0,0:0:0:0:
512,96,79702,1,0,0:0:0:0:
192,32,80086,6,0,B|208:48|208:48|176:64|176:64|192:80|192:80|160:96|160:96|176:112|176:112|144:128|144:128|160:144|160:144|128:160|128:160|96:192|112:240,1,312.5
128,240,80471,5,0,0:0:0:0:
272,96,80599,1,0,0:0:0:0:
448,192,80727,1,0,0:0:0:0:
256,256,80856,1,0,0:0:0:0:
160,112,80984,1,0,0:0:0:0:
208,320,81112,1,0,0:0:0:0:
464,304,81240,1,0,0:0:0:0:
368,96,81368,1,0,0:0:0:0:
368,336,81497,1,0,0:0:0:0:
240,16,81625,1,0,0:0:0:0:
208,32,82009,5,0,0:0:0:0:
352,176,82138,1,0,0:0:0:0:
160,160,82266,1,0,0:0:0:0:
256,336,82394,1,0,0:0:0:0:
256,128,82522,1,0,0:0:0:0:
112,304,82650,1,0,0:0:0:0:
320,64,82779,1,0,0:0:0:0:
48,240,82907,1,0,0:0:0:0:
352,272,83035,1,0,0:0:0:0:
16,160,83163,1,0,0:0:0:0:
32,144,83548,5,0,0:0:0:0:
192,272,83676,1,0,0:0:0:0:
224,64,83804,1,0,0:0:0:0:
112,256,83933,1,0,0:0:0:0:
304,144,84061,1,0,0:0:0:0:
96,48,84189,1,0,0:0:0:0:
256,208,84317,1,0,0:0:0:0:
464,112,84445,1,0,0:0:0:0:
304,288,84574,1,0,0:0:0:0:
400,64,84702,1,0,0:0:0:0:
176,112,84830,1,0,0:0:0:0:
384,240,84958,1,0,0:0:0:0:
160,352,85086,1,0,0:0:0:0:
336,176,85215,1,0,0:0:0:0:
96,128,85343,1,0,0:0:0:0:
240,336,85471,1,0,0:0:0:0:
144,32,85599,1,0,0:0:0:0:
400,352,85727,1,0,0:0:0:0:
32,16,85856,1,0,0:0:0:0:
48,32,86240,6,0,B|64:48|64:48|48:80|48:80|64:96|64:96|32:128|32:128|48:128|48:128|16:160|16:160|32:160|32:160|16:208|16:208|32:208|32:208|16:288,1,343.75
32,320,86625,5,0,0:0:0:0:
160,128,86753,1,0,0:0:0:0:
352,128,86881,1,0,0:0:0:0:
480,320,87009,1,0,0:0:0:0:
384,352,87394,5,0,0:0:0:0:
480,64,87522,1,0,0:0:0:0:
32,64,87650,1,0,0:0:0:0:
128,352,87778,1,0,0:0:0:0:
0,224,88163,5,0,0:0:0:0:
320,352,88291,1,0,0:0:0:0:
192,32,88420,1,0,0:0:0:0:
512,160,88548,1,0,0:0:0:0:
128,256,88676,5,0,0:0:0:0:
256,96,88740,1,0,0:0:0:0:
384,256,88804,1,0,0:0:0:0:
32,352,88933,6,0,B|40:328|40:328|48:352|48:352|48:328|48:328|56:352|56:352|56:328|56:328|64:352|64:352|64:328|64:328|72:352|72:352|72:328|72:328|80:352|80:352|80:328|80:328|88:352|88:352|88:328|88:328|96:352|96:352|96:328|96:328|104:352|104:352|104:328|104:328|112:352|112:352|112:328|112:328,1,450.000017166138
136,352,89341,6,0,B|192:336|240:216|240:216|320:248|296:328,1,312.5
320,336,89702,5,0,0:0:0:0:
384,296,89798,1,0,0:0:0:0:
400,112,89990,5,0,0:0:0:0:
336,152,90086,2,0,B|288:160|288:160|248:136|248:136|208:152|152:144,1,187.5
55,140,90471,6,0,P|94:59|184:56,1,187.5
88,320,90856,2,0,B|88:256|88:256|56:192|56:192|56:128,1,187.5
192,144,91240,5,0,0:0:0:0:
320,144,91336,1,0,0:0:0:0:
320,240,91529,5,0,0:0:0:0:
192,240,91625,1,0,0:0:0:0:
456,140,91817,6,0,B|456:192|456:192|424:256|424:256|424:320,1,187.5
329,55,92202,2,0,P|418:59|457:140,1,187.5
256,144,92586,5,0,0:0:0:0:
256,224,92683,1,0,0:0:0:0:
256,304,92779,1,0,0:0:0:0:
256,320,92875,1,0,0:0:0:0:
256,64,93067,5,0,0:0:0:0:
256,48,93163,1,0,0:0:0:0:
160,128,93356,6,0,B|112:192|112:192|112:304,1,187.5
176,336,93644,1,0,0:0:0:0:
256,304,93740,2,0,P|352:304|432:352,1,187.5
192,240,94125,5,0,0:0:0:0:
256,192,94317,1,0,0:0:0:0:
288,224,94413,1,0,0:0:0:0:
224,160,94510,1,0,0:0:0:0:
320,144,94702,1,0,0:0:0:0:
352,256,94894,6,0,B|400:192|400:192|400:80,1,187.5
336,48,95182,1,0,0:0:0:0:
256,80,95278,2,0,P|160:80|80:32,1,187.5
48,112,95567,1,0,0:0:0:0:
0,176,95663,1,0,0:0:0:0:
48,240,95759,1,0,0:0:0:0:
96,304,95856,6,0,L|192:304,1,93.75
416,80,96144,2,0,L|320:80,1,93.75
208,224,96433,6,0,B|192:144|192:144|128:144|128:144|96:192,1,187.5
160,64,96817,1,0,0:0:0:0:
256,352,97009,1,0,0:0:0:0:
352,64,97202,1,0,0:0:0:0:
304,224,97394,2,0,B|320:144|320:144|384:144|384:144|416:192,1,187.5
384,256,97683,1,0,0:0:0:0:
432,320,97779,1,0,0:0:0:0:
80,320,97971,5,0,0:0:0:0:
128,256,98067,1,0,0:0:0:0:
112,176,98163,1,0,0:0:0:0:
256,48,98356,1,0,0:0:0:0:
256,336,98548,1,0,0:0:0:0:
400,176,98740,1,0,0:0:0:0:
200,136,98933,5,0,0:0:0:0:
144,80,99029,1,0,0:0:0:0:
312,248,99221,1,0,0:0:0:0:
368,304,99317,1,0,0:0:0:0:
256,192,99509,5,0,0:0:0:0:
320,32,99702,1,0,0:0:0:0:
352,96,99798,1,0,0:0:0:0:
384,160,99894,2,0,L|480:160,1,93.75
416,224,100086,1,0,0:0:0:0:
256,320,100279,1,0,0:0:0:0:
192,32,100471,1,0,0:0:0:0:
160,96,100567,1,0,0:0:0:0:
128,160,100663,2,0,L|32:160,1,93.75
96,224,100855,1,0,0:0:0:0:
256,192,101048,1,0,0:0:0:0:
320,128,101240,6,0,L|352:32,1,93.75
408,285,101433,2,0,L|320:256,1,93.75
192,256,101625,2,0,L|160:352,1,93.75
103,98,101817,2,0,L|192:128,1,93.75
416,192,102009,5,0,0:0:0:0:
352,224,102106,1,0,0:0:0:0:
288,256,102202,1,0,0:0:0:0:
224,288,102298,1,0,0:0:0:0:
256,352,102394,5,0,0:0:0:0:
224,288,102491,1,0,0:0:0:0:
192,224,102587,1,0,0:0:0:0:
160,160,102683,1,0,0:0:0:0:
96,192,102779,5,0,0:0:0:0:
160,160,102876,1,0,0:0:0:0:
224,128,102972,1,0,0:0:0:0:
288,96,103068,1,0,0:0:0:0:
256,32,103163,5,0,0:0:0:0:
288,96,103260,1,0,0:0:0:0:
320,160,103356,1,0,0:0:0:0:
352,224,103452,1,0,0:0:0:0:
384,320,103548,5,0,0:0:0:0:
320,288,103644,1,0,0:0:0:0:
256,256,103740,1,0,0:0:0:0:
192,224,103836,1,0,0:0:0:0:
128,320,103933,5,0,0:0:0:0:
160,256,104029,1,0,0:0:0:0:
192,192,104125,1,0,0:0:0:0:
224,128,104221,1,0,0:0:0:0:
128,64,104317,5,0,0:0:0:0:
192,96,104413,1,0,0:0:0:0:
256,128,104509,1,0,0:0:0:0:
320,160,104605,1,0,0:0:0:0:
384,64,104702,5,0,0:0:0:0:
352,128,104798,1,0,0:0:0:0:
320,192,104894,1,0,0:0:0:0:
288,256,104990,1,0,0:0:0:0:
208,320,105086,6,0,P|160:288|144:256,1,93.75
128,64,105279,2,0,P|176:96|192:128,1,93.75
48,240,105471,2,0,L|96:160,1,93.75
288,160,105663,2,0,L|240:240,1,93.75
96,320,105856,5,0,0:0:0:0:
160,256,105952,1,0,0:0:0:0:
160,160,106048,1,0,0:0:0:0:
224,96,106144,1,0,0:0:0:0:
352,64,106240,6,0,L|448:64,1,93.75
445,256,106433,2,0,L|352:256,1,93.75
386,160,106625,2,0,L|480:160,1,93.75
480,352,106818,2,0,L|386:352,1,93.75
256,320,107009,5,0,0:0:0:0:
192,288,107106,1,0,0:0:0:0:
128,256,107202,1,0,0:0:0:0:
64,224,107298,1,0,0:0:0:0:
320,288,107394,5,0,0:0:0:0:
256,224,107490,1,0,0:0:0:0:
192,160,107586,1,0,0:0:0:0:
128,96,107683,1,0,0:0:0:0:
384,288,107779,5,0,0:0:0:0:
320,192,107875,1,0,0:0:0:0:
256,96,107971,1,0,0:0:0:0:
192,0,108067,1,0,0:0:0:0:
448,320,108163,6,0,L|448:224,1,93.75
416,128,108356,2,0,L|416:34,1,93.75
352,352,108548,2,0,L|352:160,1,187.5
256,125,108933,2,0,L|256:32,1,93.75
256,192,109125,1,0,0:0:0:0:
256,349,109221,2,0,L|256:256,1,93.75
160,352,109509,2,0,L|160:160,1,187.5
32,160,109798,1,0,0:0:0:0:
96,128,109894,2,0,L|96:34,1,93.75
64,320,110087,2,0,L|64:226,1,93.75
128,288,110279,1,0,0:0:0:0:
160,96,110375,1,0,0:0:0:0:
192,256,110471,1,0,0:0:0:0:
224,64,110567,1,0,0:0:0:0:
256,224,110663,1,0,0:0:0:0:
288,32,110759,1,0,0:0:0:0:
320,192,110856,2,0,B|320:160|320:160|352:160|352:160|352:192|352:192|288:192|288:192|288:160|288:160|320:160|320:160|320:224,1,281.25
320,288,111240,5,0,0:0:0:0:
416,288,111336,1,0,0:0:0:0:
224,288,111433,1,0,0:0:0:0:
192,96,111625,5,0,0:0:0:0:
96,96,111721,1,0,0:0:0:0:
288,96,111818,1,0,0:0:0:0:
320,256,112009,5,0,0:0:0:0:
448,256,112106,1,0,0:0:0:0:
192,256,112202,1,0,0:0:0:0:
192,128,112394,5,0,0:0:0:0:
64,128,112491,1,0,0:0:0:0:
320,128,112587,1,0,0:0:0:0:
320,224,112779,5,0,0:0:0:0:
192,160,112875,1,0,0:0:0:0:
330,167,112971,1,0,0:0:0:0:
181,216,113067,1,0,0:0:0:0:
294,114,113163,1,0,0:0:0:0:
217,269,113259,1,0,0:0:0:0:
225,101,113356,1,0,0:0:0:0:
286,282,113452,1,0,0:0:0:0:
162,145,113548,5,0,0:0:0:0:
349,238,113644,1,0,0:0:0:0:
146,228,113740,1,0,0:0:0:0:
365,155,113836,1,0,0:0:0:0:
199,305,113933,1,0,0:0:0:0:
312,78,114029,1,0,0:0:0:0:
300,324,114125,1,0,0:0:0:0:
211,59,114221,1,0,0:0:0:0:
393,260,114317,6,0,L|480:224,1,93.75
480,64,114509,2,0,L|448:160,1,93.75
384,352,114702,2,0,L|288:352,1,93.75
118,123,114894,6,0,L|32:160,1,93.75
32,320,115086,2,0,L|64:224,1,93.75
128,32,115279,2,0,L|224:32,1,93.75
352,128,115471,6,0,L|320:224,1,93.75
160,256,115663,2,0,L|189:167,1,93.75
256,32,115856,5,0,0:0:0:0:
376,64,115952,1,0,0:0:0:0:
432,176,116048,1,0,0:0:0:0:
432,296,116144,1,0,0:0:0:0:
448,192,116240,6,0,L|448:96,1,93.75
416,288,116433,2,0,L|416:384,1,93.75
256,352,116625,5,0,0:0:0:0:
136,320,116721,1,0,0:0:0:0:
80,208,116817,1,0,0:0:0:0:
80,88,116913,1,0,0:0:0:0:
64,192,117009,6,0,L|64:288,1,93.75
96,96,117202,2,0,L|96:0,1,93.75
96,224,117394,5,0,0:0:0:0:
192,128,117490,1,0,0:0:0:0:
256,256,117586,1,0,0:0:0:0:
320,64,117683,1,0,0:0:0:0:
384,288,117779,2,0,L|416:192,1,93.75
480,0,117971,2,0,L|448:96,1,93.75
416,160,118163,5,0,0:0:0:0:
320,256,118259,1,0,0:0:0:0:
256,128,118355,1,0,0:0:0:0:
192,320,118452,1,0,0:0:0:0:
128,96,118548,2,0,L|96:192,1,93.75
32,384,118740,2,0,L|64:288,1,93.75
256,32,118933,5,0,0:0:0:0:
288,64,119029,1,0,0:0:0:0:
256,96,119125,1,0,0:0:0:0:
320,128,119221,1,0,0:0:0:0:
256,160,119317,1,0,0:0:0:0:
352,192,119413,1,0,0:0:0:0:
256,224,119509,1,0,0:0:0:0:
384,256,119606,1,0,0:0:0:0:
256,288,119702,5,0,0:0:0:0:
64,256,119798,1,0,0:0:0:0:
224,224,119894,1,0,0:0:0:0:
96,288,119990,1,0,0:0:0:0:
192,160,120086,1,0,0:0:0:0:
128,320,120183,1,0,0:0:0:0:
160,96,120279,1,0,0:0:0:0:
160,352,120375,1,0,0:0:0:0:
128,32,120471,2,0,L|32:64,1,93.75
384,64,120663,2,0,L|472:34,1,93.75
256,0,120856,5,0,0:0:0:0:
288,96,120952,1,0,0:0:0:0:
224,192,121048,1,0,0:0:0:0:
320,288,121144,1,0,0:0:0:0:
192,384,121240,6,0,L|96:288,1,93.75
320,0,121433,2,0,L|416:96,1,93.75
386,317,121625,2,0,L|320:384,1,93.75
125,66,121818,2,0,L|192:0,1,93.75
384,160,122009,5,0,0:0:0:0:
320,256,122106,1,0,0:0:0:0:
192,256,122202,1,0,0:0:0:0:
128,160,122298,1,0,0:0:0:0:
415,148,122394,5,0,0:0:0:0:
336,267,122491,1,0,0:0:0:0:
176,267,122587,1,0,0:0:0:0:
96,148,122683,1,0,0:0:0:0:
256,0,122779,6,0,L|192:96,1,93.75
256,384,122971,2,0,L|320:288,1,93.75
256,192,123163,5,0,0:0:0:0:
256,192,123187,12,0,123524,0:0:0:0:
448,64,123548,5,0,0:0:0:0:
416,128,123644,1,0,0:0:0:0:
352,64,123836,5,0,0:0:0:0:
288,160,123933,1,0,0:0:0:0:
256,64,124125,5,0,0:0:0:0:
160,64,124317,5,0,0:0:0:0:
64,192,124413,1,0,0:0:0:0:
64,64,124606,5,0,0:0:0:0:
192,224,124702,1,0,0:0:0:0:
160,64,124894,5,0,0:0:0:0:
256,64,125086,5,0,0:0:0:0:
384,256,125183,1,0,0:0:0:0:
352,64,125375,5,0,0:0:0:0:
192,288,125471,1,0,0:0:0:0:
448,64,125663,5,0,0:0:0:0:
32,352,125856,5,0,0:0:0:0:
96,320,125952,1,0,0:0:0:0:
160,352,126048,1,0,0:0:0:0:
224,320,126144,1,0,0:0:0:0:
288,352,126240,1,0,0:0:0:0:
352,320,126336,1,0,0:0:0:0:
416,352,126433,1,0,0:0:0:0:
480,320,126529,1,0,0:0:0:0:
480,192,126625,5,0,0:0:0:0:
416,256,126721,1,0,0:0:0:0:
352,192,126817,1,0,0:0:0:0:
288,256,126913,1,0,0:0:0:0:
224,160,127009,1,0,0:0:0:0:
160,256,127106,1,0,0:0:0:0:
96,160,127202,1,0,0:0:0:0:
32,256,127298,1,0,0:0:0:0:
32,32,127394,5,0,0:0:0:0:
96,128,127490,1,0,0:0:0:0:
160,64,127586,1,0,0:0:0:0:
224,224,127683,1,0,0:0:0:0:
288,96,127779,1,0,0:0:0:0:
352,320,127875,1,0,0:0:0:0:
416,128,127971,1,0,0:0:0:0:
480,384,128067,1,0,0:0:0:0:
512,0,128163,5,0,0:0:0:0:
512,0,128548,1,0,0:0:0:0:
512,0,128933,1,0,0:0:0:0:
512,0,129317,6,0,B|480:32|480:32|480:64|464:80|464:80|480:64|448:64|448:64|432:80|464:80|464:80|432:80|416:96|416:96|448:128|448:160,1,281.25
448,192,129702,5,0,0:0:0:0:
256,284,129830,1,0,0:0:0:0:
459,343,129958,1,0,0:0:0:0:
383,144,130086,1,0,0:0:0:0:
324,349,130215,1,0,0:0:0:0:
308,137,130343,1,0,0:0:0:0:
126,27,130471,1,0,0:0:0:0:
103,237,130599,1,0,0:0:0:0:
207,52,130727,1,0,0:0:0:0:
335,223,130856,1,0,0:0:0:0:
450,31,131240,5,0,0:0:0:0:
419,278,131368,1,0,0:0:0:0:
322,45,131497,1,0,0:0:0:0:
90,137,131625,1,0,0:0:0:0:
193,364,131753,1,0,0:0:0:0:
185,114,131881,1,0,0:0:0:0:
433,134,132009,1,0,0:0:0:0:
202,234,132138,1,0,0:0:0:0:
52,34,132266,1,0,0:0:0:0:
278,138,132394,1,0,0:0:0:0:
328,125,132779,5,0,0:0:0:0:
83,298,132907,1,0,0:0:0:0:
206,25,133035,1,0,0:0:0:0:
398,254,133163,1,0,0:0:0:0:
131,117,133291,1,0,0:0:0:0:
325,347,133420,1,0,0:0:0:0:
433,134,133548,1,0,0:0:0:0:
204,327,133676,1,0,0:0:0:0:
289,39,133804,1,0,0:0:0:0:
36,204,133933,1,0,0:0:0:0:
330,148,134061,1,0,0:0:0:0:
51,38,134189,1,0,0:0:0:0:
103,332,134317,1,0,0:0:0:0:
151,36,134445,1,0,0:0:0:0:
452,40,134574,1,0,0:0:0:0:
166,130,134702,1,0,0:0:0:0:
406,309,134830,1,0,0:0:0:0:
113,245,134958,1,0,0:0:0:0:
334,43,135086,1,0,0:0:0:0:
320,64,135471,6,0,B|352:96|352:96|320:128|320:128|352:160|352:160|320:192|320:192|352:224|352:224|320:256|320:256|352:288|352:288|320:320|320:320,1,337.500012874604
320,320,135856,5,0,0:0:0:0:
256,96,135984,1,0,0:0:0:0:
475,299,136112,1,0,0:0:0:0:
176,316,136240,1,0,0:0:0:0:
364,83,136368,1,0,0:0:0:0:
70,13,136497,1,0,0:0:0:0:
51,311,136625,1,0,0:0:0:0:
169,35,136753,1,0,0:0:0:0:
464,85,136881,1,0,0:0:0:0:
391,375,137009,2,0,P|342:262|148:188,1,337.500012874604
126,210,137394,5,0,0:0:0:0:
375,44,137522,1,0,0:0:0:0:
475,299,137650,1,0,0:0:0:0:
181,371,137779,1,0,0:0:0:0:
240,77,137907,1,0,0:0:0:0:
395,333,138035,1,0,0:0:0:0:
462,41,138163,1,0,0:0:0:0:
163,23,138291,1,0,0:0:0:0:
21,289,138420,1,0,0:0:0:0:
299,178,138548,2,0,P|369:149|419:336,1,337.500012874604
409,362,138933,5,0,0:0:0:0:
138,141,139061,1,0,0:0:0:0:
487,141,139189,1,0,0:0:0:0:
230,378,139317,1,0,0:0:0:0:
305,36,139445,1,0,0:0:0:0:
90,315,139574,1,0,0:0:0:0:
243,1,139702,1,0,0:0:0:0:
340,336,139830,1,0,0:0:0:0:
83,99,139958,1,0,0:0:0:0:
423,178,140086,1,0,0:0:0:0:
0,192,140215,1,0,0:0:0:0:
387,33,140343,1,0,0:0:0:0:
483,368,140471,1,0,0:0:0:0:
134,337,140599,1,0,0:0:0:0:
478,276,140727,1,0,0:0:0:0:
205,52,140856,1,0,0:0:0:0:
364,362,140984,1,0,0:0:0:0:
506,42,141112,1,0,0:0:0:0:
11,348,141240,1,0,0:0:0:0:
16,334,141625,5,0,0:0:0:0:
22,321,142009,5,0,0:0:0:0:
490,63,142138,1,0,0:0:0:0:
490,321,142266,1,0,0:0:0:0:
22,63,142395,1,0,0:0:0:0:
448,0,142779,5,0,0:0:0:0:
64,384,142907,1,0,0:0:0:0:
64,0,143035,1,0,0:0:0:0:
448,384,143163,1,0,0:0:0:0:
0,0,143548,5,0,0:0:0:0:
512,0,143677,1,0,0:0:0:0:
0,384,143804,1,0,0:0:0:0:
512,384,143933,1,0,0:0:0:0:
256,192,144061,1,0,0:0:0:0:
256,192,144125,1,0,0:0:0:0:
256,192,144189,1,0,0:0:0:0:
256,192,144253,1,0,0:0:0:0:
256,192,144317,1,0,0:0:0:0:
256,96,144702,5,0,0:0:0:0:
256,0,145086,5,0,0:0:0:0:
256,192,153548,12,0,157370,0:0:0:0:
352,288,157394,5,0,0:0:0:0:
256,256,157490,1,0,0:0:0:0:
160,224,157586,2,0,P|96:224|32:256,1,112.500004291535
128,320,157779,1,0,0:0:0:0:
384,64,157971,5,0,0:0:0:0:
460,142,158068,2,0,P|407:161|352:160,1,112.500004291535
256,128,158260,1,0,0:0:0:0:
160,96,158356,1,0,0:0:0:0:
128,192,158452,1,0,0:0:0:0:
224,224,158548,1,0,0:0:0:0:
64,64,158740,5,0,0:0:0:0:
64,320,158933,1,0,0:0:0:0:
192,320,159029,1,0,0:0:0:0:
320,320,159125,2,0,B|384:320|384:320|448:288,1,112.500004291535
256,256,159317,1,0,0:0:0:0:
128,192,159509,1,0,0:0:0:0:
448,64,159702,5,0,0:0:0:0:
320,64,159798,1,0,0:0:0:0:
192,64,159894,2,0,B|128:64|128:64|64:96,1,112.500004291535
256,128,160086,1,0,0:0:0:0:
256,256,160183,1,0,0:0:0:0:
384,192,160278,1,0,0:0:0:0:
384,320,160375,1,0,0:0:0:0:
512,256,160471,5,0,0:0:0:0:
448,160,160567,1,0,0:0:0:0:
320,96,160663,1,0,0:0:0:0:
192,96,160759,1,0,0:0:0:0:
256,192,160856,5,0,0:0:0:0:
128,160,160952,1,0,0:0:0:0:
32,256,161048,1,0,0:0:0:0:
160,288,161144,1,0,0:0:0:0:
320,320,161240,6,0,L|384:224,1,112.500004291535
384,0,161433,2,0,L|320:96,1,112.500004291535
128,32,161625,2,0,L|15:32,1,112.500004291535
384,352,161817,2,0,L|496:352,1,112.500004291535
192,64,162009,2,0,L|128:160,1,112.500004291535
128,384,162202,2,0,L|192:288,1,112.500004291535
256,256,162394,1,0,0:0:0:0:
256,128,162491,1,0,0:0:0:0:
128,192,162586,1,0,0:0:0:0:
128,64,162683,1,0,0:0:0:0:
0,128,162779,5,0,0:0:0:0:
64,224,162875,1,0,0:0:0:0:
192,288,162971,1,0,0:0:0:0:
320,288,163067,1,0,0:0:0:0:
256,192,163164,5,0,0:0:0:0:
384,224,163260,1,0,0:0:0:0:
480,128,163356,1,0,0:0:0:0:
352,96,163452,1,0,0:0:0:0:
256,0,163548,5,0,0:0:0:0:
256,96,163644,1,0,0:0:0:0:
160,96,163740,1,0,0:0:0:0:
160,0,163836,1,0,0:0:0:0:
448,192,163933,5,0,0:0:0:0:
352,192,164029,1,0,0:0:0:0:
352,96,164125,1,0,0:0:0:0:
448,96,164221,1,0,0:0:0:0:
256,384,164317,5,0,0:0:0:0:
256,288,164413,1,0,0:0:0:0:
352,288,164509,1,0,0:0:0:0:
352,384,164605,1,0,0:0:0:0:
64,192,164702,5,0,0:0:0:0:
160,192,164798,1,0,0:0:0:0:
160,288,164894,1,0,0:0:0:0:
64,288,164990,1,0,0:0:0:0:
256,32,165086,5,0,0:0:0:0:
224,160,165183,1,0,0:0:0:0:
288,64,165279,1,0,0:0:0:0:
160,32,165376,1,0,0:0:0:0:
96,192,165471,5,0,0:0:0:0:
224,224,165568,1,0,0:0:0:0:
128,160,165664,1,0,0:0:0:0:
96,288,165761,1,0,0:0:0:0:
256,352,165856,5,0,0:0:0:0:
288,224,165953,1,0,0:0:0:0:
224,320,166049,1,0,0:0:0:0:
352,352,166146,1,0,0:0:0:0:
416,192,166240,5,0,0:0:0:0:
288,160,166337,1,0,0:0:0:0:
384,224,166433,1,0,0:0:0:0:
416,96,166530,1,0,0:0:0:0:
256,0,166625,5,0,0:0:0:0:
160,96,166721,1,0,0:0:0:0:
320,64,166817,1,0,0:0:0:0:
160,0,166913,1,0,0:0:0:0:
448,192,167009,5,0,0:0:0:0:
352,96,167105,1,0,0:0:0:0:
384,256,167201,1,0,0:0:0:0:
448,96,167297,1,0,0:0:0:0:
256,384,167394,5,0,0:0:0:0:
352,288,167490,1,0,0:0:0:0:
192,320,167586,1,0,0:0:0:0:
352,384,167682,1,0,0:0:0:0:
64,192,167779,5,0,0:0:0:0:
160,288,167875,1,0,0:0:0:0:
128,128,167971,1,0,0:0:0:0:
64,288,168067,1,0,0:0:0:0:
192,64,168163,5,0,0:0:0:0:
401,92,168259,1,0,0:0:0:0:
33,215,168356,1,0,0:0:0:0:
294,0,168452,1,0,0:0:0:0:
332,345,168548,5,0,0:0:0:0:
110,291,168644,1,0,0:0:0:0:
478,168,168741,1,0,0:0:0:0:
224,352,168837,1,0,0:0:0:0:
256,192,168933,5,0,0:0:0:0:
256,192,169125,1,0,0:0:0:0:
256,192,169317,1,0,0:0:0:0:
256,192,169509,1,0,0:0:0:0:
256,192,169702,5,0,0:0:0:0:
0,192,178933,5,0,0:0:0:0:
32,128,179029,1,0,0:0:0:0:
32,224,179221,5,0,0:0:0:0:
96,128,179317,1,0,0:0:0:0:
64,256,179509,5,0,0:0:0:0:
96,288,179702,5,0,0:0:0:0:
160,128,179798,1,0,0:0:0:0:
128,320,179990,5,0,0:0:0:0:
224,128,180086,1,0,0:0:0:0:
160,352,180279,5,0,0:0:0:0:
288,128,180471,5,0,0:0:0:0:
288,352,180663,1,0,0:0:0:0:
384,96,180856,1,0,0:0:0:0:
192,384,181048,1,0,0:0:0:0:
480,128,181240,1,0,0:0:0:0:
96,352,181433,1,0,0:0:0:0:
512,224,181625,1,0,0:0:0:0:
32,288,181817,1,0,0:0:0:0:
512,320,182009,5,0,0:0:0:0:
416,288,182106,1,0,0:0:0:0:
320,256,182202,1,0,0:0:0:0:
224,224,182298,1,0,0:0:0:0:
480,256,182394,5,0,0:0:0:0:
352,256,182490,1,0,0:0:0:0:
224,256,182586,1,0,0:0:0:0:
96,256,182683,1,0,0:0:0:0:
448,192,182779,5,0,0:0:0:0:
320,288,182875,1,0,0:0:0:0:
192,192,182971,1,0,0:0:0:0:
64,288,183067,1,0,0:0:0:0:
416,128,183163,5,0,0:0:0:0:
352,320,183259,1,0,0:0:0:0:
256,128,183356,1,0,0:0:0:0:
160,320,183452,1,0,0:0:0:0:
384,64,183548,5,0,0:0:0:0:
384,288,183644,1,0,0:0:0:0:
224,64,183740,1,0,0:0:0:0:
192,384,183836,1,0,0:0:0:0:
352,0,183933,5,0,0:0:0:0:
416,352,184029,1,0,0:0:0:0:
192,0,184125,1,0,0:0:0:0:
224,320,184221,1,0,0:0:0:0:
480,288,184317,5,0,0:0:0:0:
480,256,184413,1,0,0:0:0:0:
480,224,184509,1,0,0:0:0:0:
480,192,184606,1,0,0:0:0:0:
448,160,184702,5,0,0:0:0:0:
416,160,184798,1,0,0:0:0:0:
384,160,184894,1,0,0:0:0:0:
352,160,184990,1,0,0:0:0:0:
320,192,185086,6,0,L|160:224,1,150.000005722046
256,128,185471,2,0,L|108:157,1,150.000005722046
192,64,185856,2,0,L|32:96,1,150.000005722046
128,0,186240,6,0,P|64:64|224:352,1,450.000017166138
224,352,186625,5,0,0:0:0:0:
416,224,186753,1,0,0:0:0:0:
288,32,186881,1,0,0:0:0:0:
96,160,187009,1,0,0:0:0:0:
339,23,187138,1,0,0:0:0:0:
87,108,187266,1,0,0:0:0:0:
172,360,187394,1,0,0:0:0:0:
424,275,187522,1,0,0:0:0:0:
251,387,187650,1,0,0:0:0:0:
451,196,187778,1,0,0:0:0:0:
390,54,188163,5,0,0:0:0:0:
118,57,188291,1,0,0:0:0:0:
121,329,188419,1,0,0:0:0:0:
393,326,188547,1,0,0:0:0:0:
65,306,188676,1,0,0:0:0:0:
369,383,188804,1,0,0:0:0:0:
507,128,188932,1,0,0:0:0:0:
128,32,189060,1,0,0:0:0:0:
430,32,189188,1,0,0:0:0:0:
30,107,189316,1,0,0:0:0:0:
320,32,189702,5,0,0:0:0:0:
512,288,189830,1,0,0:0:0:0:
96,192,189958,1,0,0:0:0:0:
352,0,190086,1,0,0:0:0:0:
256,352,190215,1,0,0:0:0:0:
64,96,190343,1,0,0:0:0:0:
416,192,190471,1,0,0:0:0:0:
160,384,190599,1,0,0:0:0:0:
256,32,190727,1,0,0:0:0:0:
448,288,190855,1,0,0:0:0:0:
64,224,190984,1,0,0:0:0:0:
435,74,191112,1,0,0:0:0:0:
288,384,191240,1,0,0:0:0:0:
138,13,191368,1,0,0:0:0:0:
448,160,191497,1,0,0:0:0:0:
77,310,191625,1,0,0:0:0:0:
224,0,191753,1,0,0:0:0:0:
374,371,191881,1,0,0:0:0:0:
32,96,192009,1,0,0:0:0:0:
256,0,192394,6,0,B|288:64|288:64|224:64|224:128|224:128|288:128|288:192|288:192|224:192|224:224|224:224|256:256|256:320,1,459.375004380941
256,352,192779,5,0,0:0:0:0:
416,64,192907,1,0,0:0:0:0:
0,256,193035,1,0,0:0:0:0:
416,320,193163,1,0,0:0:0:0:
352,0,193291,1,0,0:0:0:0:
64,0,193420,1,0,0:0:0:0:
160,320,193548,1,0,0:0:0:0:
512,0,193676,1,0,0:0:0:0:
352,352,193804,1,0,0:0:0:0:
256,0,193933,6,0,B|224:64|224:64|288:64|288:128|288:128|224:128|224:192|224:192|288:192|288:224|288:224|256:256|256:320,1,459.375004380941
256,352,194317,5,0,0:0:0:0:
0,32,194445,1,0,0:0:0:0:
512,64,194574,1,0,0:0:0:0:
64,320,194702,1,0,0:0:0:0:
160,0,194830,1,0,0:0:0:0:
448,352,194958,1,0,0:0:0:0:
384,64,195086,1,0,0:0:0:0:
0,160,195215,1,0,0:0:0:0:
512,192,195343,1,0,0:0:0:0:
256,0,195471,6,0,B|288:64|288:64|224:64|224:128|224:128|288:128|288:192|288:192|224:192|224:224|224:224|256:256|256:320,1,459.375004380941
256,352,195856,5,0,0:0:0:0:
32,0,195984,1,0,0:0:0:0:
480,288,196112,1,0,0:0:0:0:
96,288,196240,1,0,0:0:0:0:
480,32,196368,1,0,0:0:0:0:
384,352,196497,1,0,0:0:0:0:
160,0,196625,1,0,0:0:0:0:
0,320,196753,1,0,0:0:0:0:
512,128,196881,1,0,0:0:0:0:
0,96,197009,1,0,0:0:0:0:
320,0,197138,1,0,0:0:0:0:
512,352,197266,1,0,0:0:0:0:
128,64,197394,1,0,0:0:0:0:
256,352,197522,1,0,0:0:0:0:
416,32,197650,1,0,0:0:0:0:
128,352,197779,1,0,0:0:0:0:
0,0,197907,1,0,0:0:0:0:
512,256,198035,1,0,0:0:0:0:
256,0,198163,6,0,B|224:64|224:64|288:64|288:128|288:128|224:128|224:192|224:192|288:192|288:224|288:224|256:256|256:320,1,459.375004380941
256,384,198548,6,0,B|288:320|288:320|224:320|224:256|224:256|288:256|288:192|288:192|224:192|224:160|224:160|256:128|256:64,1,459.375004380941
256,32,198933,5,0,0:0:0:0:
32,96,199061,1,0,0:0:0:0:
256,128,199189,1,0,0:0:0:0:
480,192,199317,1,0,0:0:0:0:
256,224,199445,1,0,0:0:0:0:
32,288,199574,1,0,0:0:0:0:
256,320,199702,1,0,0:0:0:0:
384,0,199830,5,0,0:0:0:0:
128,0,199958,1,0,0:0:0:0:
448,320,200086,1,0,0:0:0:0:
64,320,200215,1,0,0:0:0:0:
256,0,200343,5,0,0:0:0:0:
480,96,200471,1,0,0:0:0:0:
256,32,200599,1,0,0:0:0:0:
416,224,200727,1,0,0:0:0:0:
256,64,200856,1,0,0:0:0:0:
320,320,200984,1,0,0:0:0:0:
256,96,201112,1,0,0:0:0:0:
192,320,201240,1,0,0:0:0:0:
256,128,201368,1,0,0:0:0:0:
96,224,201497,1,0,0:0:0:0:
256,160,201625,1,0,0:0:0:0:
32,96,201753,1,0,0:0:0:0:
256,192,201881,1,0,0:0:0:0:
384,0,202009,5,0,0:0:0:0:
448,384,202138,1,0,0:0:0:0:
64,384,202266,1,0,0:0:0:0:
128,0,202394,1,0,0:0:0:0:
480,96,202522,1,0,0:0:0:0:
0,256,202650,1,0,0:0:0:0:
512,256,202779,1,0,0:0:0:0:
32,96,202907,1,0,0:0:0:0:
160,352,203035,5,0,0:0:0:0:
352,352,203163,1,0,0:0:0:0:
96,256,203291,1,0,0:0:0:0:
416,256,203420,1,0,0:0:0:0:
32,160,203548,1,0,0:0:0:0:
480,160,203676,1,0,0:0:0:0:
0,64,203804,1,0,0:0:0:0:
512,64,203933,1,0,0:0:0:0:
0,384,204061,5,0,0:0:0:0:
512,384,204189,1,0,0:0:0:0:
256,0,204317,1,0,0:0:0:0:
256,384,204445,5,0,0:0:0:0:
0,0,204574,1,0,0:0:0:0:
512,0,204702,1,0,0:0:0:0:
416,384,204830,5,0,0:0:0:0:
416,0,204958,1,0,0:0:0:0:
352,384,205086,1,0,0:0:0:0:
352,0,205215,1,0,0:0:0:0:
96,384,205343,5,0,0:0:0:0:
96,0,205471,1,0,0:0:0:0:
160,384,205599,1,0,0:0:0:0:
160,0,205727,1,0,0:0:0:0:
512,64,205856,5,0,0:0:0:0:
0,96,205984,1,0,0:0:0:0:
512,160,206112,1,0,0:0:0:0:
0,0,206240,1,0,0:0:0:0:
512,384,206368,5,0,0:0:0:0:
0,224,206496,1,0,0:0:0:0:
512,288,206624,1,0,0:0:0:0:
0,320,206752,1,0,0:0:0:0:
448,0,206881,5,0,0:0:0:0:
96,64,207009,1,0,0:0:0:0:
0,384,207138,1,0,0:0:0:0:
416,320,207266,1,0,0:0:0:0:
0,0,207394,5,0,0:0:0:0:
0,384,207522,1,0,0:0:0:0:
512,384,207650,1,0,0:0:0:0:
512,0,207779,1,0,0:0:0:0:
0,0,207907,5,0,0:0:0:0:
0,384,208036,1,0,0:0:0:0:
512,384,208164,1,0,0:0:0:0:
512,0,208292,1,0,0:0:0:0:
96,320,208420,5,0,0:0:0:0:
512,384,208548,1,0,0:0:0:0:
416,64,208677,1,0,0:0:0:0:
64,0,208805,1,0,0:0:0:0:
512,128,208933,5,0,0:0:0:0:
0,32,209061,1,0,0:0:0:0:
512,256,209189,1,0,0:0:0:0:
0,352,209317,1,0,0:0:0:0:
512,384,209445,1,0,0:0:0:0:
0,192,209574,1,0,0:0:0:0:
512,0,209702,1,0,0:0:0:0:
0,0,209830,1,0,0:0:0:0:
512,384,209958,1,0,0:0:0:0:
0,384,210086,1,0,0:0:0:0:
302,333,210279,5,0,0:0:0:0:
135,104,210343,1,0,0:0:0:0:
404,192,210407,1,0,0:0:0:0:
135,279,210471,1,0,0:0:0:0:
302,50,210535,1,0,0:0:0:0:
256,192,210856,5,0,0:0:0:0:
64,64,211240,5,0,0:0:0:0:
64,64,211368,1,0,0:0:0:0:
64,64,211497,1,0,0:0:0:0:
64,64,211625,1,0,0:0:0:0:
256,352,212009,1,0,0:0:0:0:
256,352,212138,1,0,0:0:0:0:
256,352,212266,1,0,0:0:0:0:
256,352,212394,1,0,0:0:0:0:
448,64,212779,1,0,0:0:0:0:
448,64,212907,1,0,0:0:0:0:
448,64,213035,1,0,0:0:0:0:
448,64,213163,1,0,0:0:0:0:
209,50,213291,5,0,0:0:0:0:
376,279,213355,1,0,0:0:0:0:
107,192,213419,1,0,0:0:0:0:
376,104,213483,1,0,0:0:0:0:
209,333,213547,1,0,0:0:0:0:
