osu file format v14

[General]
AudioFilename: 14 Propaganda( Dream Battle).mp3
AudioLeadIn: 0
PreviewTime: 43692
Countdown: 0
SampleSet: Soft
StackLeniency: 0.4
Mode: 0
LetterboxInBreaks: 0
WidescreenStoryboard: 0

[Editor]
Bookmarks: 43864
DistanceSpacing: 1.1
BeatDivisor: 4
GridSize: 4
TimelineZoom: 1.4

[Metadata]
Title:Gensou Propaganda
TitleUnicode:幻想Propaganda
Artist:Higashi - no - Seizon Penguin
ArtistUnicode:ひがしのせいぞんぺんぎん
Creator:Frey
Version:Normal
Source:東方Project
Tags:Kencho Retaisei 11 例大祭11 drum'n'bass dnb drum and bass 少女綺想曲~ Dream Battle 東方永夜抄 imperishable night Hakurei Reimu
BeatmapID:729115
BeatmapSetID:323289

[Difficulty]
HPDrainRate:4
CircleSize:3.5
OverallDifficulty:4
ApproachRate:5
SliderMultiplier:1
SliderTickRate:1

[Events]
//Background and Video events
0,0,"rm.jpg",0,0
//Break Periods
//Storyboard Layer 0 (Background)
//Storyboard Layer 1 (Fail)
//Storyboard Layer 2 (Pass)
//Storyboard Layer 3 (Foreground)
//Storyboard Sound Samples

[TimingPoints]
10950,342.857142857143,4,2,0,80,1,0
109692,-100,4,2,0,80,0,1
130950,-100,4,2,0,80,0,0

[Colours]
Combo1 : 255,0,128
Combo2 : 255,179,255
Combo3 : 255,51,51

[HitObjects]
256,192,10949,12,0,20550,0:0:0:0:
248,84,21921,5,0,0:0:0:0:
256,192,22264,1,0,0:0:0:0:
308,208,22435,2,0,P|404:200|480:192,1,150,2|0,0:0|0:0,0:0:0:0:
80,300,24664,6,0,P|64:224|56:184,1,100
48,148,25178,1,2,0:0:0:0:
96,48,25521,1,0,0:0:0:0:
256,88,26035,2,0,P|316:88|372:76,1,100
348,136,26550,2,0,P|336:196|336:244,1,100,2|0,0:0|0:0,0:0:0:0:
376,272,27064,2,0,P|432:264|448:260,1,50,2|0,0:0|0:0,0:0:0:0:
480,252,27407,5,0,0:0:0:0:
452,144,27750,1,0,0:0:0:0:
428,96,27921,2,0,P|368:48|284:72,1,150,2|0,0:0|0:0,0:0:0:0:
40,184,30150,6,0,P|32:252|28:296,1,100
60,328,30664,1,2,0:0:0:0:
168,340,31007,1,0,0:0:0:0:
256,200,31521,2,0,P|304:184|352:212,1,100
384,244,32035,2,0,P|428:264|474:248,1,100,2|0,0:0|0:0,0:0:0:0:
504,216,32550,2,0,L|496:164,1,50,2|0,0:0|0:0,0:0:0:0:
488,112,32892,6,0,B|412:100|412:100|396:112|396:112|284:96,1,200
184,76,33921,1,2,0:0:0:0:
120,168,34264,1,0,0:0:0:0:
176,164,34435,1,0,0:0:0:0:
232,160,34607,2,0,P|244:216|236:272,1,100,2|0,0:0|0:0,0:0:0:0:
216,364,35292,1,2,0:0:0:0:
100,380,35635,6,0,P|44:324|80:208,1,200
184,184,36664,1,2,0:0:0:0:
248,92,37007,1,0,0:0:0:0:
192,84,37178,1,0,0:0:0:0:
136,76,37350,2,0,P|64:88|24:92,1,100,2|0,0:0|0:0,0:0:0:0:
0,196,38035,1,2,0:0:0:0:
80,272,38378,6,0,B|168:324|204:232|284:288,1,200
344,364,39407,1,2,0:0:0:0:
452,340,39750,2,0,P|440:264|432:224,1,100,0|2,0:0|0:0,0:0:0:0:
416,132,40435,1,0,0:0:0:0:
360,144,40607,1,0,0:0:0:0:
304,156,40778,1,2,0:0:0:0:
255,255,41121,6,0,P|195:180|217:86,1,200
292,8,42150,1,2,0:0:0:0:
400,36,42492,1,0,0:0:0:0:
403,145,42835,2,0,P|371:149|283:157,1,100,8|0,0:0|0:0,0:0:0:0:
216,88,43521,1,8,0:0:0:0:
104,96,43864,6,0,P|84:184|80:208,1,100,4|8,1:2|1:2,0:0:0:0:
112,240,44378,2,0,P|156:264|224:252,1,100
252,232,44892,1,8,1:2:0:0:
304,328,45235,1,0,1:0:0:0:
412,356,45578,2,0,P|476:292|472:216,1,150,8|0,1:2|1:0,0:0:0:0:
476,180,46264,2,0,L|472:116,1,50,8|0,1:2|1:0,1:0:0:0:
468,76,46607,6,0,L|356:68,1,100,0|8,1:0|1:2,0:0:0:0:
324,104,47121,2,0,L|212:112,1,100,0|0,0:0|1:0,0:0:0:0:
168,116,47635,1,8,1:2:0:0:
76,52,47978,2,0,P|56:116|64:160,1,100,0|8,1:0|1:2,0:0:0:0:
96,188,48492,2,0,P|116:252|108:296,1,100,0|0,1:0|1:0,0:0:0:0:
84,332,49007,1,8,1:2:0:0:
176,380,49350,6,0,L|288:372,1,100,0|8,1:0|1:2,0:0:0:0:
316,328,49864,2,0,P|298:281|288:212,1,100,0|0,0:0|1:0,0:0:0:0:
284,176,50378,1,8,1:2:0:0:
364,104,50721,1,0,1:0:0:0:
436,188,51064,2,0,P|464:252|460:344,1,150,8|0,1:2|1:0,0:0:0:0:
416,360,51750,2,0,L|344:352,1,50,8|0,1:2|1:0,0:0:0:0:
320,328,52092,6,0,L|172:312,1,100,0|8,1:0|1:2,0:0:0:0:
168,308,52607,2,0,P|152:248|160:188,1,100,0|0,0:0|1:0,0:0:0:0:
164,156,53121,1,8,1:2:0:0:
256,92,53464,2,0,B|248:146|263:147|256:192,1,100,0|8,1:0|1:2,0:0:0:0:
300,224,53978,1,0,1:0:0:0:
380,148,54321,2,0,L|364:84,1,50,0|8,1:0|1:2,0:0:0:0:
256,92,54835,6,0,L|128:84,1,100,6|8,1:2|1:2,0:0:0:0:
112,116,55350,2,0,L|-16:108,1,100,0|0,0:0|1:0,0:0:0:0:
8,164,55864,1,8,1:2:0:0:
56,264,56207,1,0,1:0:0:0:
156,216,56550,2,0,B|224:204|232:244|304:228,1,150,8|0,1:2|1:0,0:0:0:0:
344,192,57235,2,0,P|352:160|352:132,1,50,8|0,1:2|1:0,0:0:0:0:
352,88,57578,5,0,1:0:0:0:
256,32,57921,1,8,1:2:0:0:
256,32,58092,2,0,P|242:91|240:148,1,100
240,184,58607,1,8,1:2:0:0:
320,260,58950,2,0,L|440:248,1,100,0|8,1:0|1:2,0:0:0:0:
456,208,59464,2,0,L|446:108,1,100,0|0,1:0|1:0,0:0:0:0:
404,76,59978,1,8,1:2:0:0:
300,116,60321,6,0,P|286:163|293:212,1,100,0|8,1:0|1:2,0:0:0:0:
320,260,60835,2,0,P|328:308|312:360,1,100,0|0,0:0|1:0,0:0:0:0:
260,376,61350,1,8,1:2:0:0:
152,360,61692,1,0,1:0:0:0:
88,272,62035,2,0,P|72:196|92:108,1,150,8|0,1:2|1:0,0:0:0:0:
112,76,62721,2,0,L|168:68,1,50,8|0,1:2|1:0,0:0:0:0:
208,100,63064,6,0,L|216:156,2,50,0|0|8,1:0|1:0|1:2,0:0:0:0:
312,50,63750,2,0,L|304:106,2,50,0|0|8,1:0|1:0|1:2,0:0:0:0:
396,120,64435,2,0,P|419:115|445:112,1,50,0|0,1:0|1:0,0:0:0:0:
484,152,64778,2,0,P|476:196|472:216,1,50,8|0,1:2|1:0,0:0:0:0:
464,256,65121,2,0,P|408:252|364:280,1,100,0|8,1:0|1:2,0:0:0:0:
300,360,65807,6,0,L|184:348,1,100,4|8,1:2|1:2,0:0:0:0:
144,344,66321,2,0,P|148:292|128:232,1,100,0|0,0:0|1:0,0:0:0:0:
112,196,66835,1,8,1:2:0:0:
4,212,67178,1,0,1:0:0:0:
44,108,67521,2,0,L|208:120,1,150,8|0,1:2|1:0,0:0:0:0:
240,148,68207,2,0,L|252:216,1,50,8|0,1:2|1:0,0:0:0:0:
260,252,68550,6,0,P|312:268|372:256,1,100,0|8,1:0|1:2,0:0:0:0:
408,244,69064,1,0,0:0:0:0:
460,148,69407,1,0,1:0:0:0:
460,148,69578,1,8,1:2:0:0:
364,96,69921,2,0,L|260:104,1,100,0|8,1:0|1:2,0:0:0:0:
232,148,70435,2,0,P|224:204|244:256,1,100,0|0,1:0|1:0,0:0:0:0:
276,284,70950,1,8,1:2:0:0:
380,324,71292,6,0,L|479:316,1,100,0|8,1:0|1:2,0:0:0:0:
508,268,71807,2,0,L|456:160,1,100,0|0,0:0|1:0,0:0:0:0:
440,128,72321,1,8,1:2:0:0:
340,176,72664,1,0,1:0:0:0:
236,140,73007,2,0,P|136:128|76:140,1,150,8|0,1:2|1:0,0:0:0:0:
40,164,73692,2,0,P|24:208|20:228,1,50,8|0,1:2|1:0,0:0:0:0:
16,264,74035,5,0,1:0:0:0:
100,336,74378,1,8,1:2:0:0:
100,336,74550,2,0,P|124:284|120:232,1,100,0|0,0:0|1:0,0:0:0:0:
116,188,75064,1,8,1:2:0:0:
76,84,75407,2,0,P|128:76|184:100,1,100,0|8,1:0|1:2,0:0:0:0:
216,128,75921,2,0,P|268:136|324:112,1,100,0|0,1:0|1:0,0:0:0:0:
352,84,76435,1,8,1:2:0:0:
452,132,76778,6,0,L|468:248,1,100,4|8,1:2|1:2,0:0:0:0:
432,276,77292,2,0,P|356:260|320:260,1,100,0|0,0:0|1:0,0:0:0:0:
280,264,77807,1,8,1:2:0:0:
208,348,78150,1,0,1:0:0:0:
168,244,78492,2,0,P|196:184|292:148,1,150,8|0,1:2|1:0,0:0:0:0:
324,160,79178,2,0,P|352:160|396:148,1,50,8|0,1:2|1:0,0:0:0:0:
424,132,79521,6,0,P|432:80|400:32,1,100,0|8,1:0|1:2,0:0:0:0:
360,16,80035,2,0,P|308:20|256:28,1,100,0|0,0:0|1:0,0:0:0:0:
212,56,80550,1,8,1:2:0:0:
164,152,80892,2,0,P|152:232|152:264,1,100,0|8,1:0|1:2,0:0:0:0:
196,284,81407,2,0,P|271:254|298:238,1,100,0|0,1:0|1:0,0:0:0:0:
296,192,81921,1,8,1:2:0:0:
232,104,82264,6,0,P|188:72|128:76,1,100,0|8,1:0|1:2,0:0:0:0:
96,100,82778,1,0,0:0:0:0:
36,192,83121,2,0,P|30:223|28:260,1,50,0|8,1:0|1:2,0:0:0:0:
100,328,83635,1,0,1:0:0:0:
208,312,83978,2,0,L|380:288,1,150,8|0,1:2|1:0,0:0:0:0:
396,252,84664,2,0,L|460:260,1,50,8|0,1:2|1:0,0:0:0:0:
472,308,85007,6,0,L|478:357,2,50,0|0|8,1:0|1:0|1:2,0:0:0:0:
496,200,85692,2,0,L|502:150,2,50,0|0|8,1:0|1:0|1:2,0:0:0:0:
396,252,86378,2,0,P|336:260|324:260,1,50,0|0,1:0|1:0,0:0:0:0:
308,220,86721,2,0,P|300:160|300:148,1,50,8|0,1:2|1:0,0:0:0:0:
332,124,87064,2,0,P|376:104|432:112,1,100,0|8,1:0|1:2,0:0:0:0:
496,200,87750,6,0,P|486:258|488:308,1,100,4|8,1:2|1:2,0:0:0:0:
444,336,88264,2,0,P|385:326|336:328,1,100,0|0,0:0|1:0,0:0:0:0:
292,332,88778,1,8,1:2:0:0:
200,272,89121,1,0,1:0:0:0:
256,180,89464,2,0,B|288:112|224:112|256:36,1,150,8|0,1:2|1:0,0:0:0:0:
304,12,90150,2,0,L|364:28,1,50,8|0,1:2|1:0,0:0:0:0:
392,64,90492,5,0,1:0:0:0:
355,167,90835,1,8,1:2:0:0:
355,167,91007,2,0,L|254:180,1,100,0|0,0:0|1:0,0:0:0:0:
200,188,91521,1,8,1:2:0:0:
96,152,91864,2,0,P|68:216|68:268,1,100,0|8,1:0|1:2,0:0:0:0:
96,292,92378,2,0,P|142:310|191:312,1,100,0|0,1:0|1:0,0:0:0:0:
240,288,92892,1,8,1:2:0:0:
256,180,93235,6,0,P|256:120|240:72,1,100,0|8,1:0|1:2,0:0:0:0:
208,40,93750,2,0,L|96:52,1,100,0|0,0:0|1:0,0:0:0:0:
76,96,94264,1,8,1:2:0:0:
88,204,94607,1,0,1:0:0:0:
180,260,94950,2,0,L|352:276,1,150,8|0,1:2|1:0,0:0:0:0:
372,308,95635,2,0,P|412:296|440:292,1,50,8|0,1:2|1:0,0:0:0:0:
472,284,95978,6,0,P|496:244|476:184,1,100,0|8,1:0|1:2,0:0:0:0:
444,156,96492,2,0,P|432:108|456:66,1,100,0|0,0:0|1:0,0:0:0:0:
504,36,97007,1,8,1:2:0:0:
400,4,97350,2,0,P|355:9|296:12,1,100,0|8,1:0|1:2,0:0:0:0:
264,52,97864,2,0,P|248:104|256:151,1,100,0|0,1:0|1:0,0:0:0:0:
276,200,98378,1,8,1:2:0:0:
384,208,98721,6,0,L|399:109,1,100,4|8,1:2|1:2,0:0:0:0:
362,67,99235,2,0,L|263:51,1,100,0|0,0:0|1:0,0:0:0:0:
208,44,99750,1,8,1:2:0:0:
116,100,100092,1,0,1:0:0:0:
180,192,100435,2,0,P|245:158|315:178,1,150,8|0,1:2|0:0,0:0:0:0:
344,228,101121,2,0,L|412:220,1,50,8|0,1:2|1:0,0:0:0:0:
448,216,101464,5,0,1:0:0:0:
424,324,101807,1,8,1:2:0:0:
424,324,101978,2,0,L|308:340,1,100,0|0,0:0|1:0,0:0:0:0:
272,344,102492,1,8,1:2:0:0:
204,260,102835,2,0,P|160:244|108:244,1,100,0|8,1:0|1:2,0:0:0:0:
52,260,103350,2,0,P|20:208|20:160,1,100,0|0,1:0|1:0,0:0:0:0:
24,116,103864,1,8,1:2:0:0:
100,36,104207,6,0,P|132:88|132:136,1,100,0|8,1:0|1:2,0:0:0:0:
128,180,104721,1,0,0:0:0:0:
204,260,105064,1,0,1:0:0:0:
204,260,105235,1,8,1:2:0:0:
244,160,105578,1,0,1:0:0:0:
128,180,105921,2,0,P|96:240|116:324,1,150,8|0,1:2|1:0,0:0:0:0:
156,352,106607,2,0,L|216:360,1,50,8|0,1:2|1:0,0:0:0:0:
256,336,106950,6,0,L|305:329,2,50,0|0|8,1:0|1:0|1:2,0:0:0:0:
312,240,107635,2,0,L|361:233,2,50,0|0|8,1:0|1:0|1:2,0:0:0:0:
200,240,108321,2,0,L|150:233,1,50,0|0,1:0|1:0,0:0:0:0:
116,188,108664,2,0,L|122:138,1,50,8|0,1:2|1:0,0:0:0:0:
164,100,109007,2,0,B|220:76|272:124,1,100,0|8,1:0|1:2,0:0:0:0:
308,212,109692,6,0,L|424:204,1,100,4|8,1:2|1:2,0:0:0:0:
464,108,110378,1,0,0:0:0:0:
414,111,110549,1,0,1:0:0:0:
364,114,110720,1,8,1:2:0:0:
308,212,111064,2,0,P|320:256|320:312,1,100,0|8,1:0|1:2,0:0:0:0:
276,344,111578,2,0,L|172:336,1,100,0|0,0:0|1:0,0:0:0:0:
136,300,112092,2,0,L|76:296,1,50,8|0,1:2|1:0,0:0:0:0:
32,292,112435,6,0,L|16:180,1,100,0|8,1:0|1:2,0:0:0:0:
128,200,113121,1,0,0:0:0:0:
120,150,113292,1,0,1:0:0:0:
113,101,113463,1,8,1:2:0:0:
204,36,113807,2,0,P|276:48|308:48,1,100,0|8,1:0|1:2,0:0:0:0:
348,20,114321,2,0,P|396:8|456:12,1,100,0|0,1:0|1:0,0:0:0:0:
500,28,114835,1,8,1:2:0:0:
460,132,115178,6,0,L|340:144,1,100,0|8,1:0|1:2,0:0:0:0:
256,176,115864,1,0,0:0:0:0:
256,232,116035,1,0,1:0:0:0:
256,288,116207,1,8,1:2:0:0:
352,344,116550,2,0,P|344:280|352:232,1,100,0|8,1:0|1:2,0:0:0:0:
392,208,117064,2,0,P|396:158|388:109,1,100,2|0,0:0|1:0,0:0:0:0:
352,68,117578,2,0,L|288:60,1,50,8|0,1:2|1:0,0:0:0:0:
256,92,117921,6,0,L|136:76,1,100,0|8,1:0|1:2,0:0:0:0:
48,64,118607,1,0,0:0:0:0:
41,113,118778,1,0,1:0:0:0:
34,163,118949,1,8,1:2:0:0:
143,177,119292,2,0,L|159:57,1,100,0|8,1:0|1:2,0:0:0:0:
206,52,119807,2,0,P|257:44|322:58,1,100,0|0,1:0|1:0,0:0:0:0:
355,77,120321,1,8,1:2:0:0:
372,188,120664,6,0,L|356:308,1,100,4|8,1:2|1:2,0:0:0:0:
316,320,121178,2,0,P|264:316|212:332,1,100,0|0,0:0|1:0,0:0:0:0:
176,364,121692,1,8,1:2:0:0:
68,348,122035,1,0,1:0:0:0:
52,240,122378,2,0,L|32:84,1,150,8|0,1:2|1:0,0:0:0:0:
60,44,123064,2,0,P|96:40|132:32,1,50,8|0,1:2|1:0,0:0:0:0:
156,68,123407,5,0,1:0:0:0:
140,176,123750,1,8,1:2:0:0:
140,176,123921,2,0,L|256:188,1,100,0|0,0:0|1:0,0:0:0:0:
296,192,124435,1,8,1:2:0:0:
388,251,124778,2,0,P|406:206|402:157,1,100,0|8,1:0|1:2,0:0:0:0:
368,112,125292,2,0,P|362:62|382:17,1,100,0|0,1:0|1:0,0:0:0:0:
436,8,125807,1,8,1:2:0:0:
504,96,126150,6,0,L|512:204,1,100,0|8,1:0|1:2,0:0:0:0:
480,240,126664,2,0,L|372:232,1,100,0|0,0:0|1:0,0:0:0:0:
344,192,127178,1,8,1:2:0:0:
264,268,127521,1,0,0:0:0:0:
156,256,127864,2,0,B|140:192|188:180|168:104,1,150,8|0,1:2|1:0,0:0:0:0:
140,64,128550,2,0,L|76:72,1,50,8|0,1:2|1:0,0:0:0:0:
36,76,128892,6,0,L|28:12,2,50,0|0|8,1:0|1:0|1:2,0:0:0:0:
80,176,129578,2,0,L|73:225,2,50,0|0|8,1:0|1:0|1:2,0:0:0:0:
169,109,130264,2,0,L|221:97,1,50,0|0,1:0|1:0,0:0:0:0:
260,132,130607,2,0,L|324:144,1,50,8|0,1:2|1:0,0:0:0:0:
360,120,130950,5,0,0:0:0:0:
