osu file format v14

[General]
AudioFilename: 14 Propaganda( Dream Battle).mp3
AudioLeadIn: 0
PreviewTime: 43692
Countdown: 0
SampleSet: Soft
StackLeniency: 0.4
Mode: 0
LetterboxInBreaks: 0
WidescreenStoryboard: 0

[Editor]
Bookmarks: 43864
DistanceSpacing: 0.7
BeatDivisor: 4
GridSize: 4
TimelineZoom: 1.4

[Metadata]
Title:Gensou Propaganda
TitleUnicode:幻想Propaganda
Artist:Higashi - no - Seizon Penguin
ArtistUnicode:ひがしのせいぞんぺんぎん
Creator:Frey
Version:Insane
Source:東方Project
Tags:Kencho Retaisei 11 例大祭11 drum'n'bass dnb drum and bass 少女綺想曲~ Dream Battle 東方永夜抄 imperishable night Hakurei Reimu
BeatmapID:718620
BeatmapSetID:323289

[Difficulty]
HPDrainRate:7
CircleSize:4
OverallDifficulty:8
ApproachRate:9
SliderMultiplier:1.8
SliderTickRate:1

[Events]
//Background and Video events
0,0,"rm.jpg",0,0
//Break Periods
//Storyboard Layer 0 (Background)
//Storyboard Layer 1 (Fail)
//Storyboard Layer 2 (Pass)
//Storyboard Layer 3 (Foreground)
//Storyboard Sound Samples

[TimingPoints]
10950,342.857142857143,4,2,0,80,1,0
43521,-117.647058823529,4,2,0,80,0,0
43864,-100,4,2,0,80,0,0
109692,-100,4,2,0,80,0,1
130950,-133.333333333333,4,2,0,80,0,0

[Colours]
Combo1 : 255,0,128
Combo2 : 255,179,255
Combo3 : 255,51,51

[HitObjects]
256,192,10949,12,0,21235,0:0:0:0:
88,128,21921,6,0,P|168:144|228:76,1,180
424,256,22435,2,0,P|344:240|284:312,1,180,2|0,0:0|0:0,0:0:0:0:
372,332,22950,1,0,0:0:0:0:
80,280,24664,6,0,P|72:196|52:76,1,180
256,192,25178,2,0,P|240:288|231:370,1,180,2|0,0:0|0:0,0:0:0:0:
230,370,25692,1,0,0:0:0:0:
136,300,25864,1,0,0:0:0:0:
180,192,26035,6,0,P|88:216|28:148,1,180
332,192,26550,2,0,P|424:168|484:236,1,180,2|0,0:0|0:0,0:0:0:0:
396,256,27064,1,2,0:0:0:0:
256,116,27236,1,0,0:0:0:0:
362,107,27407,6,0,L|288:312,1,180
211,276,27921,2,0,L|149:107,1,180,2|0,0:0|0:0,0:0:0:0:
256,20,28435,1,0,0:0:0:0:
360,208,30150,6,0,B|321:122|397:122|361:34,1,180
152,176,30664,2,0,B|190:261|114:261|150:349,1,180,2|0,0:0|0:0,0:0:0:0:
317,291,31178,2,0,L|228:304,1,90
9,134,31521,6,0,P|69:197|152:176,1,180
502,249,32035,2,0,P|443:186|352:216,1,180,2|0,0:0|0:0,0:0:0:0:
416,280,32550,1,2,0:0:0:0:
256,380,32721,1,0,0:0:0:0:
96,280,32892,5,0,0:0:0:0:
92,252,32978,1,0,0:0:0:0:
88,224,33064,1,0,0:0:0:0:
84,196,33150,1,0,0:0:0:0:
80,168,33235,1,2,0:0:0:0:
140,100,33407,1,0,0:0:0:0:
172,184,33578,2,0,L|288:208,1,90
232,116,33921,1,2,0:0:0:0:
80,168,34092,1,0,0:0:0:0:
204,272,34264,5,0,0:0:0:0:
312,112,34435,1,0,0:0:0:0:
256,36,34607,2,0,L|144:48,1,90,2|0,0:0|0:0,0:0:0:0:
256,192,34950,2,0,L|345:182,1,90
493,26,35292,1,2,0:0:0:0:
404,16,35464,1,0,0:0:0:0:
416,104,35635,5,0,0:0:0:0:
420,132,35721,1,0,0:0:0:0:
424,160,35807,1,0,0:0:0:0:
428,188,35893,1,0,0:0:0:0:
432,216,35978,1,2,0:0:0:0:
256,340,36150,1,0,0:0:0:0:
203,264,36321,2,0,L|256:192,1,90
308,264,36664,1,2,0:0:0:0:
151,340,36835,1,0,0:0:0:0:
48,200,37007,6,0,P|40:148|52:104,2,90,0|0|2,0:0|0:0|0:0,0:0:0:0:
44,288,37521,1,0,0:0:0:0:
204,208,37692,1,0,0:0:0:0:
128,156,37863,1,0,0:0:0:0:
124,248,38035,2,0,L|148:334,1,90,2|0,0:0|0:0,0:0:0:0:
363,334,38378,6,0,L|388:248,1,90
472,212,38721,1,2,0:0:0:0:
492,300,38892,1,0,0:0:0:0:
388,247,39064,1,0,0:0:0:0:
480,120,39235,1,0,0:0:0:0:
472,212,39407,2,0,L|376:140,1,90,2|0,0:0|0:0,0:0:0:0:
256,48,39750,5,0,0:0:0:0:
344,16,39921,1,0,0:0:0:0:
327,104,40092,2,0,P|318:147|315:192,1,90,2|0,0:0|0:0,0:0:0:0:
96,76,40435,1,0,0:0:0:0:
168,16,40607,1,0,0:0:0:0:
185,104,40778,2,0,P|194:147|197:192,1,90,2|0,0:0|0:0,0:0:0:0:
16,288,41121,5,0,0:0:0:0:
112,164,41292,1,0,0:0:0:0:
100,252,41464,1,2,0:0:0:0:
28,196,41635,1,0,0:0:0:0:
112,164,41807,2,0,P|156:165|201:174,1,90
399,220,42150,2,0,P|354:218|310:210,1,90,2|0,0:0|0:0,0:0:0:0:
100,252,42492,5,0,1:0:0:0:
224,324,42664,1,0,1:0:0:0:
310,210,42835,2,0,P|328:160|292:80,1,135,8|0,1:2|0:0,0:0:0:0:
299,86,43178,2,0,L|319:45,1,45,2|0,0:0|0:0,0:0:0:0:
212,88,43350,2,0,L|184:32,1,45
138,186,43521,6,0,L|13:176,1,114.750002188683,8|0,0:0|0:0,0:0:0:0:
24,177,43864,6,0,P|13:220|18:264,1,90,4|0,1:2|0:0,0:0:0:0:
256,368,44207,2,0,P|266:298|250:254,1,90,8|0,1:2|0:0,0:0:0:0:
248,248,44464,1,0,0:0:0:0:
248,248,44550,1,0,0:0:0:0:
172,316,44721,1,0,1:0:0:0:
364,368,44892,1,8,1:2:0:0:
448,188,45064,1,0,0:0:0:0:
408,276,45235,6,0,L|500:284,1,90,0|0,1:0|0:0,0:0:0:0:
388,108,45578,1,8,1:2:0:0:
348,196,45750,1,0,0:0:0:0:
448,188,45921,1,0,0:0:0:0:
248,204,46092,1,0,1:0:0:0:
356,296,46264,1,8,1:2:0:0:
340,96,46435,1,0,1:0:0:0:
340,96,46607,6,0,P|260:88|228:80,1,90,0|0,1:0|0:0,0:0:0:0:
172,288,46950,2,0,P|252:296|284:304,1,90,8|0,1:2|0:0,0:0:0:0:
261,298,47207,1,0,0:0:0:0:
261,298,47292,1,0,0:0:0:0:
104,168,47464,1,0,1:0:0:0:
40,360,47635,1,8,1:2:0:0:
136,380,47807,1,0,0:0:0:0:
172,288,47978,5,0,1:0:0:0:
172,288,48150,2,0,L|120:196,1,90,0|8,0:0|1:2,0:0:0:0:
256,52,48492,2,0,L|256:164,1,90,0|0,1:0|0:0,0:0:0:0:
344,100,48835,1,0,1:0:0:0:
168,100,49007,1,8,1:2:0:0:
344,100,49178,1,0,0:0:0:0:
344,100,49264,1,0,0:0:0:0:
344,100,49350,6,0,P|412:124|460:132,1,90,0|0,1:0|0:0,0:0:0:0:
256,332,49692,2,0,L|256:220,1,90,8|0,1:2|0:0,0:0:0:0:
256,192,49950,1,0,0:0:0:0:
256,142,50035,1,0,0:0:0:0:
344,192,50207,1,0,1:0:0:0:
256,332,50378,1,8,1:2:0:0:
168,192,50550,1,0,0:0:0:0:
256,242,50721,5,0,1:0:0:0:
396,128,50892,1,0,0:0:0:0:
256,16,51064,2,0,P|180:28|132:32,2,90,8|0|0,1:2|0:0|0:0,0:0:0:0:
300,108,51578,1,0,1:0:0:0:
124,204,51750,1,8,1:2:0:0:
40,24,51921,1,0,1:0:0:0:
40,24,52092,5,0,1:0:0:0:
20,218,52264,1,0,0:0:0:0:
120,128,52435,2,0,P|84:128|24:120,1,90,8|0,1:2|0:0,0:0:0:0:
30,121,52692,1,0,0:0:0:0:
30,121,52778,1,0,0:0:0:0:
220,40,52950,1,0,1:0:0:0:
312,224,53121,2,0,P|328:268|340:320,1,90,8|0,1:2|0:0,0:0:0:0:
220,268,53464,5,0,1:0:0:0:
272,132,53635,1,0,0:0:0:0:
184,176,53807,1,8,1:2:0:0:
312,224,53978,1,0,1:0:0:0:
336,52,54150,5,0,0:0:0:0:
464,100,54321,1,0,1:0:0:0:
424,8,54493,1,8,1:2:0:0:
372,144,54664,1,0,0:0:0:0:
372,144,54750,1,0,0:0:0:0:
372,144,54835,6,0,L|256:160,1,90,6|0,1:2|0:0,0:0:0:0:
72,100,55178,1,8,1:2:0:0:
256,60,55350,1,0,0:0:0:0:
256,60,55435,1,0,0:0:0:0:
256,60,55521,1,0,0:0:0:0:
205,242,55692,1,0,1:0:0:0:
307,242,55864,2,0,L|282:155,1,90,8|0,1:2|0:0,0:0:0:0:
168,336,56207,6,0,L|257:328,1,90,0|0,1:0|0:0,0:0:0:0:
352,356,56550,1,8,1:2:0:0:
448,184,56721,1,0,0:0:0:0:
364,236,56893,1,0,0:0:0:0:
436,304,57064,1,0,1:0:0:0:
292,168,57235,1,8,1:2:0:0:
464,68,57407,1,0,1:0:0:0:
464,68,57578,6,0,P|456:148|448:172,1,90,0|0,1:0|0:0,0:0:0:0:
281,256,57921,2,0,P|282:211|292:168,1,90,8|0,1:2|0:0,0:0:0:0:
300,136,58178,1,0,0:0:0:0:
312,108,58264,1,0,0:0:0:0:
408,268,58435,1,0,1:0:0:0:
232,342,58607,2,0,L|144:328,1,90,8|0,1:2|0:0,0:0:0:0:
4,192,58950,5,0,1:0:0:0:
128,64,59121,1,0,0:0:0:0:
176,236,59292,1,8,1:2:0:0:
108,164,59464,2,0,L|208:136,1,90,0|0,1:0|0:0,0:0:0:0:
384,64,59807,5,0,1:0:0:0:
508,192,59978,1,8,1:2:0:0:
336,236,60149,1,0,0:0:0:0:
326,188,60235,1,0,0:0:0:0:
317,139,60321,2,0,L|404:164,1,90,0|0,1:0|0:0,0:0:0:0:
432,260,60664,5,8,1:2:0:0:
256,368,60835,1,0,0:0:0:0:
256,368,60921,1,0,0:0:0:0:
256,368,61007,2,0,P|248:324|256:280,1,90,0|0,0:0|1:0,0:0:0:0:
96,104,61350,2,0,P|104:148|96:192,1,90,8|0,1:2|0:0,0:0:0:0:
8,148,61692,5,0,1:0:0:0:
64,24,61864,1,0,0:0:0:0:
188,80,62035,1,8,1:2:0:0:
128,204,62207,2,0,P|116:264|116:304,1,90
256,368,62550,1,0,1:0:0:0:
384,180,62721,2,0,P|396:120|396:80,1,90,8|0,1:2|1:0,0:0:0:0:
396,91,62978,1,0,0:0:0:0:
396,91,63064,5,0,1:0:0:0:
312,40,63235,1,0,1:0:0:0:
384,180,63407,1,8,1:2:0:0:
256,272,63578,1,0,0:0:0:0:
256,272,63664,1,0,0:0:0:0:
256,272,63750,5,0,1:0:0:0:
284,176,63921,1,0,1:0:0:0:
356,276,64092,2,0,P|391:324|432:376,1,90,8|0,1:2|0:0,0:0:0:0:
102,348,64435,5,0,1:0:0:0:
102,348,64607,2,0,L|129:312|156:276,1,90,0|8,1:0|1:2,0:0:0:0:
256,192,64950,1,0,1:0:0:0:
356,276,65121,1,0,1:0:0:0:
380,264,65206,1,0,1:0:0:0:
400,244,65292,1,0,1:0:0:0:
412,220,65378,1,0,1:0:0:0:
416,192,65463,1,8,1:2:0:0:
412,164,65550,1,0,1:0:0:0:
400,140,65636,1,0,1:0:0:0:
380,120,65722,1,0,1:0:0:0:
356,108,65807,6,0,P|336:112|256:120,1,90,4|0,1:2|0:0,0:0:0:0:
88,84,66150,1,8,1:2:0:0:
152,252,66321,1,0,0:0:0:0:
152,252,66407,1,0,0:0:0:0:
152,252,66492,1,0,0:0:0:0:
164,152,66664,2,0,L|68:188,1,90,0|8,1:0|1:2,0:0:0:0:
240,220,67007,1,0,0:0:0:0:
256,120,67178,5,0,1:0:0:0:
404,64,67350,1,0,0:0:0:0:
456,212,67521,2,0,P|411:214|366:210,1,90,8|0,1:2|0:0,0:0:0:0:
56,172,67864,2,0,P|101:170|146:174,1,90,0|0,0:0|1:0,0:0:0:0:
256,192,68207,1,8,1:2:0:0:
256,192,68378,1,0,1:0:0:0:
100,264,68550,5,0,1:0:0:0:
12,80,68721,1,0,0:0:0:0:
112,88,68893,1,8,1:2:0:0:
0,256,69064,1,0,0:0:0:0:
156,180,69235,1,0,0:0:0:0:
56,172,69407,1,0,1:0:0:0:
100,264,69578,2,0,P|184:276|216:272,1,90,8|0,1:2|0:0,0:0:0:0:
228,264,69835,1,0,0:0:0:0:
256,232,69921,6,0,P|268:176|264:140,1,90,0|0,1:0|0:0,0:0:0:0:
124,24,70264,2,0,P|112:80|116:116,1,90,8|0,1:2|1:0,0:0:0:0:
396,112,70607,2,0,P|399:67|388:24,1,90,0|0,0:0|1:0,0:0:0:0:
256,88,70950,1,8,1:2:0:0:
348,192,71121,1,0,0:0:0:0:
256,296,71292,6,0,L|156:308,1,90,0|0,1:0|0:0,0:0:0:0:
12,196,71635,1,8,1:2:0:0:
200,192,71807,1,0,0:0:0:0:
200,192,71892,1,0,0:0:0:0:
200,192,71978,1,0,0:0:0:0:
107,228,72150,2,0,P|80:263|71:306,2,90,0|8|0,1:0|1:2|0:0,0:0:0:0:
256,376,72664,6,0,L|256:286,1,90,0|0,1:0|0:0,0:0:0:0:
504,224,73007,1,8,1:2:0:0:
340,304,73178,1,0,0:0:0:0:
439,306,73350,2,0,P|430:262|403:227,1,90,0|0,0:0|1:0,0:0:0:0:
184,48,73692,1,8,1:2:0:0:
160,144,73863,1,0,1:0:0:0:
256,116,74035,6,0,P|268:64|268:24,1,90,0|0,1:0|0:0,0:0:0:0:
188,240,74378,2,0,P|176:292|176:332,1,90,8|0,1:2|0:0,0:0:0:0:
256,384,74721,1,0,0:0:0:0:
432,288,74892,1,0,1:0:0:0:
256,192,75064,1,8,1:2:0:0:
256,292,75235,1,0,0:0:0:0:
352,172,75407,6,0,L|336:80,1,90,0|0,1:0|0:0,0:0:0:0:
175,83,75750,2,0,L|160:172,1,90,8|0,1:2|1:0,0:0:0:0:
256,24,76092,1,0,0:0:0:0:
76,68,76264,1,0,1:0:0:0:
244,148,76435,1,8,1:2:0:0:
64,192,76607,1,0,0:0:0:0:
128,268,76778,5,4,1:2:0:0:
160,172,76950,1,0,0:0:0:0:
64,192,77121,2,0,P|32:256|32:308,1,90,8|0,1:2|0:0,0:0:0:0:
29,273,77378,1,0,0:0:0:0:
29,273,77464,1,0,0:0:0:0:
192,376,77635,1,0,1:0:0:0:
312,224,77807,1,8,1:2:0:0:
200,224,77978,1,0,0:0:0:0:
256,320,78150,6,0,L|376:304,1,90,0|0,1:0|0:0,0:0:0:0:
488,128,78492,2,0,L|398:139,1,90,8|0,1:2|0:0,0:0:0:0:
316,84,78835,1,0,0:0:0:0:
364,256,79007,1,0,1:0:0:0:
488,128,79178,1,8,1:2:0:0:
316,84,79350,1,0,1:0:0:0:
256,192,79521,6,0,P|244:264|248:300,1,90,0|0,1:0|0:0,0:0:0:0:
352,176,79864,1,8,1:2:0:0:
220,104,80035,1,0,0:0:0:0:
128,224,80207,2,0,P|64:252|32:260,1,90,0|0,0:0|1:0,0:0:0:0:
124,124,80550,1,8,1:2:0:0:
228,232,80721,1,0,0:0:0:0:
112,324,80892,5,0,1:0:0:0:
128,224,81064,1,0,0:0:0:0:
212,332,81235,1,8,1:2:0:0:
228,232,81407,1,0,1:0:0:0:
300,52,81578,5,0,0:0:0:0:
284,152,81750,1,0,1:0:0:0:
400,60,81921,1,8,1:2:0:0:
384,160,82093,1,0,0:0:0:0:
284,152,82264,6,0,L|176:144,1,90,0|0,1:0|0:0,0:0:0:0:
368,260,82607,2,0,L|476:252,1,90,8|0,1:2|0:0,0:0:0:0:
504,248,82864,1,0,0:0:0:0:
504,248,82950,1,0,0:0:0:0:
268,268,83121,1,0,1:0:0:0:
448,168,83292,1,8,1:2:0:0:
324,348,83464,1,0,0:0:0:0:
268,268,83635,6,0,P|256:216|260:160,1,90,0|0,1:0|0:0,0:0:0:0:
148,12,83978,1,8,1:2:0:0:
84,88,84150,1,0,0:0:0:0:
180,108,84321,2,0,P|244:92|284:72,1,90,0|0,0:0|1:0,0:0:0:0:
148,12,84664,1,8,1:2:0:0:
116,184,84835,1,0,1:0:0:0:
288,216,85007,6,0,L|400:200,1,90,0|0,1:0|1:0,0:0:0:0:
476,188,85350,1,8,1:2:0:0:
461,89,85521,1,0,0:0:0:0:
461,89,85607,1,0,0:0:0:0:
461,89,85692,5,0,1:0:0:0:
491,287,85864,1,0,1:0:0:0:
288,216,86035,2,0,L|400:200,1,90,8|0,1:2|0:0,0:0:0:0:
256,108,86378,5,0,1:0:0:0:
212,304,86550,1,0,1:0:0:0:
288,216,86721,1,8,1:2:0:0:
172,192,86892,1,0,1:0:0:0:
212,304,87064,6,0,L|200:360,1,45,0|0,1:0|1:0,1:0:0:0:
288,216,87235,2,0,L|360:228,1,45,0|0,1:0|1:0,1:0:0:0:
256,108,87407,2,0,L|268:52,1,45,8|0,1:2|1:0,1:0:0:0:
172,192,87578,2,0,L|127:184,1,45,0|0,1:0|1:0,1:0:0:0:
212,304,87750,6,0,L|300:285,1,90,4|0,1:2|0:0,0:0:0:0:
444,140,88092,1,8,1:2:0:0:
348,116,88264,1,0,0:0:0:0:
348,116,88350,1,0,0:0:0:0:
348,116,88435,1,0,0:0:0:0:
395,309,88607,1,0,1:0:0:0:
299,285,88778,1,8,1:2:0:0:
372,216,88950,1,0,0:0:0:0:
256,92,89121,6,0,L|144:104,1,90,0|0,1:0|0:0,0:0:0:0:
2,181,89464,2,0,L|92:172,1,90,8|0,1:2|0:0,0:0:0:0:
232,244,89807,1,0,0:0:0:0:
36,88,89978,1,0,1:0:0:0:
56,264,90150,1,8,1:2:0:0:
2,181,90321,1,0,1:0:0:0:
132,76,90492,6,0,P|188:84|236:88,1,90,0|0,1:0|0:0,0:0:0:0:
320,288,90835,1,8,1:2:0:0:
232,244,91007,2,0,P|288:192|320:188,2,90,0|0|0,0:0|0:0|1:0,0:0:0:0:
240,344,91521,1,8,1:2:0:0:
400,380,91692,1,0,0:0:0:0:
496,248,91864,6,0,P|496:180|488:148,1,90,0|0,1:0|0:0,0:0:0:0:
256,24,92207,2,0,P|256:92|264:124,1,90,8|0,1:2|1:0,0:0:0:0:
328,188,92550,1,0,0:0:0:0:
360,96,92721,1,0,1:0:0:0:
152,96,92892,1,8,1:2:0:0:
184,188,93063,1,0,0:0:0:0:
192,213,93149,1,0,0:0:0:0:
201,239,93235,5,0,1:0:0:0:
256,116,93407,1,0,0:0:0:0:
100,168,93578,2,0,L|8:196,1,90,8|0,1:2|0:0,0:0:0:0:
256,368,93921,2,0,L|256:240,1,90,0|0,0:0|1:0,0:0:0:0:
412,168,94264,2,0,L|504:196,1,90,8|0,1:2|0:0,0:0:0:0:
432,268,94607,5,0,1:0:0:0:
340,236,94778,1,0,0:0:0:0:
412,168,94950,1,8,1:2:0:0:
360,336,95121,1,0,0:0:0:0:
80,268,95292,5,0,0:0:0:0:
172,236,95463,1,0,1:0:0:0:
100,168,95635,1,8,1:2:0:0:
152,336,95806,1,0,1:0:0:0:
152,336,95892,1,0,0:0:0:0:
152,336,95978,6,0,L|260:348,1,90,0|0,1:0|0:0,0:0:0:0:
360,164,96321,1,8,1:2:0:0:
184,244,96492,1,0,0:0:0:0:
300,268,96664,2,0,L|256:168,1,90,0|0,0:0|1:0,0:0:0:0:
136,28,97007,1,8,1:2:0:0:
72,104,97178,1,0,0:0:0:0:
168,128,97350,6,0,P|224:116|260:104,1,90,0|0,1:0|0:0,0:0:0:0:
344,256,97692,2,0,P|288:268|252:280,1,90,8|0,1:2|1:0,0:0:0:0:
337,76,98035,2,0,P|348:120|360:163,1,90,0|0,0:0|1:0,0:0:0:0:
174,307,98378,2,0,L|163:263|152:219,1,90,8|0,1:2|0:0,0:0:0:0:
256,192,98721,5,4,1:2:0:0:
128,128,98892,1,0,0:0:0:0:
44,248,99064,1,8,1:2:0:0:
174,307,99235,1,0,0:0:0:0:
200,300,99321,1,0,0:0:0:0:
226,293,99407,1,0,0:0:0:0:
256,192,99578,2,0,P|265:147|269:103,2,90,0|8|0,1:0|1:2|0:0,0:0:0:0:
324,264,100092,5,0,1:0:0:0:
152,220,100264,1,0,0:0:0:0:
268,103,100435,2,0,P|328:96|372:88,1,90,8|0,1:2|0:0,0:0:0:0:
424,164,100778,1,0,0:0:0:0:
256,336,100950,1,0,1:0:0:0:
88,164,101121,1,8,1:2:0:0:
184,184,101292,1,0,1:0:0:0:
120,260,101464,6,0,L|24:268,1,90,0|0,1:0|0:0,0:0:0:0:
152,88,101807,2,0,L|248:80,1,90,8|0,1:2|0:0,0:0:0:0:
360,296,102150,2,0,L|270:303,1,90,0|0,0:0|1:0,0:0:0:0:
392,124,102493,2,0,L|481:116,1,90,8|0,1:2|0:0,0:0:0:0:
344,40,102835,5,0,1:0:0:0:
208,140,103007,1,0,0:0:0:0:
244,48,103178,1,8,1:2:0:0:
300,132,103350,1,0,1:0:0:0:
300,132,103435,1,0,0:0:0:0:
300,132,103521,2,0,P|288:192|272:232,1,90,0|0,0:0|1:0,0:0:0:0:
112,172,103864,1,8,1:2:0:0:
244,48,104035,1,0,0:0:0:0:
412,112,104207,6,0,P|468:124|504:128,1,90,0|0,1:0|0:0,0:0:0:0:
324,316,104550,1,8,1:2:0:0:
304,220,104721,1,0,0:0:0:0:
420,296,104892,2,0,P|430:252|435:207,1,90,0|0,0:0|1:0,0:0:0:0:
284,124,105235,1,8,1:2:0:0:
228,288,105407,1,0,0:0:0:0:
304,220,105578,6,0,L|216:192,1,90,0|0,1:0|0:0,0:0:0:0:
136,252,105921,1,8,1:2:0:0:
228,288,106092,1,0,0:0:0:0:
208,96,106264,1,0,0:0:0:0:
37,112,106435,2,0,L|48:212,1,90,0|8,1:0|1:2,0:0:0:0:
120,56,106778,1,0,1:0:0:0:
36,112,106950,5,0,1:0:0:0:
136,252,107121,1,0,1:0:0:0:
208,96,107292,2,0,L|312:108,1,90,8|0,1:2|0:0,0:0:0:0:
324,108,107550,1,0,0:0:0:0:
352,112,107635,5,0,1:0:0:0:
288,292,107807,1,0,1:0:0:0:
112,208,107978,2,0,L|216:196,1,90,8|0,1:2|0:0,0:0:0:0:
228,196,108236,1,0,0:0:0:0:
256,192,108321,5,0,1:0:0:0:
384,320,108492,1,0,1:0:0:0:
352,216,108664,1,8,1:2:0:0:
192,264,108835,1,0,1:0:0:0:
160,168,109007,1,0,1:0:0:0:
164,140,109092,1,0,1:0:0:0:
168,112,109178,1,0,1:0:0:0:
172,84,109264,1,0,1:0:0:0:
236,32,109350,1,8,1:2:0:0:
264,36,109435,1,0,1:0:0:0:
292,40,109521,1,0,1:0:0:0:
320,44,109607,1,0,1:0:0:0:
348,48,109692,6,0,P|356:88|364:112,3,45,4|0|0|0,1:2|0:0|0:0|0:0,0:0:0:0:
432,144,110035,2,0,P|453:138|476:134,3,45,8|0|0|0,1:2|0:0|0:0|0:0,0:0:0:0:
380,220,110378,6,0,P|385:241|389:264,1,45
305,168,110550,2,0,P|283:173|260:177,1,45,0|0,1:0|0:0,0:0:0:0:
180,196,110721,1,8,1:2:0:0:
152,172,110807,1,0,0:0:0:0:
140,140,110892,1,0,0:0:0:0:
140,104,110978,1,0,0:0:0:0:
156,72,111064,6,0,P|204:80|216:84,3,45,0|0|0|0,1:0|0:0|0:0|0:0,0:0:0:0:
256,192,111407,2,0,P|248:240|244:252,3,45,8|0|0|0,1:2|0:0|0:0|0:0,0:0:0:0:
176,312,111750,5,0,0:0:0:0:
148,316,111835,1,0,0:0:0:0:
120,316,111921,1,0,1:0:0:0:
96,304,112007,1,0,0:0:0:0:
76,284,112092,1,8,1:2:0:0:
68,260,112178,1,0,0:0:0:0:
64,232,112264,1,0,1:0:0:0:
72,204,112350,1,0,0:0:0:0:
88,184,112435,6,0,P|88:158|84:136,1,45,0|0,1:0|0:0,0:0:0:0:
143,31,112607,2,0,P|144:54|140:76,1,45,0|0,0:0|0:0,0:0:0:0:
179,195,112778,2,0,P|179:173|176:151,1,45,8|0,1:2|0:0,0:0:0:0:
234,41,112950,2,0,P|234:64|230:86,1,45
340,160,113121,6,0,P|329:141|315:123,3,45,0|0|0|0,0:0|0:0|1:0|0:0,0:0:0:0:
288,276,113464,2,0,P|307:265|325:251,3,45,8|0|0|0,1:2|0:0|0:0|0:0,0:0:0:0:
256,192,113807,5,0,1:0:0:0:
232,180,113892,1,0,0:0:0:0:
204,172,113978,1,0,0:0:0:0:
176,172,114064,1,0,0:0:0:0:
148,180,114150,1,8,1:2:0:0:
124,192,114235,1,0,0:0:0:0:
104,212,114321,1,0,1:0:0:0:
88,236,114407,1,0,0:0:0:0:
80,260,114492,6,0,P|82:282|87:304,1,45
208,348,114664,2,0,P|205:325|200:303,1,45,0|0,1:0|0:0,0:0:0:0:
256,192,114835,2,0,P|250:170|249:147,1,45,8|0,1:2|0:0,0:0:0:0:
355,271,115007,2,0,P|360:292|362:315,1,45
472,224,115178,5,2,0:0:0:0:
476,192,115264,1,0,0:0:0:0:
480,160,115350,1,0,0:0:0:0:
484,128,115435,1,2,0:0:0:0:
256,32,115692,1,2,0:0:0:0:
252,64,115777,1,0,0:0:0:0:
248,96,115863,1,0,0:0:0:0:
244,128,115949,1,2,0:0:0:0:
316,312,116207,5,2,0:0:0:0:
348,304,116292,1,0,0:0:0:0:
344,272,116378,1,0,0:0:0:0:
376,264,116463,1,2,0:0:0:0:
372,232,116550,1,0,0:0:0:0:
404,224,116635,1,0,0:0:0:0:
400,192,116721,1,2,0:0:0:0:
112,192,116892,1,2,0:0:0:0:
256,60,117064,1,2,0:0:0:0:
256,242,117235,5,2,0:0:0:0:
344,192,117407,2,0,L|404:160,1,45
256,142,117578,2,0,L|256:72,1,45,2|0,0:0|0:0,0:0:0:0:
168,192,117750,2,0,L|108:160,1,45,2|0,0:0|0:0,0:0:0:0:
168,292,117921,5,0,1:0:0:0:
185,317,118006,1,0,0:0:0:0:
210,336,118092,1,0,0:0:0:0:
240,346,118178,1,0,0:0:0:0:
271,346,118263,1,8,1:2:0:0:
301,336,118349,1,0,0:0:0:0:
326,317,118435,1,0,0:0:0:0:
344,292,118521,1,0,0:0:0:0:
352,260,118607,6,0,P|348:204|344:192,3,45,0|0|0|0,0:0|0:0|1:0|0:0,0:0:0:0:
256,142,118950,2,0,P|264:94|272:74,3,45,8|0|0|0,1:2|0:0|0:0|0:0,0:0:0:0:
364,40,119292,5,0,1:0:0:0:
392,40,119378,1,0,0:0:0:0:
416,48,119464,1,0,0:0:0:0:
436,68,119550,1,0,0:0:0:0:
448,92,119635,1,8,1:2:0:0:
452,120,119721,1,0,0:0:0:0:
444,148,119807,1,0,1:0:0:0:
428,172,119892,1,0,0:0:0:0:
408,188,119978,6,0,L|344:176,1,45
148,179,120150,2,0,L|104:188,1,45,0|0,1:0|0:0,0:0:0:0:
360,296,120321,2,0,L|315:287,1,45,8|0,1:2|0:0,0:0:0:0:
196,287,120492,2,0,L|152:296,1,45,0|0,0:0|0:0,0:0:0:0:
256,84,120664,6,0,L|364:105,1,90,6|0,1:2|0:0,0:0:0:0:
256,192,121007,1,8,1:2:0:0:
164,140,121178,1,0,0:0:0:0:
164,140,121264,1,0,0:0:0:0:
164,140,121350,1,0,0:0:0:0:
256,84,121521,1,0,1:0:0:0:
392,192,121692,1,8,1:2:0:0:
256,300,121864,1,0,0:0:0:0:
168,255,122035,6,0,P|156:298|165:342,1,90,0|0,1:0|0:0,0:0:0:0:
346,342,122378,2,0,P|355:298|344:256,1,90,8|0,1:2|0:0,0:0:0:0:
256,92,122721,1,0,0:0:0:0:
256,192,122892,1,0,1:0:0:0:
416,140,123064,1,8,1:2:0:0:
352,64,123235,1,0,1:0:0:0:
332,160,123407,6,0,L|364:260,1,90,0|0,1:0|0:0,0:0:0:0:
184,340,123750,1,8,1:2:0:0:
153,245,123921,1,0,0:0:0:0:
252,268,124092,1,0,0:0:0:0:
88,320,124264,1,0,1:0:0:0:
12,164,124435,2,0,P|16:112|32:64,1,90,8|0,1:2|0:0,0:0:0:0:
48,52,124692,1,0,0:0:0:0:
76,40,124778,6,0,L|172:52,1,90,0|0,1:0|0:0,0:0:0:0:
316,144,125121,2,0,L|226:132,1,90,8|0,1:2|1:0,0:0:0:0:
144,276,125464,1,0,0:0:0:0:
112,164,125635,1,0,1:0:0:0:
256,240,125807,1,8,1:2:0:0:
400,164,125978,1,0,0:0:0:0:
256,88,126150,5,0,1:0:0:0:
188,192,126321,1,0,0:0:0:0:
256,296,126492,1,8,1:2:0:0:
324,192,126664,1,0,0:0:0:0:
328,164,126750,1,0,0:0:0:0:
332,136,126835,2,0,L|348:28,1,90,0|0,0:0|1:0,0:0:0:0:
180,136,127178,2,0,L|164:28,1,90,8|0,1:2|0:0,0:0:0:0:
256,8,127521,5,0,1:0:0:0:
256,108,127692,1,0,0:0:0:0:
100,84,127864,2,0,L|-20:64,1,90,8|0,1:2|0:0,0:0:0:0:
28,268,128207,1,0,0:0:0:0:
224,239,128378,1,0,1:0:0:0:
100,84,128550,1,8,1:2:0:0:
126,253,128721,1,0,1:0:0:0:
160,160,128892,5,0,1:0:0:0:
64,176,129064,1,0,1:0:0:0:
256,140,129235,2,0,P|304:152|356:160,1,90,8|0,1:2|0:0,0:0:0:0:
358,160,129492,1,0,0:0:0:0:
372,160,129578,5,0,1:0:0:0:
420,44,129750,1,0,1:0:0:0:
496,144,129921,2,0,P|504:192|504:256,1,90,8|0,1:2|0:0,0:0:0:0:
506,247,130178,1,0,0:0:0:0:
504,260,130264,5,0,1:0:0:0:
340,344,130435,1,0,1:0:0:0:
260,168,130607,1,8,1:2:0:0:
108,252,130778,1,0,1:0:0:0:
172,344,130950,6,0,P|255:340|340:344,1,168.750006437302
