osu file format v9

[General]
AudioFilename: Hierophobic_-_Introduction_Zelda.mp3
AudioLeadIn: 2500
PreviewTime: 16008
Countdown: 0
SampleSet: Normal
StackLeniency: 0.7
Mode: 1
LetterboxInBreaks: 1

[Editor]
DistanceSpacing: 0.8
BeatDivisor: 4
GridSize: 8

[Metadata]
Title:Introduction
Artist:Hierophobic
Creator:LunaticMara
Version:lepidophobic! - Taiko Oni
Source:The Legend of Zelda
Tags:remix D33d lepidopodus

[Difficulty]
HPDrainRate:6
CircleSize:5
OverallDifficulty:6
ApproachRate:5
SliderMultiplier:1.4
SliderTickRate:1

[Events]
//Background and Video events
0,0,"lepidonissexydude.jpg"
//Break Periods
//Storyboard Layer 0 (Background)
//Storyboard Layer 1 (Fail)
//Storyboard Layer 2 (Pass)
//Storyboard Layer 3 (Foreground)
//Storyboard Sound Samples
//Background Colour Transformations
3,100,163,162,255

[TimingPoints]
33,400,4,1,0,85,1,0
6299,-100,4,1,0,70,0,0
9633,-100,4,1,0,85,0,0
16033,-100,4,1,0,85,0,1
41633,-100,4,1,0,85,0,0
54166,-100,4,1,0,70,0,0
57633,-100,4,1,0,85,0,0
64033,-100,4,1,0,85,0,1
89633,-100,4,1,0,85,0,0

[Colours]
Combo1 : 255,150,0
Combo2 : 0,64,0
Combo3 : 5,5,240
Combo4 : 0,64,0
Combo5 : 240,5,5

[HitObjects]
75,204,33,1,0
240,216,1033,1,0
352,232,1433,1,0
329,292,1633,1,0
304,280,1733,1,0
280,272,1833,1,0
75,204,3233,1,0
297,207,4233,1,0
184,200,4633,1,0
329,292,4833,1,0
304,272,4933,1,0
304,272,5033,1,0
328,291,5633,1,0
229,345,6033,1,0
232,232,6433,5,0
288,240,6633,1,0
312,248,6733,1,0
336,256,6833,1,0
368,304,7033,1,0
368,304,7133,1,0
368,304,7233,1,0
320,280,7433,1,0
296,272,7533,1,0
272,264,7633,1,0
248,256,7733,1,0
224,248,7833,1,0
200,240,7933,1,0
176,224,8033,1,0
232,208,8233,1,0
256,200,8333,1,0
280,192,8433,1,0
328,168,8633,1,0
304,184,8733,1,0
304,184,8833,1,0
304,184,9033,1,0
304,184,9133,1,0
304,184,9233,1,0
304,184,9333,1,0
304,184,9433,1,0
304,184,9533,1,0
304,184,9633,5,0
264,256,9933,1,0
264,280,10033,1,0
184,304,10333,1,0
160,296,10433,1,0
152,216,10733,1,0
144,192,10833,1,0
152,168,10933,1,0
176,168,11033,1,8
200,168,11133,1,8
224,168,11233,1,8
336,168,11633,1,0
360,176,11733,1,0
384,168,11833,1,0
408,168,11933,1,8
432,168,12033,1,8
392,208,12233,1,0
328,216,12433,1,0
280,240,12633,1,0
224,248,12833,1,0
152,200,13133,1,0
152,200,13233,1,0
224,160,13533,1,0
224,160,13633,1,0
224,160,13933,1,0
224,160,14033,1,0
224,160,14133,1,0
248,160,14233,1,8
272,160,14333,1,8
296,160,14433,1,8
392,216,14833,1,0
400,240,14933,1,0
384,264,15033,1,0
392,240,15133,1,8
392,216,15233,1,8
360,264,15433,1,0
320,296,15633,1,0
264,304,15833,1,0
224,264,16033,5,0
232,184,16333,1,0
240,160,16433,1,0
320,192,16733,1,0
344,200,16833,1,0
264,192,17133,1,0
240,192,17233,1,0
216,192,17333,1,8
240,192,17433,1,8
264,192,17533,1,8
288,192,17633,1,8
204,192,17933,1,0
400,168,18033,1,0
400,168,18133,1,0
424,184,18233,1,8
424,184,18333,1,8
424,208,18433,1,8
328,152,18833,1,0
368,160,18967,1,8
408,168,19100,1,8
448,176,19233,1,0
376,219,19533,1,0
351,233,19633,1,0
325,243,19733,1,0
297,249,19833,1,0
286,222,19933,1,8
260,209,20033,1,8
343,205,20333,1,8
335,172,20433,1,8
341,135,20567,1,8
368,160,20700,1,0
405,160,20833,1,8
388,242,21099,1,8
410,225,21233,1,0
331,256,21499,1,0
305,266,21633,1,0
232,223,21899,1,0
258,214,22033,1,8
294,204,22167,1,0
330,196,22300,1,8
309,165,22433,5,0
225,164,22733,1,0
252,166,22833,1,8
335,170,23133,1,8
358,185,23233,1,8
364,268,23533,1,8
384,249,23633,1,0
358,185,23833,1,8
304,208,24033,1,0
248,208,24233,1,0
232,240,24333,1,8
256,232,24433,1,8
336,200,24733,1,0
352,176,24833,1,8
424,264,25233,1,8
432,208,25433,1,0
376,224,25633,1,0
320,216,25833,1,0
296,208,25933,1,0
312,184,26033,1,8
392,168,26333,1,0
416,160,26433,1,8
392,240,26733,1,8
432,208,26833,1,0
384,184,27033,1,8
432,152,27233,1,4
376,168,27433,1,0
408,232,27533,1,0
392,240,27633,1,0
336,248,27833,1,0
312,272,27933,1,0
288,272,28033,1,0
232,264,28233,1,0
232,216,28333,1,0
248,240,28433,1,0
232,216,28533,1,0
232,192,28633,1,0
232,168,28733,1,0
224,264,28833,5,0
232,184,29133,1,0
240,160,29233,1,0
320,192,29533,1,0
344,200,29633,1,0
264,192,29933,1,0
240,192,30033,1,0
216,192,30133,1,8
240,192,30233,1,8
264,192,30333,1,8
288,192,30433,1,8
204,192,30733,1,0
400,168,30833,1,0
400,168,30933,1,0
424,184,31033,1,8
424,184,31133,1,8
424,208,31233,1,8
328,152,31633,1,0
368,160,31767,1,8
408,168,31900,1,8
386,198,32033,2,0,B|112:317,1,280
184,208,33233,1,8
296,208,33633,1,4
360,296,34033,1,4
80,184,34833,1,0
191,172,35233,5,8
228,172,35367,1,0
265,172,35500,1,0
302,169,35633,1,8
339,169,35767,1,0
376,170,35900,1,0
408,187,36033,1,8
451,290,36433,1,0
339,279,36833,1,8
327,167,37233,1,0
324,204,37367,1,0
311,239,37500,1,0
281,262,37633,1,0
448,112,38433,1,8
464,144,38567,1,0
472,184,38700,1,0
472,144,38833,1,8
472,184,38967,1,0
472,184,39100,1,0
440,176,39233,1,8
352,240,39633,1,0
432,160,40033,1,8
320,184,40433,1,0
320,184,40567,1,0
280,184,40700,1,0
280,184,40833,1,0
288,296,41233,1,0
384,240,41633,6,0,B|96:144,1,280
112,120,42833,1,8
224,120,43233,1,4
336,120,43633,1,4
408,336,44433,1,0
304,296,44833,1,0
320,240,45033,1,0
328,216,45133,1,0
352,208,45233,1,8
408,208,45433,1,0
432,216,45533,1,0
456,200,45633,1,8
424,160,45833,1,0
440,176,45933,1,8
416,192,46033,1,8
392,240,46233,1,8
352,200,46433,1,4
304,229,46633,1,0
288,144,46733,1,0
264,152,46833,1,0
265,207,47033,1,0
184,184,47133,1,0
160,200,47233,1,0
209,225,47433,1,0
112,264,47533,1,0
136,256,47633,1,0
136,256,47733,1,0
136,256,47833,1,0
160,272,47933,1,0
184,272,48033,5,0
248,176,48433,1,0
312,272,48833,1,0
256,280,49033,1,0
368,296,49433,1,0
368,296,49633,1,0
368,296,49733,1,0
368,296,49833,1,0
200,304,50433,1,0
312,312,50833,1,0
224,240,51233,1,0
328,192,51633,1,0
328,304,52033,1,0
312,312,52233,1,0
272,208,52633,1,0
288,264,52833,1,0
304,288,52933,1,0
304,288,53033,1,0
144,232,53633,1,0
272,208,54033,1,0
280,96,54433,5,0
320,136,54633,1,0
336,160,54733,1,0
336,184,54833,1,8
304,224,55033,1,0
280,240,55133,1,0
272,264,55233,1,8
224,240,55433,1,0
248,256,55533,1,0
272,248,55633,1,8
296,240,55733,1,0
320,232,55833,1,8
344,224,55933,1,0
368,232,56033,1,0
320,136,56233,1,0
336,160,56333,1,0
336,184,56433,1,8
304,224,56633,1,0
280,240,56733,1,0
272,264,56833,1,8
224,240,57033,1,0
248,256,57133,1,0
272,248,57233,1,8
296,240,57333,1,0
320,232,57433,1,8
344,224,57533,1,0
368,232,57633,5,0
264,256,57933,1,0
264,280,58033,1,0
184,304,58333,1,0
160,296,58433,1,0
152,216,58733,1,0
144,192,58833,1,0
152,168,58933,1,0
176,168,59033,1,8
200,168,59133,1,8
224,168,59233,1,8
336,168,59633,1,0
360,176,59733,1,0
384,168,59833,1,0
408,168,59933,1,8
432,168,60033,1,8
392,208,60233,1,0
328,216,60433,1,0
280,240,60633,1,0
224,248,60833,1,0
152,200,61133,1,0
152,200,61233,1,0
224,160,61533,1,0
224,160,61633,1,0
224,160,61933,1,0
224,160,62033,1,0
224,160,62133,1,0
248,160,62233,1,8
272,160,62333,1,8
296,160,62433,1,8
392,216,62833,1,0
400,240,62933,1,0
384,264,63033,1,0
392,240,63133,1,8
392,216,63233,1,8
360,264,63433,1,0
320,296,63633,1,0
264,304,63833,1,0
224,264,64033,5,0
232,184,64333,1,0
240,160,64433,1,0
280,160,64567,1,8
312,168,64700,1,0
344,200,64833,1,8
264,192,65133,1,0
240,192,65233,1,0
216,192,65333,1,8
240,192,65433,1,8
264,192,65533,1,8
288,192,65633,1,8
204,192,65933,1,0
400,168,66033,1,0
400,168,66133,1,0
424,184,66233,1,8
424,184,66333,1,8
424,208,66433,1,8
328,152,66833,1,0
368,160,66967,1,8
408,168,67100,1,8
448,176,67233,1,0
376,219,67533,1,0
351,233,67633,1,0
325,243,67733,1,0
297,249,67833,1,0
286,222,67933,1,8
260,209,68033,1,8
343,205,68333,1,8
335,172,68433,1,8
341,135,68567,1,8
368,160,68700,1,0
405,160,68833,1,8
388,242,69099,1,8
410,225,69233,1,0
376,224,69367,1,0
336,224,69500,1,8
305,266,69633,1,0
232,223,69899,1,0
258,214,70033,1,8
294,204,70167,1,0
330,196,70300,1,8
309,165,70433,5,0
225,164,70733,1,0
252,166,70833,1,8
208,200,71033,1,0
335,170,71133,1,8
358,185,71233,1,8
364,268,71533,1,8
384,249,71633,1,0
358,185,71833,1,8
304,208,72033,1,0
248,208,72233,1,0
232,240,72333,1,0
256,232,72433,1,8
232,181,72633,1,0
259,180,72733,1,8
287,180,72833,1,8
424,264,73233,1,8
432,208,73433,1,0
376,224,73633,1,0
320,216,73833,1,0
296,208,73933,1,0
312,184,74033,1,8
392,168,74333,1,0
416,160,74433,1,8
392,240,74733,1,8
432,208,74833,1,0
384,184,75033,1,8
432,152,75233,1,4
376,160,75433,1,0
408,232,75533,1,0
392,240,75633,1,0
336,224,75833,1,0
312,272,75933,1,0
288,272,76033,1,0
328,312,76233,1,0
232,216,76333,1,0
248,240,76433,1,0
232,216,76533,1,0
232,192,76633,1,0
232,168,76733,1,0
224,264,76833,5,0
232,184,77133,1,0
240,160,77233,1,0
280,160,77367,1,8
320,160,77500,1,0
344,200,77633,1,8
264,192,77933,1,0
240,192,78033,1,0
216,192,78133,1,8
240,192,78233,1,8
264,192,78333,1,8
288,192,78433,1,8
204,192,78733,1,0
400,168,78833,1,0
400,168,78933,1,0
424,184,79033,1,8
424,184,79133,1,8
424,208,79233,1,8
344,200,79533,1,0
328,152,79633,1,0
368,160,79767,1,8
408,168,79900,1,8
386,198,80033,2,0,B|112:317,1,280
184,208,81233,1,8
296,208,81633,1,4
360,296,82033,1,4
80,184,82833,1,0
191,172,83233,5,8
228,172,83367,1,0
265,172,83500,1,0
302,169,83633,1,8
339,169,83767,1,0
376,170,83900,1,0
408,187,84033,1,8
451,290,84433,1,0
339,279,84833,1,12
327,167,85233,1,0
324,204,85367,1,0
311,239,85500,1,0
281,262,85633,1,0
448,112,86433,1,8
464,144,86567,1,0
472,184,86700,1,0
472,144,86833,1,8
472,184,86967,1,0
472,184,87100,1,0
440,176,87233,1,8
352,240,87633,1,0
432,160,88033,1,12
320,184,88433,1,0
320,184,88567,1,0
280,184,88700,1,0
280,184,88833,1,0
288,296,89233,1,0
176,281,89633,6,0,B|60:128|60:128|179:116,1,280
254,153,90833,1,8
287,226,91233,1,4
183,269,91633,1,4
386,174,92433,1,0
346,278,92833,1,0
328,331,93033,1,0
332,303,93133,1,0
355,287,93233,1,8
366,232,93433,1,0
370,259,93533,1,0
381,233,93633,1,8
351,185,93833,1,0
378,183,93933,1,8
406,183,94033,1,8
414,238,94233,1,8
375,197,94433,1,4
324,221,94633,1,0
300,236,94733,1,0
275,248,94833,1,0
230,282,95033,1,0
230,282,95133,1,0
230,282,95233,1,0
230,282,95433,1,0
224,254,95533,1,0
218,226,95633,1,0
212,198,95733,1,0
206,170,95833,1,0
206,170,95933,1,0
