osu file format v9

[General]
AudioFilename: Hierophobic_-_Introduction_Zelda.mp3
AudioLeadIn: 0
PreviewTime: 16008
Countdown: 0
SampleSet: Normal
StackLeniency: 0.7
Mode: 0
LetterboxInBreaks: 1

[Editor]
DistanceSpacing: 0.8
BeatDivisor: 4
GridSize: 8

[Metadata]
Title:Introduction
Artist:Hierophobic
Creator:LunaticMara
Version:Normalphobic
Source:The Legend of Zelda
Tags:remix D33d lepidopodus

[Difficulty]
HPDrainRate:4
CircleSize:4
OverallDifficulty:4
ApproachRate:5
SliderMultiplier:1.4
SliderTickRate:1

[Events]
//Background and Video events
0,0,"hierophobiciscooldude.jpg"
//Break Periods
2,41833,46833
//Storyboard Layer 0 (Background)
//Storyboard Layer 1 (Fail)
//Storyboard Layer 2 (Pass)
//Storyboard Layer 3 (Foreground)
//Storyboard Sound Samples
//Background Colour Transformations
3,100,163,162,255

[TimingPoints]
33,400,4,1,0,80,1,0
11633,-100,4,2,0,80,0,0
11833,-100,4,1,0,80,0,0
14833,-100,4,2,0,69,0,0
15033,-100,4,1,0,72,0,0
15433,-100,4,2,0,79,0,0
15833,-100,4,1,0,80,0,0
36033,-100,4,2,0,80,0,0
36233,-100,4,1,0,80,0,0
39233,-100,4,2,0,80,0,0
39433,-100,4,1,0,80,0,0
48433,-100,4,2,0,80,0,0
48633,-100,4,1,0,80,0,0
49233,-100,4,2,0,80,0,0
49433,-100,4,1,0,80,0,0
50033,-100,4,2,0,80,0,0
50233,-100,4,1,0,80,0,0
50833,-100,4,2,0,80,0,0
51033,-100,4,1,0,80,0,0
51633,-100,4,2,0,80,0,0
52633,-100,4,1,0,80,0,0
53233,-100,4,2,0,80,0,0
54233,-100,4,1,0,80,0,0
58433,-100,4,2,0,80,0,0
58933,-100,4,1,0,80,0,0
60033,-100,4,2,0,80,0,0
60633,-100,4,1,0,80,0,0
61633,-100,4,2,0,80,0,0
62233,-100,4,1,0,80,0,0
63233,-100,4,2,0,80,0,0
63833,-100,4,1,0,80,0,0
64833,-100,4,2,0,80,0,0
65433,-100,4,1,0,80,0,0
66433,-100,4,2,0,80,0,0
67033,-100,4,1,0,80,0,0
68033,-100,4,2,0,80,0,0
68233,-100,4,1,0,80,0,0
69633,-100,4,2,0,80,0,0
70033,-100,4,1,0,80,0,0
71233,-100,4,2,0,80,0,0
71433,-100,4,1,0,80,0,0
72833,-100,4,2,0,80,0,0
73033,-100,4,1,0,80,0,0
74433,-100,4,2,0,80,0,0
74633,-100,4,1,0,80,0,0
84033,-100,4,2,0,80,0,0
84633,-100,4,1,0,80,0,0
87633,-100,4,2,0,80,0,0
88233,-100,4,1,0,80,0,0

[Colours]
Combo1 : 128,128,0
Combo2 : 0,128,0
Combo3 : 128,0,64

[HitObjects]
112,264,9633,1,0
192,184,10033,1,0
264,264,10433,1,8
344,184,10833,2,0,B|352:104|264:72,2,140,0|0|6
384,288,12033,1,8
456,200,12433,1,0
352,152,12833,6,0,B|280:120|264:48,2,140,0|0|8
264,224,14033,2,0,B|176:248|168:336,2,140,0|0|4
168,168,15233,1,8
264,112,15633,1,6
360,168,16033,5,0
312,272,16433,1,0
200,272,16833,1,8
168,168,17233,1,0
264,112,17633,1,0
376,120,18033,2,0,B|456:144|456:248,2,140,0|8|0
280,184,19233,6,0,B|296:272|192:320,1,140
112,312,20033,2,0,B|56:248|104:168,1,140,8|0
168,96,20833,1,0
272,56,21233,1,0
376,104,21633,2,0,B|464:160|464:248,1,140,8|0
344,208,22433,6,0,B|416:272|392:360,2,140,0|0|4
232,208,23633,2,0,B|160:272|184:360,2,140,0|0|0
176,112,24833,1,4
112,208,25233,2,0,B|40:272|64:360,2,140,0|0|0
176,112,26433,1,4
248,200,26833,1,0
312,112,27233,5,4
384,200,27633,1,8
280,296,28033,1,4
160,232,28433,1,8
136,96,28833,5,0
248,96,29233,1,8
360,96,29633,2,0,B|440:96|480:192,1,140,0|0
400,248,30433,1,0
288,248,30833,1,8
176,248,31233,2,0,B|88:232|64:144,1,140,0|0
112,64,32033,5,0
200,136,32433,1,8
288,64,32833,1,0
376,136,33233,1,0
288,208,33633,1,0
376,280,34033,1,8
464,208,34433,1,0
376,136,34833,1,0
280,72,35233,6,0,B|192:56|128:64,2,140,0|8|6
192,144,36433,2,0,B|104:128|56:168,2,140,8|0|8
280,216,37633,2,0,B|192:200|152:264,1,140
248,320,38433,5,0
360,296,38833,1,8
408,192,39233,1,6
376,88,39633,1,8
272,40,40033,1,0
168,80,40433,2,0,B|88:176|224:136,1,140
272,40,41233,1,0
376,88,41633,1,4
168,192,48033,5,0
256,120,48433,1,2
344,192,48833,1,0
256,264,49233,1,2
344,192,49633,5,0
256,120,50033,1,2
168,192,50433,1,0
256,264,50833,1,2
344,192,51233,6,0,B|416:128|328:64,1,140,0|2
232,40,52033,2,0,B|120:48|96:160,1,140,2|2
96,216,52833,2,0,B|96:296|216:336,1,140,0|2
288,336,53633,2,2,B|384:328|432:248,1,140,2|2
256,192,54433,12,4,57233
80,320,57633,5,0
152,232,58033,1,0
216,320,58433,1,2
288,232,58833,1,2
352,320,59233,1,0
424,232,59633,2,0,B|424:136|312:136,2,140,0|2|0
352,320,60833,5,0
288,232,61233,1,0
216,320,61633,1,2
144,232,62033,1,2
216,144,62433,1,0
328,144,62833,2,0,B|400:144|400:40,2,140,0|2|0
328,256,64033,5,0
216,256,64433,1,0
216,144,64833,1,2
104,144,65233,1,2
216,144,65633,1,0
328,144,66033,2,0,B|496:144,2,140,0|2|0
216,144,67233,6,0,B|64:144,2,140,0|0|2
328,144,68433,2,0,B|440:144|440:272,2,140
216,144,69633,2,0,B|112:144|112:256,1,140,2|0
184,304,70433,5,0
296,304,70833,2,0,B|344:304|384:232|432:232,1,140,0|2
416,120,71633,2,0,B|368:120|328:48|280:48,1,140
184,56,72433,1,0
96,128,72833,1,2
56,232,73233,1,0
168,232,73633,5,0
224,136,74033,1,0
304,56,74433,1,2
384,136,74833,1,0
440,232,75233,1,4
320,296,75633,5,8
184,256,76033,1,4
192,120,76433,1,8
312,192,76833,6,0,B|376:232|440:136|512:224,2,140,0|4|0
200,192,78033,2,0,B|136:232|72:136|0:224,2,140,8|0|4
256,288,79233,1,0
256,176,79633,1,8
256,64,80033,5,0
256,176,80433,2,0,B|328:224|400:168,1,140,4|0
392,64,81233,1,8
280,64,81633,2,0,B|208:96|136:88,1,140,0|8
224,168,82433,2,0,B|144:176|72:152,1,140,0|8
152,248,83233,6,0,B|16:320|208:328,1,140,0|4
232,248,84033,2,0,B|368:320|176:328,1,140,2|4
152,248,84833,2,0,B|16:176|208:168,1,140
232,248,85633,2,0,B|368:176|176:168,1,140,0|0
312,88,86433,5,0
200,88,86833,1,0
312,88,87233,2,0,B|360:152|360:240,2,140,4|4|2
200,88,88433,2,0,B|160:152|168:240,2,140
256,192,89633,12,0,92433
200,136,92833,5,0
312,136,93233,1,0
312,248,93633,1,0
200,248,94033,1,0
256,192,94433,12,4,96033
