osu file format v12

[General]
AudioFilename: Theme of Taskmaster.mp3
AudioLeadIn: 0
PreviewTime: 38935
Countdown: 0
SampleSet: Normal
StackLeniency: 0.5
Mode: 1
LetterboxInBreaks: 0

[Editor]
DistanceSpacing: 1
BeatDivisor: 4
GridSize: 4

[Metadata]
Title:Theme of Taskmaster
TitleUnicode:Theme of Taskmaster
Artist:Hideyuki Fukasawa
ArtistUnicode:深澤 秀行
Creator:Roddie
Version:Oni
Source:Marvel vs. Capcom 3: Fate of Two Worlds
Tags:ultimate umvc3 mvc3 mvc tony masters playstaion ps3 xbox 360 taiko
BeatmapID:185864
BeatmapSetID:62720

[Difficulty]
HPDrainRate:6
CircleSize:4
OverallDifficulty:6
ApproachRate:6
SliderMultiplier:1.4
SliderTickRate:1

[Events]
//Background and Video events
0,0,"Taxmaster.jpg",0,0
//Break Periods
//Storyboard Layer 0 (Background)
//Storyboard Layer 1 (Fail)
//Storyboard Layer 2 (Pass)
//Storyboard Layer 3 (Foreground)
//Storyboard Sound Samples
//Background Colour Transformations
3,100,163,162,255

[TimingPoints]
6503,405.405405405405,4,1,0,50,1,0
77854,-100,4,1,0,50,0,1
82719,-100,4,1,0,50,0,0

[Colours]
Combo1 : 128,255,255
Combo2 : 255,0,0

[HitObjects]
256,192,6503,1,4,0:0:0:0:
256,192,6705,1,0,0:0:0:0:
256,192,6807,5,0,0:0:0:0:
256,192,6908,1,8,0:0:0:0:
256,192,7111,5,0,0:0:0:0:
256,192,7313,1,0,0:0:0:0:
256,192,7516,5,8,0:0:0:0:
256,192,7719,5,0,0:0:0:0:
256,192,7820,5,2,0:0:0:0:
256,192,7921,5,0,0:0:0:0:
256,192,8023,5,2,0:0:0:0:
256,192,8124,5,0,0:0:0:0:
256,192,8327,1,0,0:0:0:0:
256,192,8428,1,0,0:0:0:0:
256,192,8530,5,8,0:0:0:0:
256,192,8732,5,0,0:0:0:0:
256,192,8935,1,0,0:0:0:0:
256,192,9036,1,0,0:0:0:0:
256,192,9138,5,8,0:0:0:0:
256,192,9340,1,8,0:0:0:0:
256,192,9442,1,8,0:0:0:0:
256,192,9543,5,0,0:0:0:0:
256,192,9644,5,8,0:0:0:0:
256,192,9746,5,0,0:0:0:0:
256,192,9948,1,0,0:0:0:0:
256,192,10050,1,0,0:0:0:0:
256,192,10151,5,8,0:0:0:0:
256,192,10354,5,0,0:0:0:0:
256,192,10557,1,0,0:0:0:0:
256,192,10759,5,8,0:0:0:0:
256,192,10962,5,0,0:0:0:0:
256,192,11165,1,0,0:0:0:0:
256,192,11367,5,8,0:0:0:0:
256,192,11469,5,0,0:0:0:0:
256,192,11570,1,0,0:0:0:0:
256,192,11773,1,0,0:0:0:0:
256,192,11975,5,8,0:0:0:0:
256,192,12178,5,0,0:0:0:0:
256,192,12989,1,4,0:0:0:0:
256,192,13293,1,0,0:0:0:0:
256,192,13597,1,0,0:0:0:0:
256,192,13800,5,2,0:0:0:0:
256,192,14104,5,0,0:0:0:0:
256,192,14408,1,0,0:0:0:0:
256,192,14611,5,2,0:0:0:0:
256,192,14813,5,0,0:0:0:0:
256,192,14915,5,8,0:0:0:0:
256,192,15016,1,8,0:0:0:0:
256,192,15219,5,0,0:0:0:0:
256,192,15523,1,0,0:0:0:0:
256,192,15624,5,8,0:0:0:0:
256,192,15827,1,8,0:0:0:0:
256,192,15928,1,8,0:0:0:0:
256,192,16030,5,0,0:0:0:0:
256,192,16131,5,8,0:0:0:0:
256,192,16232,5,0,0:0:0:0:
256,192,16536,1,0,0:0:0:0:
256,192,16638,5,8,0:0:0:0:
256,192,16840,5,0,0:0:0:0:
256,192,17043,5,2,0:0:0:0:
256,192,17347,5,0,0:0:0:0:
256,192,17651,1,0,0:0:0:0:
256,192,17854,5,2,0:0:0:0:
256,192,18057,5,0,0:0:0:0:
256,192,18158,5,8,0:0:0:0:
256,192,18259,1,8,0:0:0:0:
256,192,18462,5,0,0:0:0:0:
256,192,18766,5,8,0:0:0:0:
256,192,18867,5,0,0:0:0:0:
256,192,19070,5,8,0:0:0:0:
256,192,19273,1,8,0:0:0:0:
256,192,19374,1,8,0:0:0:0:
256,192,19475,5,0,0:0:0:0:
256,192,19780,1,0,0:0:0:0:
256,192,19881,5,8,0:0:0:0:
256,192,20084,5,0,0:0:0:0:
256,192,20489,5,8,0:0:0:0:
256,192,20692,1,2,0:0:0:0:
256,192,20793,5,0,0:0:0:0:
256,192,20894,1,0,0:0:0:0:
256,192,20996,1,0,0:0:0:0:
256,192,21097,5,2,0:0:0:0:
256,192,21401,5,0,0:0:0:0:
256,192,21502,5,8,0:0:0:0:
256,192,21705,5,0,0:0:0:0:
256,192,22009,1,0,0:0:0:0:
256,192,22111,5,8,0:0:0:0:
256,192,22313,1,8,0:0:0:0:
256,192,22415,1,8,0:0:0:0:
256,192,22516,1,8,0:0:0:0:
256,192,22719,1,6,0:0:0:0:
256,192,23023,5,4,0:0:0:0:
256,192,23327,1,4,0:0:0:0:
256,192,23530,5,6,0:0:0:0:
256,192,23834,5,4,0:0:0:0:
256,192,24138,1,4,0:0:0:0:
256,192,24340,5,6,0:0:0:0:
256,192,24644,5,8,0:0:0:0:
256,192,24746,5,0,0:0:0:0:
256,192,24948,1,8,0:0:0:0:
256,192,25252,5,0,0:0:0:0:
256,192,25354,5,8,0:0:0:0:
256,192,25557,1,8,0:0:0:0:
256,192,25658,1,8,0:0:0:0:
256,192,25759,1,8,0:0:0:0:
256,192,25861,1,8,0:0:0:0:
256,192,25962,5,0,0:0:0:0:
256,192,26266,1,0,0:0:0:0:
256,192,26570,1,0,0:0:0:0:
256,192,26773,5,2,0:0:0:0:
256,192,27077,5,0,0:0:0:0:
256,192,27381,1,0,0:0:0:0:
256,192,27584,1,4,0:0:0:0:
256,192,27888,1,4,0:0:0:0:
256,192,28192,1,4,0:0:0:0:
256,192,28496,5,8,0:0:0:0:
256,192,28698,1,8,0:0:0:0:
256,192,28800,1,8,0:0:0:0:
256,192,29002,1,8,0:0:0:0:
256,192,29205,5,0,0:0:0:0:
256,192,29509,1,0,0:0:0:0:
256,192,29611,5,8,0:0:0:0:
256,192,29813,5,0,0:0:0:0:
256,192,30016,1,0,0:0:0:0:
256,192,30117,1,0,0:0:0:0:
256,192,30219,5,8,0:0:0:0:
256,192,30421,1,2,0:0:0:0:
256,192,30523,1,2,0:0:0:0:
256,192,30624,5,0,0:0:0:0:
256,192,30827,5,6,0:0:0:0:
256,192,31131,1,6,0:0:0:0:
256,192,31435,1,6,0:0:0:0:
256,192,31739,1,8,0:0:0:0:
256,192,31942,5,0,0:0:0:0:
256,192,32043,5,8,0:0:0:0:
256,192,32246,1,8,0:0:0:0:
256,192,32448,5,0,0:0:0:0:
256,192,32651,1,0,0:0:0:0:
256,192,32752,5,8,0:0:0:0:
256,192,32854,1,8,0:0:0:0:
256,192,33057,5,0,0:0:0:0:
256,192,33361,1,0,0:0:0:0:
256,192,33462,5,8,0:0:0:0:
256,192,33665,5,0,0:0:0:0:
256,192,33867,1,0,0:0:0:0:
256,192,33969,1,0,0:0:0:0:
256,192,34070,5,8,0:0:0:0:
256,192,34374,5,0,0:0:0:0:
256,192,34678,1,0,0:0:0:0:
256,192,34982,5,8,0:0:0:0:
256,192,35185,5,0,0:0:0:0:
256,192,35286,5,8,0:0:0:0:
256,192,35489,1,8,0:0:0:0:
256,192,35692,5,4,0:0:0:0:
256,192,35996,1,4,0:0:0:0:
256,192,36300,1,4,0:0:0:0:
256,192,36502,1,4,0:0:0:0:
256,192,36807,1,4,0:0:0:0:
256,192,37111,1,4,0:0:0:0:
256,192,37313,5,2,0:0:0:0:
256,192,37415,1,2,0:0:0:0:
256,192,37516,5,0,0:0:0:0:
256,192,37617,1,0,0:0:0:0:
256,192,37719,5,2,0:0:0:0:
256,192,37820,5,0,0:0:0:0:
256,192,37921,1,0,0:0:0:0:
256,192,38023,5,2,0:0:0:0:
256,192,38124,1,2,0:0:0:0:
256,192,38327,5,0,0:0:0:0:
256,192,38428,5,8,0:0:0:0:
256,192,38631,1,8,0:0:0:0:
256,192,38732,5,0,0:0:0:0:
256,192,38935,1,4,0:0:0:0:
256,192,39239,1,0,0:0:0:0:
256,192,39543,1,0,0:0:0:0:
256,192,39746,5,2,0:0:0:0:
256,192,40050,5,0,0:0:0:0:
256,192,40354,1,0,0:0:0:0:
256,192,40557,5,2,0:0:0:0:
256,192,40759,5,0,0:0:0:0:
256,192,40861,1,0,0:0:0:0:
256,192,40962,5,8,0:0:0:0:
256,192,41165,5,0,0:0:0:0:
256,192,41367,1,0,0:0:0:0:
256,192,41469,1,0,0:0:0:0:
256,192,41570,5,8,0:0:0:0:
256,192,41773,1,8,0:0:0:0:
256,192,41874,1,8,0:0:0:0:
256,192,41975,1,8,0:0:0:0:
256,192,42077,1,8,0:0:0:0:
256,192,42178,5,0,0:0:0:0:
256,192,42482,1,0,0:0:0:0:
256,192,42584,5,8,0:0:0:0:
256,192,42786,5,0,0:0:0:0:
256,192,42989,5,2,0:0:0:0:
256,192,43293,5,0,0:0:0:0:
256,192,43597,1,0,0:0:0:0:
256,192,43800,5,2,0:0:0:0:
256,192,44104,5,0,0:0:0:0:
256,192,44408,1,0,0:0:0:0:
256,192,44611,1,0,0:0:0:0:
256,192,44712,5,8,0:0:0:0:
256,192,44813,1,8,0:0:0:0:
256,192,45016,1,8,0:0:0:0:
256,192,45219,1,8,0:0:0:0:
256,192,45320,1,8,0:0:0:0:
256,192,45421,5,0,0:0:0:0:
256,192,45725,1,0,0:0:0:0:
256,192,46030,1,0,0:0:0:0:
256,192,46232,5,2,0:0:0:0:
256,192,46536,5,0,0:0:0:0:
256,192,46840,1,0,0:0:0:0:
256,192,47043,5,2,0:0:0:0:
256,192,47347,5,0,0:0:0:0:
256,192,47448,5,8,0:0:0:0:
256,192,47651,5,0,0:0:0:0:
256,192,47854,5,8,0:0:0:0:
256,192,48057,5,0,0:0:0:0:
256,192,48158,1,0,0:0:0:0:
256,192,48259,5,8,0:0:0:0:
256,192,48462,5,0,0:0:0:0:
256,192,48665,5,6,0:0:0:0:
256,192,48969,5,4,0:0:0:0:
256,192,49273,1,4,0:0:0:0:
256,192,49475,5,6,0:0:0:0:
256,192,49780,5,4,0:0:0:0:
256,192,50084,1,4,0:0:0:0:
256,192,50286,5,4,0:0:0:0:
256,192,50590,5,4,0:0:0:0:
256,192,50894,1,4,0:0:0:0:
256,192,51097,5,6,0:0:0:0:
256,192,51401,5,6,0:0:0:0:
256,192,51705,1,6,0:0:0:0:
256,192,51908,1,4,0:0:0:0:
256,192,52111,1,0,0:0:0:0:
256,192,52212,1,0,0:0:0:0:
256,192,52313,5,8,0:0:0:0:
256,192,52516,5,0,0:0:0:0:
256,192,52719,1,0,0:0:0:0:
256,192,52820,5,8,0:0:0:0:
256,192,52921,1,8,0:0:0:0:
256,192,53124,1,2,0:0:0:0:
256,192,53225,5,0,0:0:0:0:
256,192,53327,5,2,0:0:0:0:
256,192,53428,1,2,0:0:0:0:
256,192,53530,5,0,0:0:0:0:
256,192,53834,1,0,0:0:0:0:
256,192,53935,5,8,0:0:0:0:
256,192,54138,5,0,0:0:0:0:
256,192,54442,1,0,0:0:0:0:
256,192,54543,5,8,0:0:0:0:
256,192,54746,1,8,0:0:0:0:
256,192,54847,1,8,0:0:0:0:
256,192,54948,1,8,0:0:0:0:
256,192,55050,1,8,0:0:0:0:
256,192,55151,5,0,0:0:0:0:
256,192,55455,1,0,0:0:0:0:
256,192,55759,1,0,0:0:0:0:
256,192,55962,5,8,0:0:0:0:
256,192,56063,1,8,0:0:0:0:
256,192,56165,5,0,0:0:0:0:
256,192,56367,5,8,0:0:0:0:
256,192,56570,5,0,0:0:0:0:
256,192,56671,1,0,0:0:0:0:
256,192,56773,5,2,0:0:0:0:
256,192,57077,5,0,0:0:0:0:
256,192,57381,1,2,0:0:0:0:
256,192,57584,1,0,0:0:0:0:
256,192,57685,5,8,0:0:0:0:
256,192,57786,5,0,0:0:0:0:
256,192,57989,5,8,0:0:0:0:
256,192,58192,5,0,0:0:0:0:
256,192,58293,5,0,0:0:0:0:
256,192,58394,1,2,0:0:0:0:
256,192,58698,5,0,0:0:0:0:
256,192,59003,1,0,0:0:0:0:
256,192,59205,5,2,0:0:0:0:
256,192,59509,5,0,0:0:0:0:
256,192,59813,5,2,0:0:0:0:
256,192,60016,1,2,0:0:0:0:
256,192,60320,5,0,0:0:0:0:
256,192,60421,5,8,0:0:0:0:
256,192,60624,5,0,0:0:0:0:
256,192,60928,1,0,0:0:0:0:
256,192,61030,5,8,0:0:0:0:
256,192,61232,1,8,0:0:0:0:
256,192,61334,1,8,0:0:0:0:
256,192,61435,1,8,0:0:0:0:
256,192,61536,1,8,0:0:0:0:
256,192,61638,5,0,0:0:0:0:
256,192,62043,1,0,0:0:0:0:
256,192,62246,1,4,0:0:0:0:
256,192,62651,5,8,0:0:0:0:
256,192,62854,5,0,0:0:0:0:
256,192,62955,1,0,0:0:0:0:
256,192,63057,5,8,0:0:0:0:
320,216,63259,5,4,0:0:0:0:
256,192,63563,1,4,0:0:0:0:
256,192,63867,1,4,0:0:0:0:
256,192,64171,5,8,0:0:0:0:
256,192,64374,1,8,0:0:0:0:
256,192,64475,1,8,0:0:0:0:
256,192,64577,1,8,0:0:0:0:
256,192,64678,5,0,0:0:0:0:
256,192,64780,5,8,0:0:0:0:
256,192,64881,5,0,0:0:0:0:
256,192,65185,1,0,0:0:0:0:
256,192,65286,5,8,0:0:0:0:
256,192,65489,5,0,0:0:0:0:
256,192,65692,1,0,0:0:0:0:
256,192,65793,1,0,0:0:0:0:
256,192,65894,5,8,0:0:0:0:
256,192,66097,5,0,0:0:0:0:
256,192,66300,1,0,0:0:0:0:
256,192,66503,5,2,0:0:0:0:
256,192,66807,5,0,0:0:0:0:
256,192,67111,5,2,0:0:0:0:
256,192,67415,5,0,0:0:0:0:
256,192,67516,5,8,0:0:0:0:
256,192,67719,1,8,0:0:0:0:
256,192,67820,1,8,0:0:0:0:
256,192,67921,5,0,0:0:0:0:
256,192,68023,5,8,0:0:0:0:
256,192,68124,5,0,0:0:0:0:
256,192,68428,1,0,0:0:0:0:
256,192,68732,5,2,0:0:0:0:
256,192,69036,5,0,0:0:0:0:
256,192,69138,5,8,0:0:0:0:
256,192,69340,5,0,0:0:0:0:
256,192,69543,1,0,0:0:0:0:
256,192,69644,1,0,0:0:0:0:
256,192,69746,5,2,0:0:0:0:
256,192,70050,5,0,0:0:0:0:
256,192,70354,5,8,0:0:0:0:
256,192,70557,5,0,0:0:0:0:
256,192,70658,1,0,0:0:0:0:
256,192,70759,5,8,0:0:0:0:
256,192,70962,1,8,0:0:0:0:
256,192,71165,5,0,0:0:0:0:
256,192,71266,5,8,0:0:0:0:
256,192,71367,1,2,0:0:0:0:
256,192,71570,5,0,0:0:0:0:
256,192,71671,1,0,0:0:0:0:
256,192,71773,5,8,0:0:0:0:
256,192,71975,5,0,0:0:0:0:
256,192,72178,5,8,0:0:0:0:
256,192,72280,5,0,0:0:0:0:
256,192,72381,5,8,0:0:0:0:
256,192,72584,5,0,0:0:0:0:
256,192,72685,5,8,0:0:0:0:
256,192,72786,5,0,0:0:0:0:
256,192,72888,5,8,0:0:0:0:
256,192,72989,1,8,0:0:0:0:
256,192,73192,5,0,0:0:0:0:
256,192,73293,1,0,0:0:0:0:
256,192,73394,5,8,0:0:0:0:
256,192,73597,5,0,0:0:0:0:
256,192,73800,5,8,0:0:0:0:
256,192,73901,1,8,0:0:0:0:
256,192,74003,5,0,0:0:0:0:
256,192,74205,5,8,0:0:0:0:
256,192,74307,1,8,0:0:0:0:
256,192,74408,1,8,0:0:0:0:
256,192,74509,1,8,0:0:0:0:
256,192,74611,5,0,0:0:0:0:
256,192,75016,5,8,0:0:0:0:
256,192,75219,5,4,0:0:0:0:
256,192,75624,5,8,0:0:0:0:
256,192,75827,5,0,0:0:0:0:
256,192,75928,1,0,0:0:0:0:
256,192,76030,5,8,0:0:0:0:
256,192,76232,5,4,0:0:0:0:
256,192,76536,1,4,0:0:0:0:
256,192,76840,1,4,0:0:0:0:
256,192,77144,5,8,0:0:0:0:
256,192,77347,1,8,0:0:0:0:
256,192,77448,1,8,0:0:0:0:
256,192,77550,1,8,0:0:0:0:
256,192,77651,5,0,0:0:0:0:
256,192,77752,5,8,0:0:0:0:
256,192,77854,5,0,0:0:0:0:
256,192,78057,1,0,0:0:0:0:
256,192,78158,1,0,0:0:0:0:
256,192,78259,5,8,0:0:0:0:
256,192,78462,5,0,0:0:0:0:
256,192,78665,1,0,0:0:0:0:
256,192,78766,1,0,0:0:0:0:
256,192,78867,5,8,0:0:0:0:
256,192,79070,1,2,0:0:0:0:
256,192,79171,1,2,0:0:0:0:
256,192,79273,1,2,0:0:0:0:
256,192,79374,1,2,0:0:0:0:
256,192,79475,5,0,0:0:0:0:
256,192,79678,1,0,0:0:0:0:
256,192,79780,1,0,0:0:0:0:
256,192,79881,5,8,0:0:0:0:
256,192,80084,5,0,0:0:0:0:
256,192,80286,1,0,0:0:0:0:
256,192,80388,1,0,0:0:0:0:
256,192,80489,5,8,0:0:0:0:
256,192,80692,1,8,0:0:0:0:
256,192,80793,1,8,0:0:0:0:
256,192,80894,5,0,0:0:0:0:
256,192,80996,5,8,0:0:0:0:
256,192,81097,5,0,0:0:0:0:
256,192,81300,1,0,0:0:0:0:
256,192,81401,5,8,0:0:0:0:
256,192,81502,1,8,0:0:0:0:
256,192,81705,5,0,0:0:0:0:
256,192,82009,1,0,0:0:0:0:
256,192,82111,5,8,0:0:0:0:
256,192,82313,1,2,0:0:0:0:
256,192,82415,1,2,0:0:0:0:
256,192,82516,1,2,0:0:0:0:
256,192,82617,1,2,0:0:0:0:
256,192,82719,5,0,0:0:0:0:
256,192,82854,1,0,0:0:0:0:
256,192,82989,1,0,0:0:0:0:
256,192,83124,5,8,0:0:0:0:
256,192,83530,6,4,B|256:104,4,70,0|0|0|0|0,0:0|0:0|0:0|0:0|0:0,0:0:0:0:
