osu file format v12

[General]
AudioFilename: Theme of Taskmaster.mp3
AudioLeadIn: 0
PreviewTime: 38935
Countdown: 1
SampleSet: Soft
StackLeniency: 0.5
Mode: 0
LetterboxInBreaks: 0

[Editor]
DistanceSpacing: 1
BeatDivisor: 4
GridSize: 4

[Metadata]
Title:Theme of Taskmaster
TitleUnicode:Theme of Taskmaster
Artist:Hideyuki Fukasawa
ArtistUnicode:深澤 秀行
Creator:Roddie
Version:Insane
Source:Marvel vs. Capcom 3: Fate of Two Worlds
Tags:ultimate umvc3 mvc3 mvc tony masters playstaion ps3 xbox 360 taiko
BeatmapID:186056
BeatmapSetID:62720

[Difficulty]
HPDrainRate:6
CircleSize:4
OverallDifficulty:7
ApproachRate:8
SliderMultiplier:2
SliderTickRate:1

[Events]
//Background and Video events
0,0,"Taxmaster.jpg",0,0
//Break Periods
//Storyboard Layer 0 (Background)
//Storyboard Layer 1 (Fail)
//Storyboard Layer 2 (Pass)
//Storyboard Layer 3 (Foreground)
//Storyboard Sound Samples
//Background Colour Transformations
3,100,163,162,255

[TimingPoints]
6503,405.405405405405,4,2,0,70,1,0
6807,-100,4,3,0,70,0,0
7009,-100,4,2,0,70,0,0
7516,-100,4,3,0,70,0,0
7719,-100,4,2,0,70,0,0
8428,-100,4,3,0,70,0,0
8631,-100,4,2,0,70,0,0
9138,-100,4,3,0,70,0,0
9746,-100,4,2,0,70,0,0
10050,-100,4,3,0,70,0,0
10354,-100,4,2,0,70,0,0
10759,-100,4,3,0,70,0,0
10861,-100,4,2,0,70,0,0
11367,-100,4,3,0,70,0,0
12178,-100,4,2,0,70,0,0
13293,-100,4,3,0,70,0,0
13597,-100,4,2,0,70,0,0
14915,-100,4,3,0,70,0,0
16232,-100,4,2,0,70,0,0
16536,-100,4,3,0,70,0,0
17043,-100,4,2,0,70,0,0
18158,-100,4,3,0,70,0,0
18563,-100,4,2,0,70,0,0
18969,-100,4,3,0,70,0,0
19475,-100,4,2,0,70,0,0
21401,-100,4,3,0,70,0,0
22719,-100,4,2,0,70,0,0
22921,-100,4,3,0,70,0,0
23428,-100,4,2,0,70,0,0
23631,-100,4,3,0,70,0,0
24239,-100,4,2,0,70,0,0
24442,-100,4,3,0,70,0,0
25962,-100,4,2,0,70,0,0
27482,-100,4,3,0,70,0,0
29205,-100,4,2,0,70,0,0
29509,-100,4,3,0,70,0,0
32448,-100,4,2,0,70,0,0
34171,-100,4,3,0,70,0,0
35590,-100,4,2,0,70,0,0
40861,-100,4,3,0,70,0,0
42178,-100,4,2,0,70,0,0
42482,-100,4,3,0,70,0,0
43800,-100,4,2,0,70,0,0
44712,-100,4,3,0,70,0,0
45421,-100,4,2,0,70,0,0
47347,-100,4,3,0,70,0,0
48665,-100,4,2,0,70,0,0
52212,-100,4,3,0,70,0,0
53023,-100,4,2,0,70,0,0
53530,-100,4,3,0,70,0,0
55151,-100,4,2,0,70,0,0
56063,-100,4,3,0,70,0,0
58394,-100,4,2,0,70,0,0
58698,-100,4,3,0,70,0,0
59104,-100,4,2,0,70,0,0
60016,-100,4,3,0,70,0,0
61638,-100,4,2,0,70,0,0
62043,-100,4,3,0,70,0,0
62144,-100,4,2,0,70,0,0
62550,-100,4,3,0,70,0,0
63259,-100,4,2,0,70,0,0
64070,-100,4,3,0,70,0,0
64881,-100,4,2,0,70,0,0
66502,-100,4,3,0,70,0,0
67313,-100,4,2,0,70,0,0
67415,-100,4,3,0,70,0,0
68124,-100,4,2,0,70,0,0
68935,-100,4,3,0,70,0,0
71367,-100,4,2,0,70,0,0
74205,-100,4,3,0,70,0,0
74611,-100,4,2,0,70,0,0
75016,-100,4,3,0,70,0,0
75117,-100,4,2,0,70,0,0
75523,-100,4,3,0,70,0,0
76232,-100,4,2,0,70,0,0
77043,-100,4,3,0,70,0,0
77854,-100,4,2,0,70,0,1
78158,-100,4,3,0,70,0,1
79070,-100,4,2,0,70,0,1
79780,-100,4,3,0,70,0,1
81097,-100,4,2,0,70,0,1
82719,-100,4,3,0,70,0,0
82854,-100,4,3,0,60,0,0
82989,-100,4,3,0,50,0,0
83124,-100,4,2,0,70,0,0
83530,-100,4,3,0,50,0,0
84340,-100,4,2,0,70,0,0

[Colours]
Combo1 : 75,70,175
Combo2 : 255,255,255
Combo3 : 255,128,0

[HitObjects]
76,68,6503,1,4,0:0:0:0:
152,132,6705,1,0,0:0:0:0:
200,144,6807,1,0,0:0:0:0:
244,124,6908,1,0,0:0:0:0:
304,44,7111,2,0,B|328:96|384:112,1,100
436,188,7516,2,0,B|400:296,1,100
304,296,7921,1,0,0:0:0:0:
304,296,8023,1,0,0:0:0:0:
304,296,8124,6,0,B|192:308|136:260,1,150,4|0,0:0|0:0,0:0:0:0:
108,264,8530,2,0,B|76:164,1,100,0|0,0:0|0:0,0:0:0:0:
92,68,8935,1,0,0:0:0:0:
184,104,9138,1,0,0:0:0:0:
276,64,9340,1,0,0:0:0:0:
328,68,9442,1,0,0:0:0:0:
360,108,9543,1,0,0:0:0:0:
356,156,9644,1,0,0:0:0:0:
328,200,9746,6,0,B|280:260|176:244,1,150,4|0,0:0|0:0,0:0:0:0:
144,244,10151,2,0,B|128:356,1,100
232,336,10557,2,0,B|344:336,1,100
432,320,10962,1,0,0:0:0:0:
452,220,11165,1,0,0:0:0:0:
372,160,11367,5,0,0:0:0:0:
340,120,11469,1,0,0:0:0:0:
292,108,11570,1,0,0:0:0:0:
244,120,11671,1,0,0:0:0:0:
216,160,11773,1,0,0:0:0:0:
296,220,11975,1,0,0:0:0:0:
272,264,12077,1,0,0:0:0:0:
232,292,12178,6,0,L|180:292,3,50,2|2|0|2,0:0|0:0|0:0|0:0,0:0:0:0:
132,284,12584,2,0,L|80:244,3,50,2|0|2|0,0:0|0:0|0:0|0:0,0:0:0:0:
64,212,12989,6,0,B|40:132|96:48,1,150,4|0,0:0|0:0,0:0:0:0:
83,67,13394,1,0,0:0:0:0:
180,100,13597,1,0,0:0:0:0:
268,52,13800,2,0,P|341:70|376:140,2,150,2|0|0,0:0|0:0|0:0,0:0:0:0:
280,152,14611,1,2,0:0:0:0:
320,244,14813,1,0,0:0:0:0:
276,272,14915,1,0,0:0:0:0:
228,268,15016,1,0,0:0:0:0:
132,244,15219,2,0,B|80:180|108:96,1,150
124,56,15624,1,0,0:0:0:0:
224,76,15827,1,0,0:0:0:0:
224,76,15928,1,0,0:0:0:0:
224,76,16030,1,0,0:0:0:0:
224,76,16131,1,0,0:0:0:0:
224,76,16232,6,0,B|396:76,1,150,2|0,0:0|0:0,0:0:0:0:
424,76,16638,1,0,0:0:0:0:
424,176,16840,1,0,0:0:0:0:
384,268,17043,2,0,B|344:348|256:336,2,150,2|0|0,0:0|0:0|0:0,0:0:0:0:
288,244,17854,2,0,P|204:256|148:324,1,150,2|0,0:0|0:0,0:0:0:0:
159,299,18259,1,0,0:0:0:0:
96,224,18462,1,0,0:0:0:0:
148,136,18665,2,0,B|108:100,2,50,2|0|0,0:0|0:0|0:0,0:0:0:0:
236,92,19070,1,0,0:0:0:0:
328,136,19273,1,0,0:0:0:0:
328,136,19374,1,0,0:0:0:0:
328,136,19475,6,0,B|416:148|428:248,2,150,2|0|0,0:0|0:0|0:0,0:0:0:0:
320,236,20286,2,0,B|233:226|221:138,2,150,2|0|0,0:0|0:0|0:0,0:0:0:0:
328,136,21097,1,2,0:0:0:0:
400,68,21300,1,0,0:0:0:0:
436,104,21401,1,0,0:0:0:0:
444,152,21502,1,0,0:0:0:0:
432,252,21705,2,0,B|364:280|280:252,1,150
236,240,22111,1,0,0:0:0:0:
160,176,22313,1,0,0:0:0:0:
188,136,22415,1,0,0:0:0:0:
236,124,22516,1,0,0:0:0:0:
284,136,22617,1,0,0:0:0:0:
308,180,22719,5,4,0:0:0:0:
152,40,23023,1,0,0:0:0:0:
32,212,23327,1,0,0:0:0:0:
44,72,23530,5,4,0:0:0:0:
232,164,23834,1,0,0:0:0:0:
108,332,24138,1,0,0:0:0:0:
136,196,24340,5,4,0:0:0:0:
232,164,24543,1,0,0:0:0:0:
276,144,24644,1,0,0:0:0:0:
328,144,24746,1,0,0:0:0:0:
428,156,24948,2,0,B|432:244|368:312,1,150
344,328,25354,1,0,0:0:0:0:
244,340,25557,1,0,0:0:0:0:
196,324,25658,1,0,0:0:0:0:
172,280,25759,1,0,0:0:0:0:
184,232,25861,1,0,0:0:0:0:
228,208,25962,6,0,B|304:184|348:100,2,150,4|0|0,0:0|0:0|0:0,0:0:0:0:
140,128,26773,2,0,B|68:144|44:236,2,150,2|0|0,0:0|0:0|0:0,0:0:0:0:
256,92,27584,5,0,0:0:0:0:
436,192,27888,1,0,0:0:0:0:
256,300,28192,1,0,0:0:0:0:
48,324,28496,2,0,L|52:220,1,100
56,172,28800,1,0,0:0:0:0:
140,116,29002,1,0,0:0:0:0:
192,200,29205,6,0,B|216:276|316:280,1,150,2|0,0:0|0:0,0:0:0:0:
356,280,29611,1,0,0:0:0:0:
436,224,29813,2,0,B|440:152|384:84,1,150
348,56,30219,2,0,B|240:92,1,100
156,116,30624,1,0,0:0:0:0:
108,128,30725,1,0,0:0:0:0:
60,140,30827,5,0,0:0:0:0:
268,176,31131,1,0,0:0:0:0:
116,320,31435,1,0,0:0:0:0:
324,316,31739,2,0,B|380:304|404:240,1,100,8|0,0:2|0:0,0:0:0:0:
444,232,32043,2,0,B|411:186|423:134,1,100,8|8,0:2|0:2,0:0:0:0:
328,72,32448,6,0,B|260:112|160:80,2,150,2|0|0,0:0|0:0|0:0,0:0:0:0:
428,80,33259,2,0,B|484:132|492:224,2,150,2|0|0,0:0|0:0|0:0,0:0:0:0:
352,144,34070,5,4,0:0:0:0:
444,332,34374,1,0,0:0:0:0:
240,288,34678,1,0,0:0:0:0:
96,136,34982,2,0,B|132:172|200:168,1,100,2|0,0:2|0:0,0:0:0:0:
236,172,35286,2,0,B|280:188|320:248,1,100,2|2,0:2|0:2,0:0:0:0:
468,192,35692,5,4,0:0:0:0:
256,80,35996,1,2,3:2:0:0:
44,192,36300,1,2,3:2:0:0:
136,320,36502,5,4,0:0:0:0:
376,320,36807,1,2,3:2:0:0:
256,112,37111,1,2,3:2:0:0:
256,272,37313,5,4,0:0:0:0:
204,260,37415,1,0,0:0:0:0:
180,216,37516,1,0,0:0:0:0:
180,168,37617,1,0,0:0:0:0:
204,124,37719,1,2,0:0:0:0:
256,112,37820,1,0,0:0:0:0:
308,124,37921,1,0,0:0:0:0:
332,168,38023,1,0,0:0:0:0:
332,216,38124,6,0,B|404:276,3,50,2|0|0|0,0:0|0:0|0:0|0:0,0:0:0:0:
392,292,38530,2,0,B|364:344,3,50
320,344,38935,6,0,B|232:352|168:316,2,150,4|0|0,0:0|0:0|0:0,0:0:0:0:
260,264,39746,2,0,B|200:212|196:132,2,150,2|0|0,0:0|0:0|0:0,0:0:0:0:
360,264,40557,2,0,B|420:212|424:132,1,150,2|0,0:0|0:0,0:0:0:0:
404,88,40962,2,0,B|300:112,1,100
172,44,41469,1,0,0:0:0:0:
172,44,41570,2,0,B|160:144,1,100
156,192,41874,1,0,0:0:0:0:
172,240,41975,1,0,0:0:0:0:
220,260,42077,1,0,0:0:0:0:
268,252,42178,6,0,B|352:268|392:328,1,150,2|0,0:0|0:0,0:0:0:0:
444,324,42584,2,0,B|492:220,1,100,0|2,0:0|3:2,0:0:0:0:
416,100,43090,1,0,0:0:0:0:
416,100,43192,2,0,B|304:100,2,100
364,184,43800,2,0,B|208:184,2,150,2|0|0,0:0|0:0|0:0,0:0:0:0:
328,276,44611,1,2,0:0:0:0:
328,276,44712,2,0,B|172:304,1,150
84,284,45219,1,0,0:0:0:0:
96,236,45320,1,0,0:0:0:0:
112,188,45421,6,0,B|152:112|244:92,2,150,2|0|0,0:0|0:0|0:0,0:0:0:0:
212,204,46232,2,0,B|368:204,2,150,2|0|0,0:0|0:0|0:0,0:0:0:0:
208,304,47043,2,0,B|384:304,1,150,2|0,0:0|0:0,0:0:0:0:
408,304,47448,1,0,0:0:0:0:
468,224,47651,1,0,0:0:0:0:
468,124,47854,1,0,0:0:0:0:
420,104,47955,1,0,0:0:0:0:
376,104,48057,2,0,B|256:104,1,100
224,104,48361,1,0,0:0:0:0:
176,104,48462,1,0,0:0:0:0:
128,104,48563,1,0,0:0:0:0:
76,104,48665,5,6,0:0:0:0:
256,212,48969,1,2,0:0:0:0:
72,316,49273,1,2,0:0:0:0:
212,324,49475,5,6,0:0:0:0:
424,324,49780,1,2,0:0:0:0:
344,128,50084,1,2,0:0:0:0:
188,152,50286,5,6,0:0:0:0:
412,60,50590,1,2,0:0:0:0:
360,292,50894,1,2,0:0:0:0:
240,184,51097,5,6,0:0:0:0:
76,360,51401,1,2,0:0:0:0:
128,124,51705,1,2,0:0:0:0:
268,140,51908,5,4,0:0:0:0:
356,96,52111,1,0,0:0:0:0:
356,96,52212,1,0,0:0:0:0:
356,96,52313,1,0,0:0:0:0:
440,148,52516,2,0,B|464:264|368:324,1,200
352,224,53124,2,0,B|312:200|240:208,1,100,2|0,0:0|0:0,0:0:0:0:
192,128,53530,2,0,B|124:180|148:280,2,150
340,100,54442,1,0,0:0:0:0:
340,100,54543,1,0,0:0:0:0:
420,160,54746,1,0,0:0:0:0:
388,196,54847,1,0,0:0:0:0:
340,204,54948,1,0,0:0:0:0:
292,196,55050,1,0,0:0:0:0:
256,160,55151,6,0,B|184:172|152:284,2,150,2|0|2,0:0|0:0|0:0,0:0:0:0:
132,76,56063,1,0,0:0:0:0:
132,76,56165,2,0,B|240:76,1,100
332,76,56570,1,0,0:0:0:0:
380,76,56671,1,0,0:0:0:0:
432,76,56773,2,0,B|504:140|464:236,2,150,0|0|0,0:0|0:0|0:0,0:0:0:0:
384,164,57584,1,0,0:0:0:0:
392,212,57685,1,0,0:0:0:0:
360,252,57786,2,0,B|320:292|268:256,1,100
168,272,58192,1,0,0:0:0:0:
140,232,58293,1,0,0:0:0:0:
132,184,58394,6,0,B|148:96|248:92,1,150,4|0,0:0|0:0,0:0:0:0:
235,92,58800,1,0,0:0:0:0:
320,148,59002,1,0,0:0:0:0:
232,196,59205,2,0,B|284:352,2,150,2|0|0,0:0|0:0|0:0,0:0:0:0:
304,124,60016,2,0,B|380:124|428:204,1,150
428,248,60421,1,0,0:0:0:0:
484,332,60624,2,0,B|408:356|320:332,1,150
288,324,61030,1,0,0:0:0:0:
204,268,61232,1,0,0:0:0:0:
152,264,61334,1,0,0:0:0:0:
120,228,61435,1,0,0:0:0:0:
116,180,61536,1,0,0:0:0:0:
136,132,61638,6,0,B|216:72|336:76,1,200,4|0,0:0|0:0,0:0:0:0:
324,75,62246,1,4,0:0:0:0:
444,236,62651,1,0,0:0:0:0:
344,220,62854,2,0,B|324:264,7,25
324,268,63259,5,4,0:0:0:0:
120,320,63563,1,4,0:0:0:0:
136,112,63867,1,4,0:0:0:0:
84,196,64070,5,0,0:0:0:0:
124,224,64171,2,0,P|156:264|220:276,1,100
252,280,64475,1,0,0:0:0:0:
300,268,64577,1,0,0:0:0:0:
340,240,64678,1,0,0:0:0:0:
352,192,64780,1,0,0:0:0:0:
336,144,64881,6,0,B|296:80|196:80,2,150,4|0|0,0:0|0:0|0:0,0:0:0:0:
240,172,65692,2,0,B|220:256|152:288,2,150,2|0|0,0:0|0:0|0:0,0:0:0:0:
312,240,66502,1,0,0:0:0:0:
372,320,66705,1,0,0:0:0:0:
420,304,66807,1,0,0:0:0:0:
424,256,66908,1,0,0:0:0:0:
440,156,67111,2,0,B|372:116|292:144,1,150
252,164,67516,1,0,0:0:0:0:
276,260,67719,1,0,0:0:0:0:
228,260,67820,1,0,0:0:0:0:
180,240,67921,1,0,0:0:0:0:
164,192,68023,1,0,0:0:0:0:
120,168,68124,6,0,B|40:188|24:280,2,150,2|0|2,0:0|0:0|0:0,0:0:0:0:
44,104,68935,1,0,0:0:0:0:
40,56,69036,1,0,0:0:0:0:
84,32,69138,2,0,B|220:32,1,100
256,100,69543,1,0,0:0:0:0:
300,128,69644,1,0,0:0:0:0:
348,112,69746,2,0,B|436:140|432:232,1,150
432,272,70151,1,0,0:0:0:0:
344,320,70354,2,0,P|264:308|244:228,1,150,2|0,2:0|0:0,0:0:0:0:
239,250,70759,1,0,0:0:0:0:
140,272,70962,1,0,0:0:0:0:
72,200,71165,1,0,0:0:0:0:
72,200,71266,1,0,0:0:0:0:
72,200,71367,6,0,B|96:132,3,50,4|0|0|0,0:0|0:0|0:0|0:0,0:0:0:0:
108,108,71773,2,0,B|184:108,3,50,2|0|0|0,0:0|0:0|0:0|0:0,0:0:0:0:
196,140,72178,2,0,B|260:140,3,50,2|0|0|0,0:0|0:0|0:0|0:0,0:0:0:0:
280,104,72584,2,0,B|336:104,3,50,2|0|0|0,0:0|0:0|0:0|0:0,0:0:0:0:
380,104,72989,5,2,0:0:0:0:
424,128,73090,1,0,0:0:0:0:
436,176,73192,1,0,0:0:0:0:
428,224,73293,1,0,0:0:0:0:
400,264,73394,1,2,0:0:0:0:
356,284,73496,1,0,0:0:0:0:
308,292,73597,1,0,0:0:0:0:
260,284,73698,1,0,0:0:0:0:
216,256,73800,1,2,0:0:0:0:
196,208,73901,1,0,0:0:0:0:
188,160,74002,1,0,0:0:0:0:
212,116,74104,1,0,0:0:0:0:
256,92,74205,2,0,B|304:136,3,50
332,160,74611,5,4,0:0:0:0:
76,48,75016,1,0,0:0:0:0:
216,48,75219,1,4,0:0:0:0:
144,320,75624,1,0,0:0:0:0:
92,192,75827,2,0,B|132:192,7,25
144,192,76232,5,4,0:0:0:0:
384,192,76536,1,4,0:0:0:0:
144,192,76840,1,4,0:0:0:0:
144,80,77043,5,0,0:0:0:0:
192,80,77144,2,0,P|248:88|288:140,1,100
284,168,77448,1,0,0:0:0:0:
284,224,77550,1,0,0:0:0:0:
256,264,77651,1,0,0:0:0:0:
216,292,77752,1,0,0:0:0:0:
168,300,77854,6,0,B|104:296|80:232,1,100,4|0,0:0|0:0,0:0:0:0:
44,220,78158,1,0,0:0:0:0:
44,172,78259,1,0,0:0:0:0:
144,168,78462,1,0,0:0:0:0:
168,72,78665,1,0,0:0:0:0:
216,60,78766,1,0,0:0:0:0:
264,52,78867,1,0,0:0:0:0:
372,92,79070,2,0,B|400:152,3,50,0|2|0|2,0:0|0:0|0:0|0:0,0:0:0:0:
408,184,79475,6,0,B|408:268|328:304,1,150,4|0,0:0|0:0,0:0:0:0:
331,302,79881,1,0,0:0:0:0:
240,260,80084,1,0,0:0:0:0:
188,344,80286,1,0,0:0:0:0:
140,344,80388,1,0,0:0:0:0:
92,344,80489,2,0,B|56:308|80:248,1,100
88,200,80793,1,0,0:0:0:0:
124,164,80894,1,0,0:0:0:0:
172,156,80996,1,0,0:0:0:0:
220,172,81097,1,4,0:0:0:0:
256,192,81198,12,0,82313,0:0:0:0:
256,344,82719,5,0,0:0:0:0:
256,344,82854,1,0,0:0:0:0:
256,344,82989,1,0,0:0:0:0:
256,344,83124,1,8,0:0:0:0:
256,36,83530,6,0,B|256:68,15,25
256,92,84340,5,4,0:0:0:0:
