osu file format v12

[General]
AudioFilename: Theme of Taskmaster.mp3
AudioLeadIn: 0
PreviewTime: 38935
Countdown: 1
SampleSet: Soft
StackLeniency: 0.5
Mode: 0
LetterboxInBreaks: 0

[Editor]
DistanceSpacing: 1.1
BeatDivisor: 4
GridSize: 4

[Metadata]
Title:Theme of Taskmaster
TitleUnicode:Theme of Taskmaster
Artist:Hideyuki Fukasawa
ArtistUnicode:深澤 秀行
Creator:Roddie
Version:Hard
Source:Marvel vs. Capcom 3: Fate of Two Worlds
Tags:ultimate umvc3 mvc3 mvc tony masters playstaion ps3 xbox 360 taiko
BeatmapID:185860
BeatmapSetID:62720

[Difficulty]
HPDrainRate:6
CircleSize:4
OverallDifficulty:6
ApproachRate:7
SliderMultiplier:1.7
SliderTickRate:1

[Events]
//Background and Video events
0,0,"Taxmaster.jpg",0,0
//Break Periods
//Storyboard Layer 0 (Background)
//Storyboard Layer 1 (Fail)
//Storyboard Layer 2 (Pass)
//Storyboard Layer 3 (Foreground)
//Storyboard Sound Samples
//Background Colour Transformations
3,100,163,162,255

[TimingPoints]
6503,405.405405405405,4,2,0,70,1,0
6807,-100,4,3,0,70,0,0
7009,-100,4,2,0,70,0,0
7516,-100,4,3,0,70,0,0
7719,-100,4,2,0,70,0,0
8428,-100,4,3,0,70,0,0
8631,-100,4,2,0,70,0,0
9138,-100,4,3,0,70,0,0
9746,-100,4,2,0,70,0,0
10050,-100,4,3,0,70,0,0
10354,-100,4,2,0,70,0,0
10759,-100,4,3,0,70,0,0
10861,-100,4,2,0,70,0,0
11367,-100,4,3,0,70,0,0
12178,-100,4,2,0,70,0,0
15624,-100,4,3,0,70,0,0
16232,-100,4,2,0,70,0,0
16536,-100,4,3,0,70,0,0
17043,-100,4,2,0,70,0,0
18969,-100,4,3,0,70,0,0
19475,-100,4,2,0,70,0,0
19881,-100,4,3,0,70,0,0
20590,-100,4,2,0,70,0,0
22111,-100,4,3,0,70,0,0
22719,-100,4,2,0,70,0,0
22921,-100,4,3,0,70,0,0
23428,-100,4,2,0,70,0,0
23631,-100,4,3,0,70,0,0
24239,-100,4,2,0,70,0,0
24442,-100,4,3,0,70,0,0
25962,-100,4,2,0,70,0,0
27482,-100,4,3,0,70,0,0
29205,-100,4,2,0,70,0,0
29611,-100,4,3,0,70,0,0
32448,-100,4,2,0,70,0,0
34171,-100,4,3,0,70,0,0
35590,-100,4,2,0,70,0,0
40861,-100,4,3,0,70,0,0
42178,-100,4,2,0,70,0,0
42482,-100,4,3,0,70,0,0
42989,-100,4,2,0,70,0,0
45016,-100,4,3,0,70,0,0
45421,-100,4,2,0,70,0,0
47347,-100,4,3,0,70,0,0
48665,-100,4,2,0,70,0,0
52212,-100,4,3,0,70,0,0
53124,-100,4,2,0,70,0,0
53530,-100,4,3,0,70,0,0
55151,-100,4,2,0,70,0,0
56063,-100,4,3,0,70,0,0
58394,-100,4,2,0,70,0,0
60016,-100,4,3,0,70,0,0
61638,-100,4,2,0,70,0,0
62043,-100,4,3,0,70,0,0
62144,-100,4,2,0,70,0,0
62550,-100,4,3,0,70,0,0
63259,-100,4,2,0,70,0,0
64070,-100,4,3,0,70,0,0
64881,-100,4,2,0,70,0,0
66502,-100,4,3,0,70,0,0
68124,-100,4,2,0,70,0,0
69036,-100,4,3,0,70,0,0
71367,-100,4,2,0,70,0,0
74205,-100,4,3,0,70,0,0
74611,-100,4,2,0,70,0,0
75016,-100,4,3,0,70,0,0
75117,-100,4,2,0,70,0,0
75523,-100,4,3,0,70,0,0
76232,-100,4,2,0,70,0,0
77043,-100,4,3,0,70,0,0
77854,-100,4,2,0,70,0,1
78158,-100,4,3,0,70,0,1
79070,-100,4,2,0,70,0,1
79881,-100,4,3,0,70,0,1
81097,-100,4,2,0,70,0,1
82719,-100,4,3,0,70,0,0
82854,-100,4,3,0,60,0,0
82989,-100,4,3,0,50,0,0
83124,-100,4,2,0,70,0,0
83530,-100,4,3,0,50,0,0
84340,-100,4,2,0,70,0,0

[Colours]
Combo1 : 75,70,175
Combo2 : 255,255,255
Combo3 : 255,128,0

[HitObjects]
420,144,6503,1,4,0:0:0:0:
356,212,6705,2,0,B|356:264,2,42.5
284,152,7111,2,0,B|196:132|112:200,1,170
76,272,7719,1,0,0:0:0:0:
216,320,8124,6,0,B|408:320,1,170,4|0,0:0|0:0,0:0:0:0:
480,320,8732,1,0,0:0:0:0:
404,148,9138,1,0,0:0:0:0:
328,92,9340,2,0,B|280:100,3,42.5
240,84,9746,6,0,B|156:60|64:100,1,170,4|0,0:0|0:0,0:0:0:0:
64,192,10354,2,0,B|112:356,1,170
204,340,10962,1,0,0:0:0:0:
256,260,11165,1,0,0:0:0:0:
316,332,11367,6,0,P|392:336|452:268,1,170
496,188,11975,1,0,0:0:0:0:
484,96,12178,2,0,L|448:48,3,42.5,2|2|0|0,0:0|0:0|0:0|0:0,0:0:0:0:
420,36,12584,2,0,L|368:60,3,42.5,2|0|2|0,0:0|0:0|0:0|0:0,0:0:0:0:
340,80,12989,6,0,P|356:148|328:204,2,127.5,4|0|0,0:0|0:0|0:0,0:0:0:0:
264,136,13800,2,0,P|204:112|140:140,2,127.5,2|0|0,0:0|0:0|0:0,0:0:0:0:
204,208,14611,2,0,B|168:276|216:336,2,127.5,2|0|0,0:0|0:0|0:0,0:0:0:0:
276,268,15421,1,2,0:0:0:0:
340,200,15624,1,0,0:0:0:0:
352,116,15827,2,0,B|316:92,3,42.5
272,80,16232,6,0,P|200:104|100:76,1,170,2|0,0:0|0:0,0:0:0:0:
64,164,16840,1,0,0:0:0:0:
128,232,17043,2,0,B|108:300|32:324,2,127.5,2|0|0,0:0|0:0|0:0,0:0:0:0:
220,208,17854,2,0,B|352:208,2,127.5,2|0|0,0:0|0:0|0:0,0:0:0:0:
232,116,18665,1,2,0:0:0:0:
304,60,18867,2,0,L|400:60,1,85
464,116,19273,1,0,0:0:0:0:
464,116,19374,1,0,0:0:0:0:
464,116,19475,6,0,L|380:284,1,170,2|0,0:0|0:0,0:0:0:0:
340,352,20084,2,0,P|256:344|212:276,1,170
300,240,20692,1,2,0:0:0:0:
220,188,20894,1,0,0:0:0:0:
224,96,21097,2,0,B|288:68|368:104,2,127.5,2|0|0,0:0|0:0|0:0,0:0:0:0:
144,48,21908,2,0,B|108:80|100:136,1,85,2|0,0:0|0:0,0:0:0:0:
112,212,22313,2,0,B|96:264,3,42.5
112,300,22719,6,0,B|168:332|248:300,2,127.5,4|0|0,0:0|0:0|0:0,0:0:0:0:
176,232,23530,2,0,B|240:208|304:232,2,127.5,4|0|0,0:0|0:0|0:0,0:0:0:0:
176,232,24340,1,4,0:0:0:0:
104,172,24543,6,0,B|60:204,2,42.5
156,92,24948,1,0,0:0:0:0:
244,64,25151,2,0,B|284:144,1,85
364,184,25557,2,0,B|392:140,3,42.5
412,108,25962,6,0,B|468:88|504:20,2,127.5,4|0|0,0:0|0:0|0:0,0:0:0:0:
324,84,26773,2,0,B|264:120|264:192,2,127.5,2|0|0,0:0|0:0|0:0,0:0:0:0:
240,40,27584,6,0,B|104:40,2,127.5
208,128,28394,2,0,B|184:168,2,42.5
272,196,28800,1,0,0:0:0:0:
364,208,29002,1,0,0:0:0:0:
364,208,29104,1,0,0:0:0:0:
364,208,29205,6,0,P|392:284|312:328,1,170,2|0,0:0|0:0,0:0:0:0:
240,300,29813,1,0,0:0:0:0:
152,264,30016,2,0,B|136:324,2,42.5
124,176,30421,2,0,B|164:144,3,42.5
204,148,30827,6,0,B|264:116|328:148,1,127.5
264,272,31435,2,0,B|324:304|392:268,2,127.5,0|8|8,0:0|0:2|0:2,0:0:0:0:
264,272,32246,1,8,0:2:0:0:
176,192,32448,6,0,B|44:192,2,127.5,2|0|0,0:0|0:0|0:0,0:0:0:0:
244,128,33259,2,0,B|380:128,2,127.5,2|0|0,0:0|0:0|0:0,0:0:0:0:
184,56,34070,6,0,B|120:32|56:76,1,127.5,4|0,0:0|0:0,0:0:0:0:
136,192,34678,2,0,B|136:268|76:304,2,127.5,0|2|2,0:0|0:2|0:2,0:0:0:0:
136,192,35489,1,2,0:2:0:0:
256,184,35692,6,0,B|320:160|324:76,2,127.5,4|2|2,0:0|3:2|3:2,0:0:0:0:
232,300,36502,2,0,B|296:328|368:276,2,127.5,4|2|2,0:0|3:2|3:2,0:0:0:0:
116,332,37313,6,0,B|100:280,3,42.5,4|0|0|0,0:0|0:0|0:0|0:0,0:0:0:0:
120,248,37719,2,0,B|148:216,3,42.5,2|0|0|0,0:0|0:0|0:0|0:0,0:0:0:0:
124,176,38124,2,0,B|108:124,3,42.5,2|0|0|0,0:0|0:0|0:0|0:0,0:0:0:0:
108,88,38530,2,0,B|156:76,3,42.5
196,72,38935,6,0,B|224:144|296:136,2,127.5,4|0|0,0:0|0:0|0:0,0:0:0:0:
284,44,39746,2,0,P|348:56|384:120,2,127.5,2|0|0,0:0|0:0|0:0,0:0:0:0:
196,72,40557,1,2,0:0:0:0:
152,156,40759,2,0,B|96:168,2,42.5
236,196,41165,1,0,0:0:0:0:
312,140,41367,2,0,B|368:152,2,42.5
316,236,41773,2,0,B|300:280,3,42.5
280,316,42178,6,0,B|196:340|124:272,1,170,2|0,0:0|0:0,0:0:0:0:
84,188,42786,1,2,0:2:0:0:
132,108,42989,2,0,B|180:160|260:132,2,127.5,2|0|0,0:0|0:0|0:0,0:0:0:0:
208,52,43800,2,0,B|280:32|336:92,2,127.5,2|0|0,0:0|0:0|0:0,0:0:0:0:
132,108,44611,1,2,0:0:0:0:
304,180,45016,1,0,0:0:0:0:
292,272,45219,1,0,0:0:0:0:
200,252,45421,6,0,B|136:292|68:232,2,127.5,2|0|0,0:0|0:0|0:0,0:0:0:0:
148,172,46232,2,0,B|88:136|112:48,2,127.5,2|0|0,0:0|0:0|0:0,0:0:0:0:
204,96,47043,1,2,0:0:0:0:
292,128,47246,2,0,L|308:192,2,42.5
368,68,47651,1,0,0:0:0:0:
416,148,47854,1,0,0:0:0:0:
416,148,47955,1,0,0:0:0:0:
416,148,48057,1,0,0:0:0:0:
356,220,48259,2,0,B|288:232,3,42.5
268,240,48665,6,0,B|212:284|144:280,2,127.5,4|2|2,0:0|0:0|0:0,0:0:0:0:
284,124,49475,2,0,B|340:80|408:84,2,127.5,4|2|2,0:0|0:0|0:0,0:0:0:0:
168,192,50286,6,0,B|136:136|156:56,2,127.5,4|2|2,0:0|0:0|0:0,0:0:0:0:
304,192,51097,2,0,B|336:248|316:328,2,127.5,4|2|2,0:0|0:0|0:0,0:0:0:0:
196,276,51908,5,4,0:0:0:0:
104,284,52111,2,0,B|64:316,2,42.5
132,196,52516,2,0,B|180:156|200:72,1,127.5
232,60,52921,2,0,B|340:76,1,85
408,84,53327,1,0,0:0:0:0:
372,172,53530,6,0,B|328:224|344:300,1,127.5
304,316,53935,2,0,B|184:332,1,85
132,288,54340,2,0,B|100:320,2,42.5
124,196,54746,2,0,B|176:180,3,42.5
204,156,55151,6,0,B|352:156,1,127.5,2|0,0:0|0:0,0:0:0:0:
228,64,55759,2,0,B|148:64|116:132,1,127.5,2|0,0:0|0:0,0:0:0:0:
76,132,56165,2,0,B|36:148|32:220,1,85
92,276,56570,1,0,0:0:0:0:
172,228,56773,6,0,B|216:288|288:292,2,127.5
260,196,57584,1,0,0:0:0:0:
260,196,57685,1,0,0:0:0:0:
260,196,57786,1,0,0:0:0:0:
212,116,57989,1,0,0:0:0:0:
304,92,58192,1,0,0:0:0:0:
372,28,58394,6,0,B|456:44|472:120,2,127.5,4|0|0,0:0|0:0|0:0,0:0:0:0:
380,120,59205,2,0,B|336:188|260:160,2,127.5,2|0|0,0:0|0:0|0:0,0:0:0:0:
292,84,60016,2,0,B|224:56|168:100,1,127.5
180,144,60421,2,0,B|196:240,1,85
264,288,60827,2,0,B|240:340,2,42.5
356,292,61232,2,0,B|404:280,3,42.5
440,260,61638,6,0,B|432:168|348:120,1,170,4|0,0:0|0:0,0:0:0:0:
288,192,62246,1,4,0:0:0:0:
112,124,62651,1,0,0:0:0:0:
76,212,62854,2,0,B|84:264,3,42.5
88,300,63259,6,0,B|144:328|216:300,2,127.5,4|4|4,0:0|0:0|0:0,0:0:0:0:
152,232,64070,2,0,B|184:188,2,42.5
68,192,64475,1,0,0:0:0:0:
60,100,64678,1,0,0:0:0:0:
136,48,64881,6,0,B|196:24|272:48,2,127.5,4|0|0,0:0|0:0|0:0,0:0:0:0:
196,120,65692,2,0,B|228:180|292:200,2,127.5,2|0|0,0:0|0:0|0:0,0:0:0:0:
288,104,66502,2,0,B|356:88|408:152,1,127.5
416,188,66908,2,0,B|420:292,1,85
324,268,67313,2,0,B|336:320,2,42.5
232,248,67719,2,0,B|176:248,3,42.5
144,248,68124,6,0,B|76:244|48:164,1,127.5,2|0,0:0|0:0,0:0:0:0:
168,96,68732,2,0,B|224:128|300:128,1,127.5,2|0,0:0|0:0,0:0:0:0:
336,128,69138,2,0,B|356:220,1,85
364,304,69543,1,0,0:0:0:0:
276,276,69746,6,0,B|232:328|144:320,2,127.5
192,236,70557,1,0,0:0:0:0:
192,236,70658,1,0,0:0:0:0:
192,236,70759,1,0,0:0:0:0:
268,184,70962,1,0,0:0:0:0:
288,92,71165,1,0,0:0:0:0:
204,48,71367,6,0,B|160:72|112:48,1,85,4|0,0:0|0:0,0:0:0:0:
48,148,71773,2,0,B|36:192|72:240,1,85,2|0,0:0|0:0,0:0:0:0:
148,144,72178,2,0,B|192:132|240:160,1,85,2|0,0:0|0:0,0:0:0:0:
172,260,72584,2,0,B|216:288|272:264,1,85,2|0,0:0|0:0,0:0:0:0:
348,196,72989,2,0,B|348:244|392:272,1,85,2|0,0:0|0:0,0:0:0:0:
432,156,73394,2,0,B|416:120|364:104,1,85,2|0,0:0|0:0,0:0:0:0:
260,164,73800,2,0,B|248:212|276:248,1,85,2|0,0:0|0:0,0:0:0:0:
160,284,74205,2,0,B|160:232,3,42.5
124,208,74611,6,0,B|60:148|112:44,1,170,4|0,0:0|0:0,0:0:0:0:
108,51,75219,1,4,0:0:0:0:
292,80,75624,1,0,0:0:0:0:
368,136,75827,2,0,B|420:144,3,42.5
456,152,76232,6,0,B|480:224|440:280,2,127.5,4|4|4,0:0|0:0|0:0,0:0:0:0:
428,64,77043,2,0,B|384:56,2,42.5
368,136,77448,2,0,B|348:176|292:184,1,85
284,92,77854,5,4,0:0:0:0:
196,120,78057,2,0,B|204:172,2,42.5
104,124,78462,2,0,B|48:196|80:304,1,170
168,300,79070,2,0,B|232:304,3,42.5,0|2|0|2,0:0|0:0|0:0|0:0,0:0:0:0:
256,304,79475,6,0,B|352:300|392:212,1,170,4|0,0:0|0:0,0:0:0:0:
420,128,80084,1,0,0:0:0:0:
328,128,80286,1,0,0:0:0:0:
328,128,80388,1,0,0:0:0:0:
328,128,80489,1,0,0:0:0:0:
240,164,80692,2,0,B|204:200,4,42.5,0|0|0|0|4,0:0|0:0|0:0|0:0|0:0,0:0:0:0:
256,192,81198,12,0,82313,0:0:0:0:
256,116,82719,6,0,L|256:44,3,56.6666666666667,0|0|0|8,0:0|0:0|0:0|0:0,0:0:0:0:
256,324,83530,6,0,B|256:356,16,21.25,0|0|0|0|0|0|0|0|0|0|0|0|0|0|0|0|4,0:0|0:0|0:0|0:0|0:0|0:0|0:0|0:0|0:0|0:0|0:0|0:0|0:0|0:0|0:0|0:0|0:0,0:0:0:0:
