osu file format v12

[General]
AudioFilename: Theme of Taskmaster.mp3
AudioLeadIn: 0
PreviewTime: 38935
Countdown: 1
SampleSet: Soft
StackLeniency: 0.5
Mode: 0
LetterboxInBreaks: 0

[Editor]
DistanceSpacing: 0.8
BeatDivisor: 4
GridSize: 4

[Metadata]
Title:Theme of Taskmaster
TitleUnicode:Theme of Taskmaster
Artist:Hideyuki Fukasawa
ArtistUnicode:深澤 秀行
Creator:Roddie
Version:Easy
Source:Marvel vs. Capcom 3: Fate of Two Worlds
Tags:ultimate umvc3 mvc3 mvc tony masters playstaion ps3 xbox 360 taiko
BeatmapID:185861
BeatmapSetID:62720

[Difficulty]
HPDrainRate:2
CircleSize:2
OverallDifficulty:2
ApproachRate:3
SliderMultiplier:0.899999999999999
SliderTickRate:1

[Events]
//Background and Video events
0,0,"Taxmaster.jpg",0,0
//Break Periods
//Storyboard Layer 0 (Background)
//Storyboard Layer 1 (Fail)
//Storyboard Layer 2 (Pass)
//Storyboard Layer 3 (Foreground)
//Storyboard Sound Samples
//Background Colour Transformations
3,100,163,162,255

[TimingPoints]
6503,405.405405405405,4,2,0,70,1,0
6807,-100,4,3,0,70,0,0
7009,-100,4,2,0,70,0,0
8428,-100,4,3,0,70,0,0
8631,-100,4,2,0,70,0,0
9138,-100,4,3,0,70,0,0
9746,-100,4,2,0,70,0,0
10050,-100,4,3,0,70,0,0
10354,-100,4,2,0,70,0,0
16536,-100,4,3,0,70,0,0
17043,-100,4,2,0,70,0,0
19881,-100,4,3,0,70,0,0
19982,-100,4,2,0,70,0,0
21502,-100,4,3,0,70,0,0
21604,-100,4,2,0,70,0,0
22009,-100,4,3,0,70,0,0
22719,-100,4,2,0,70,0,0
22921,-100,4,3,0,70,0,0
23428,-100,4,2,0,70,0,0
23631,-100,4,3,0,70,0,0
24239,-100,4,2,0,70,0,0
24442,-100,4,3,0,70,0,0
25962,-100,4,2,0,70,0,0
27482,-100,4,3,0,70,0,0
27685,-100,4,2,0,70,0,0
28192,-100,4,3,0,70,0,0
28394,-100,4,2,0,70,0,0
28800,-100,4,3,0,70,0,0
28901,-100,4,2,0,70,0,0
29611,-100,4,3,0,70,0,0
29712,-100,4,2,0,70,0,0
30827,-100,4,3,0,70,0,0
30928,-100,4,2,0,70,0,0
31435,-100,4,3,0,70,0,0
31638,-100,4,2,0,70,0,0
32043,-100,4,3,0,70,0,0
32448,-100,4,2,0,70,0,0
32854,-100,4,3,0,70,0,0
32955,-100,4,2,0,70,0,0
39340,-100,4,3,0,70,0,0
39442,-100,4,2,0,70,0,0
42584,-100,4,3,0,70,0,0
42685,-100,4,2,0,70,0,0
45016,-100,4,3,0,70,0,0
45421,-100,4,2,0,70,0,0
45827,-100,4,3,0,70,0,0
45928,-100,4,2,0,70,0,0
47347,-100,4,3,0,70,0,0
47854,-100,4,2,0,70,0,0
48259,-100,4,3,0,70,0,0
48665,-100,4,2,0,70,0,0
52212,-100,4,3,0,70,0,0
52719,-100,4,2,0,70,0,0
53530,-100,4,3,0,70,0,0
55151,-100,4,2,0,70,0,0
55557,-100,4,3,0,70,0,0
55658,-100,4,2,0,70,0,0
56063,-100,4,3,0,70,0,0
58394,-100,4,2,0,70,0,0
58800,-100,4,3,0,70,0,0
58901,-100,4,2,0,70,0,0
60016,-100,4,3,0,70,0,0
61638,-100,4,2,0,70,0,0
62043,-100,4,3,0,70,0,0
62144,-100,4,2,0,70,0,0
62550,-100,4,3,0,70,0,0
63259,-100,4,2,0,70,0,0
64070,-100,4,3,0,70,0,0
64881,-100,4,2,0,70,0,0
65286,-100,4,3,0,70,0,0
65489,-100,4,2,0,70,0,0
66502,-100,4,3,0,70,0,0
67313,-100,4,2,0,70,0,0
67415,-100,4,3,0,70,0,0
68124,-100,4,2,0,70,0,0
68530,-100,4,3,0,70,0,0
68631,-100,4,2,0,70,0,0
69036,-100,4,3,0,70,0,0
71367,-100,4,2,0,70,0,0
74205,-100,4,3,0,70,0,0
74611,-100,4,2,0,70,0,0
75016,-100,4,3,0,70,0,0
75117,-100,4,2,0,70,0,0
75398,-100,4,2,0,70,0,0
75523,-100,4,3,0,70,0,0
76232,-100,4,2,0,70,0,0
77448,-100,4,3,0,70,0,0
77854,-100,4,2,0,70,0,1
78158,-100,4,3,0,70,0,1
79070,-100,4,2,0,70,0,1
79881,-100,4,3,0,70,0,1
82719,-100,4,3,0,70,0,0
83530,-100,4,3,0,50,0,0
84340,-100,4,2,0,70,0,0

[Colours]
Combo1 : 75,70,175
Combo2 : 255,255,255
Combo3 : 255,128,0

[HitObjects]
396,88,6503,2,0,B|272:160|128:60,1,270,4|0,0:0|0:0,0:0:0:0:
72,60,8124,2,0,B|48:156|100:252|192:284,1,270,4|0,0:0|0:0,0:0:0:0:
256,280,9746,2,0,B|339:251|391:155|367:59,1,270,4|0,0:0|0:0,0:0:0:0:
300,36,11367,2,0,B|208:56|160:160,1,180,2|2,0:0|0:0,0:0:0:0:
112,280,12989,5,4,0:0:0:0:
228,192,13800,1,2,0:0:0:0:
344,280,14611,1,2,0:0:0:0:
456,192,15421,1,2,0:0:0:0:
400,60,16232,6,0,B|296:60|220:104,1,180,2|2,0:0|0:0,0:0:0:0:
120,192,17854,1,2,0:0:0:0:
216,304,18665,1,2,0:0:0:0:
316,200,19475,6,0,B|420:180|420:64,1,180,2|2,0:0|0:0,0:0:0:0:
276,56,21097,2,0,B|172:76|172:192,1,180,2|2,0:0|0:0,0:0:0:0:
212,244,22313,1,0,0:0:0:0:
276,276,22719,6,0,B|376:276|388:148,2,180,4|4|4,0:0|0:0|0:0,0:0:0:0:
216,316,24746,2,0,B|124:336,2,89.9999999999999
280,348,25962,5,4,0:0:0:0:
272,204,26773,1,2,0:0:0:0:
300,64,27584,2,0,B|376:80|408:156,2,135,0|0|0,0:0|0:0|0:0,0:0:0:0:
228,80,29205,5,2,0:0:0:0:
164,108,29611,2,0,B|160:156|116:192,1,89.9999999999999,0|2,0:0|0:0,0:0:0:0:
108,328,30827,2,0,P|175:315|227:275,2,135,0|0|8,0:0|0:0|0:2,0:0:0:0:
80,264,32448,6,0,P|112:172|192:128,1,180,2|2,0:0|0:0,0:0:0:0:
324,132,34070,2,0,P|391:173|423:265,1,180,4|2,0:0|0:0,0:0:0:0:
296,336,35692,5,4,0:0:0:0:
336,200,36502,1,4,0:0:0:0:
200,156,37313,1,4,0:0:0:0:
152,292,38124,1,2,0:0:0:0:
296,308,38935,6,0,B|339:221|299:133,1,180,4|2,0:0|0:0,0:0:0:0:
164,188,40557,1,2,0:0:0:0:
72,76,41367,1,2,0:0:0:0:
164,188,42178,6,0,B|110:271|154:359,1,180,2|2,0:0|0:0,0:0:0:0:
276,280,43800,1,2,0:0:0:0:
408,336,44611,1,2,0:0:0:0:
452,280,45016,1,0,0:0:0:0:
464,208,45421,6,0,B|428:116|312:136,1,180,2|2,0:0|0:0,0:0:0:0:
188,76,47043,2,0,B|104:136,1,89.9999999999999,2|0,0:0|0:0,0:0:0:0:
108,200,47854,2,0,B|124:296,1,89.9999999999999,2|0,0:0|0:0,0:0:0:0:
164,348,48665,6,4,B|248:380|344:348,1,180,4|4,0:0|0:0,0:0:0:0:
392,216,50286,2,0,B|356:124|252:104,1,180,4|4,0:0|0:0,0:0:0:0:
120,140,51908,5,4,0:0:0:0:
120,212,52313,2,0,B|138:308|230:344,1,180,0|0,0:0|0:0,0:0:0:0:
300,336,53530,2,0,B|396:360|480:304,1,180
400,184,55151,6,0,B|336:152|260:184,2,135,2|2|0,0:0|0:0|0:0,0:0:0:0:
400,256,56773,2,0,B|344:344|240:348,1,180
180,340,57989,1,0,0:0:0:0:
120,300,58394,6,0,B|84:216|124:116,1,180,4|2,0:0|0:0,0:0:0:0:
264,116,60016,2,0,B|340:132|396:84,2,135
192,108,61638,6,0,B|128:136|108:216,2,135,4|4|0,0:0|0:0|0:0,0:0:0:0:
256,136,63259,2,0,B|256:216|324:264,2,135,4|4|0,0:0|0:0|0:0,0:0:0:0:
288,72,64881,6,0,B|332:64|388:84,1,89.9999999999999,4|0,0:0|0:0,0:0:0:0:
412,144,65692,2,0,B|408:196|444:244,1,89.9999999999999,2|0,0:0|0:0,0:0:0:0:
392,288,66502,2,0,B|324:328|244:292,2,135
432,228,68124,6,0,B|476:172|444:100,2,135,2|2|0,0:0|0:0|0:0,0:0:0:0:
368,196,69746,2,0,B|180:196,1,180
116,196,70962,1,0,0:0:0:0:
84,132,71367,6,0,B|112:96|164:76,1,89.9999999999999,4|2,0:0|0:0,0:0:0:0:
212,124,72178,2,0,B|244:164|296:168,1,89.9999999999999,2|2,0:0|0:0,0:0:0:0:
356,144,72989,2,0,B|404:156|432:196,1,89.9999999999999,2|2,0:0|0:0,0:0:0:0:
400,260,73800,2,0,B|380:308|324:324,1,89.9999999999999,2|0,0:0|0:0,0:0:0:0:
268,300,74611,6,0,B|192:300|156:212,2,135,4|4|0,0:0|0:0|0:0,0:0:0:0:
296,236,76232,2,0,B|336:184|424:176,2,135,4|4|0,0:0|0:0|0:0,0:0:0:0:
252,292,77854,6,0,P|172:272|140:176,1,180,4|0,0:0|0:0,0:0:0:0:
132,116,79070,2,0,L|224:76,1,89.9999999999999,0|4,0:0|0:0,0:0:0:0:
284,64,79881,2,0,P|356:120|380:208,1,180
256,192,81097,12,0,82719,0:0:0:0:
340,316,83530,6,0,P|256:344|168:312,1,180,0|4,0:0|0:0,0:0:0:0:
