osu file format v9

[General]
AudioFilename: Theme of Phoenix.mp3
AudioLeadIn: 2000
PreviewTime: 26646
Countdown: 1
SampleSet: Soft
StackLeniency: 0.7
Mode: 0
LetterboxInBreaks: 1

[Editor]
Bookmarks: 83451
DistanceSpacing: 0.8
BeatDivisor: 4
GridSize: 8

[Metadata]
Title:Theme of Phoenix
Artist:Hideyuki Fukasawa
Creator:Roddie
Version:Normal
Source:Marvel vs. Capcom 3: Fate of Two Worlds
Tags:ultimate umvc3 x-men jean grey summers dark force playstation ps3 xbox 360 lunarsakuya hybrid579

[Difficulty]
HPDrainRate:3
CircleSize:4
OverallDifficulty:3
ApproachRate:4
SliderMultiplier:1.2
SliderTickRate:1

[Events]
//Background and Video events
0,0,"Jean.jpg"
//Break Periods
//Storyboard Layer 0 (Background)
//Storyboard Layer 1 (Fail)
//Storyboard Layer 2 (Pass)
//Storyboard Layer 3 (Foreground)
//Storyboard Sound Samples
//Background Colour Transformations
3,100,163,162,255

[TimingPoints]
335,410.958904109589,4,1,0,50,1,0
437,-100,4,2,1,30,0,0
3211,-100,4,2,1,60,0,0
3622,-100,4,2,1,30,0,0
5677,-100,4,2,1,60,0,0
6088,-100,4,2,1,15,0,0
6910,-100,4,2,1,60,0,0
18314,-100,4,2,2,60,0,0
20061,-100,4,2,1,60,0,0
31465,-100,4,2,2,60,0,0
46362,-100,4,2,1,60,0,1
49650,-100,4,2,1,60,0,0
52937,-100,4,2,1,60,0,1
56225,-100,4,2,1,60,0,0
59513,-100,4,2,1,60,0,1
62800,-100,4,2,1,60,0,0
66088,-100,4,2,1,60,0,1
69376,-100,4,2,1,60,0,0
71841,-100,4,2,2,60,0,0
72150,-100,4,2,1,60,0,0
72355,-100,4,2,2,60,0,0
72663,-100,4,1,0,50,0,1
72766,-100,4,1,0,30,0,1
75951,-100,4,2,1,60,0,1
76156,-100,4,2,2,60,0,1
79239,-100,4,1,0,50,0,1
79341,-100,4,2,1,30,0,1
82526,-100,4,2,2,60,0,1
84170,-100,4,2,1,60,0,0
84992,-100,4,2,1,15,0,0
85814,-100,4,1,1,50,0,0

[Colours]
Combo1 : 180,16,20
Combo2 : 112,170,23
Combo3 : 255,255,89

[HitObjects]
256,192,335,1,4
256,192,437,12,8,3211
256,192,3622,12,8,5677
256,88,6088,5,2
256,88,6293,2,0,B|272:184|368:232,1,180,2|4
424,296,7321,5,8
328,296,7732,2,0,B|192:320,1,120,2|8
184,272,8348,2,0,B|120:288,1,60,0|2
96,192,8965,1,8
152,112,9376,5,2
216,184,9787,1,8
248,96,10198,2,0,B|280:112|320:80,1,60,2|2
336,56,10608,2,0,B|376:64|384:104,1,60,8|2
376,184,11225,1,0
344,224,11430,1,8
256,272,11841,5,0
160,248,12252,1,8
160,248,12458,1,0
136,152,12869,1,2
136,152,13074,1,8
192,80,13485,6,0,B|232:48|272:112|320:80,1,120,4|8
232,152,14307,2,0,B|208:192|256:224|216:272,1,120,2|8
176,288,14924,2,0,B|112:336,1,60,0|2
48,280,15540,1,8
112,208,15951,5,2
112,208,16362,1,8
192,152,16773,2,0,B|224:136|224:96,1,60,2|2
232,56,17184,2,0,B|304:72,1,60,8|2
288,168,17800,1,0
256,208,18006,1,8
256,304,18417,5,0
208,320,18622,1,0
160,304,18828,1,8
128,216,19239,1,0
192,144,19650,1,8
224,112,19855,1,8
232,64,20061,6,0,B|352:80,1,120,4|8
368,176,20882,1,2
304,248,21293,1,8
256,256,21499,1,0
208,248,21704,1,2
256,168,22115,1,8
256,72,22526,5,2
256,72,22937,1,8
160,96,23348,2,0,B|128:112|112:144,1,60,2|2
112,184,23759,2,0,B|104:224|64:224,1,60,8|2
128,304,24376,1,0
128,304,24581,1,8
224,312,24992,5,0
256,224,25403,2,0,B|224:192|232:160,1,60,8|0
264,136,25814,2,0,B|288:120|296:88,1,60,0|2
336,56,26225,2,0,B|392:96,1,60,8|0
424,120,26636,6,0,B|448:256,1,120,4|8
368,296,27458,2,0,B|320:328|240:312,1,120,2|8
208,304,28074,2,0,B|176:248,1,60,0|2
256,192,28691,1,8
184,128,29102,5,2
256,64,29513,1,8
328,128,29924,2,0,B|360:208,3,60,2|2|8|2
384,272,30951,1,0
384,272,31156,1,8
296,232,31567,6,0,B|232:232,2,60,0|0|8
264,144,32389,1,0
216,144,32595,1,2
176,120,32800,2,0,B|128:176,1,60,8|8
96,184,33211,6,0,B|80:256|120:312,1,120,4|0
160,288,33828,2,0,B|224:272|264:336,1,120,2|0
312,336,34444,2,0,B|357:295|376:224,1,120,2|2
336,144,35266,1,0
336,144,35471,2,0,B|280:104|216:192|160:128,1,180,2|2
104,64,36499,1,2
72,152,36910,6,0,B|96:272,1,120,0|8
168,336,37732,1,0
256,304,38143,1,2
416,192,38965,1,2
320,192,39376,1,0
280,160,39581,1,8
272,112,39787,6,0,B|216:88|136:120,1,120,2|0
120,152,40403,2,0,B|128:216|80:272,1,120,2|0
64,304,41019,2,0,B|112:344|176:336,1,120,2|2
256,160,42252,1,8
384,304,43074,1,2
384,208,43485,6,0,B|400:152|376:88,1,120,0|8
280,80,44307,2,0,B|208:80|168:32,1,120,0|2
128,120,45129,5,8
120,216,45540,2,0,B|152:272,2,60,8|2|8
208,176,46362,6,0,B|240:176|264:160,1,60,4|0
296,128,46773,2,0,B|336:120|360:136,1,60,0|2
336,224,47389,2,0,B|320:288,1,60,0|2
224,280,48006,6,0,B|184:272|160:296,1,60,2|0
120,312,48417,2,0,B|88:312|64:280,1,60,0|2
136,224,49033,2,0,B|176:160,1,60,0|2
256,128,49650,5,2
256,224,50061,2,0,B|296:280|368:296,1,120,8|0
400,272,50677,6,0,B|432:256|432:216,1,60,2|8
416,176,51088,2,0,B|392:144|400:112,1,60,2|2
376,80,51499,2,0,B|336:80|320:56,1,60,2|8
272,56,51910,2,0,B|216:96|216:168,1,120,2|2
160,240,52732,1,2
160,240,52937,6,0,B|216:296,1,60,4|0
248,264,53348,2,0,B|288:320,1,60,0|2
336,232,53965,2,0,B|376:176,1,60,0|2
320,104,54581,6,0,B|256:80,1,60,2|0
215,82,54992,2,0,B|159:98,1,60,0|2
96,168,55608,2,0,B|112:232,1,60,0|2
160,312,56225,6,0,B|240:312|240:224,1,120,2|8
240,192,56841,2,0,B|328:152|416:192,1,180,2|2
440,288,57869,5,2
352,256,58280,2,0,B|304:304,1,60,8|2
216,264,58896,1,2
136,320,59307,1,2
136,320,59513,6,0,B|104:294|96:248,1,60,4|0
120,224,59924,2,0,B|120:184|96:168,1,60,0|2
136,80,60540,2,0,B|208:80,1,60,0|2
280,128,61156,6,0,B|279:160|312:200,1,60,2|0
336,216,61567,2,0,B|352:248|336:280,1,60,0|2
256,328,62184,2,0,B|192:336,1,60,0|2
120,280,62800,6,0,B|88:224|96:144,1,120,2|8
128,72,63622,1,0
168,96,63828,6,0,B|208:144,1,60,2|8
256,152,64239,2,0,B|296:200,1,60,2|2
344,192,64650,2,0,B|368:264,1,60,2|8
368,296,65061,2,0,B|320:344|248:320,1,120,2|2
168,344,65882,1,2
176,296,66088,6,0,B|200:240,1,60,4|0
248,224,66499,2,0,B|304:200,1,60,0|2
352,120,67115,2,0,B|288:104,1,60,0|2
200,80,67732,6,0,B|168:96|136:80,1,60,2|0
96,96,68143,2,0,B|80:168,1,60,0|2
136,232,68759,2,0,B|176:240|184:272,1,60,0|2
256,320,69376,6,0,B|296:264|376:296,1,120,2|8
400,256,69992,2,0,B|448:80,1,180,2|2
352,80,71019,5,2
256,88,71430,2,0,B|304:144,1,60,0|2
216,184,72047,2,0,B|176:240,1,60,8|2
256,288,72663,1,4
256,192,72766,12,2,75951
392,136,76362,6,0,B|368:64|296:64,1,120,8|0
208,64,77184,2,0,B|145:63|121:135,1,120,8|0
120,232,78006,2,0,B|144:304|206:303,1,120,8|0
304,304,78828,2,0,B|366:304|390:232,1,120,8|4
256,192,79341,12,2,82526
424,152,82937,6,0,B|352:128|256:216|184:160,1,240,8|8
112,112,84170,1,4
256,240,84992,5,2
256,240,85198,2,0,B|256:48,1,180,0|4
