osu file format v9

[General]
AudioFilename: Theme of Phoenix.mp3
AudioLeadIn: 2000
PreviewTime: 26646
Countdown: 1
SampleSet: Normal
StackLeniency: 0.7
Mode: 0
LetterboxInBreaks: 1

[Editor]
DistanceSpacing: 1
BeatDivisor: 4
GridSize: 8

[Metadata]
Title:Theme of Phoenix
Artist:Hideyuki Fukasawa
Creator:Roddie
Version:Hard
Source:Marvel vs. Capcom 3: Fate of Two Worlds
Tags:ultimate umvc3 x-men jean grey summers dark force playstation ps3 xbox 360 lunarsakuya hybrid579

[Difficulty]
HPDrainRate:6
CircleSize:4
OverallDifficulty:6
ApproachRate:7
SliderMultiplier:1.8
SliderTickRate:1

[Events]
//Background and Video events
0,0,"Jean.jpg"
//Break Periods
//Storyboard Layer 0 (Background)
//Storyboard Layer 1 (Fail)
//Storyboard Layer 2 (Pass)
//Storyboard Layer 3 (Foreground)
//Storyboard Sound Samples
//Background Colour Transformations
3,100,163,162,255

[TimingPoints]
335,410.958904109589,4,1,0,50,1,0
437,-100,4,2,1,30,0,0
3211,-100,4,2,1,60,0,0
3622,-100,4,2,1,30,0,0
5677,-100,4,2,1,60,0,0
6088,-100,4,2,1,15,0,0
6293,-200,4,2,1,15,0,0
6910,-100,4,2,1,60,0,0
18314,-100,4,2,2,60,0,0
20061,-100,4,2,1,60,0,0
31465,-100,4,2,2,60,0,0
46362,-100,4,2,1,60,0,1
49650,-100,4,2,1,60,0,0
52937,-100,4,2,1,60,0,1
56225,-100,4,2,1,60,0,0
59513,-100,4,2,1,60,0,1
62800,-100,4,2,1,60,0,0
66088,-100,4,2,1,60,0,1
69376,-100,4,2,1,60,0,0
71841,-100,4,2,2,60,0,0
72150,-100,4,2,1,60,0,0
72355,-100,4,2,2,60,0,0
72663,-100,4,1,0,50,0,1
72766,-100,4,1,0,30,0,1
75951,-100,4,2,1,60,0,1
76156,-100,4,2,2,60,0,1
79239,-100,4,1,0,50,0,1
79341,-100,4,2,1,30,0,1
82526,-100,4,2,2,60,0,1
84170,-100,4,2,1,60,0,0
84992,-100,4,2,1,15,0,0
85198,-200,4,2,1,15,0,0
85814,-100,4,1,1,50,0,0

[Colours]
Combo1 : 180,16,20
Combo2 : 112,170,23
Combo3 : 255,255,89

[HitObjects]
256,192,335,1,4
256,192,437,12,8,3211
256,192,3622,12,8,5677
256,88,6088,5,2
256,176,6293,2,0,B|267:208|256:248,1,67.5,0|2
160,336,6910,6,0,B|232:360|312:336,2,135,4|0|0
160,248,7732,2,0,B|96:224|16:248,2,135,2|0|0
200,168,8554,1,2
368,224,8965,1,8
376,48,9376,5,2
120,48,9787,1,8
256,256,10198,5,2
288,176,10403,1,2
376,208,10608,1,8
336,288,10814,1,2
160,240,11225,1,0
72,224,11430,1,8
48,48,11841,5,0
112,112,12047,2,0,B|144:144,2,45,0|0|8
176,48,12458,2,0,B|208:96,1,45,0|2
224,176,12766,2,0,B|280:152,1,45,2|0
296,72,13074,1,8
344,152,13280,1,0
344,152,13382,1,0
344,152,13485,6,0,B|416:160|456:56,2,135,4|0|0
256,152,14307,2,0,B|184:160|144:56,2,135,2|0|0
304,232,15129,1,2
128,224,15540,1,8
120,48,15951,5,2
376,48,16362,1,8
256,272,16773,5,2
184,216,16978,1,2
136,288,17184,1,8
208,344,17389,1,2
368,264,17800,1,0
456,232,18006,1,8
448,56,18417,6,0,B|464:120,2,45,0|2|0
360,80,18828,1,8
336,168,19033,2,0,B|368:208,1,45,0|2
320,280,19341,2,0,B|272:304,1,45,0|2
248,216,19650,1,8
200,136,19855,1,8
160,112,19958,1,8
120,120,20061,6,0,B|72:256,2,135,4|0|0
168,200,20882,2,0,B|192:344,2,135,2|0|0
232,136,21704,1,2
408,144,22115,1,8
384,320,22526,5,2
128,320,22937,1,8
256,104,23348,5,2
320,168,23554,1,2
392,112,23759,1,8
328,48,23965,1,2
240,208,24376,1,0
168,264,24581,1,8
344,304,24992,6,0,B|384:264,2,45
264,352,25403,1,8
176,360,25608,2,0,B|128:320,1,45,0|2
216,280,25917,2,0,B|256:256,1,45,0|2
208,184,26225,1,8
224,96,26430,1,0
264,64,26533,1,0
304,48,26636,6,0,B|456:48,2,135,4|0|0
304,136,27458,2,0,B|448:136,2,135,2|0|0
232,80,28280,1,2
296,248,28691,1,8
128,320,29102,5,2
384,320,29513,1,8
256,104,29924,5,2
184,152,30129,1,2
128,80,30335,1,8
200,24,30540,1,2
248,200,30951,1,0
256,288,31156,1,8
416,208,31567,6,0,B|448:160,2,45,0|2|0
368,288,31978,1,8
312,216,32184,2,0,B|256:176,1,45,0|2
200,144,32492,2,0,B|136:192,1,45,0|2
88,216,32800,1,8
160,272,33006,1,8
160,272,33108,1,8
160,272,33211,5,6
184,96,33622,1,0
256,40,33828,1,2
328,96,34033,1,8
368,272,34444,1,2
152,136,34855,5,2
328,96,35266,1,0
408,56,35471,1,2
424,144,35677,1,8
432,328,36088,1,2
184,296,36499,5,2
184,120,36910,1,0
368,120,37321,1,8
376,296,37732,1,0
272,144,38143,5,2
272,144,38965,1,2
408,144,39273,2,0,B|336:144,1,45
272,144,39581,1,8
200,40,39787,5,2
128,208,40198,1,0
200,256,40403,1,2
288,232,40608,1,8
448,312,41019,1,2
448,312,41430,5,2
272,344,41841,1,0
232,168,42252,1,8
408,120,42663,1,0
352,296,43074,1,2
320,120,43485,5,0
160,32,43896,1,8
72,192,44307,1,0
224,288,44718,1,2
144,248,44924,6,0,B|96:288,2,45,0|0|8
224,208,45334,1,0
288,272,45540,2,0,B|328:232,1,45,8|8
384,176,45848,2,0,B|336:144,1,45,8|8
256,128,46156,1,8
152,104,46362,5,4
88,192,46567,1,0
184,240,46773,1,0
248,152,46978,2,0,B|304:232|416:200,1,180,2|0
407,202,47595,1,2
256,48,48006,5,2
320,136,48211,1,0
232,200,48417,1,0
168,112,48622,1,2
256,312,49033,1,0
256,312,49239,1,2
80,192,49650,5,2
96,104,49855,2,0,B|48:72,2,45,0|0|8
184,112,50266,1,0
240,40,50471,1,0
320,88,50677,6,0,B|304:136|344:168,1,90,2|8
416,120,51088,2,0,B|440:168|416:208,1,90,2|2
344,256,51499,1,2
272,304,51704,1,8
256,216,51910,5,2
160,64,52321,1,2
336,64,52732,1,2
256,128,52937,5,4
200,224,53143,1,0
296,272,53348,1,0
352,176,53554,1,2
208,336,53965,1,0
208,336,54170,1,2
88,152,54581,5,2
128,56,54787,1,0
216,120,54992,1,0
168,216,55198,2,0,B|256:224|328:320,1,180,2|0
317,306,55814,1,2
416,112,56225,5,2
360,176,56430,2,0,B|392:208,2,45,0|0|8
280,136,56841,1,2
72,312,57458,1,2
248,280,57869,6,0,B|288:328,2,45,0|2|0
168,248,58280,1,8
136,160,58485,2,0,B|112:112,1,45,2|0
192,64,58793,2,0,B|240:64,1,45,0|2
328,64,59102,1,8
368,144,59307,1,2
368,144,59410,1,0
368,144,59513,6,0,B|384:192|368:240,1,90,4|0
272,184,59924,2,0,B|264:232|216:256,1,90,0|2
88,88,60540,1,0
192,88,60745,1,2
80,272,61156,6,0,B|112:304|176:304,1,90,2|0
160,192,61567,2,0,B|208:192|248:144,1,90,0|2
432,56,62184,1,0
432,160,62389,1,2
256,280,62800,5,2
280,192,63006,2,0,B|328:200,2,45,0|0|8
256,104,63417,2,0,B|320:88,2,45
192,168,63828,5,2
112,128,64033,1,8
32,176,64239,1,2
104,224,64444,2,0,B|128:264|96:320,1,90,0|2
184,344,64855,1,8
272,336,65061,5,2
256,160,65471,1,2
400,272,65882,1,2
288,272,66088,5,4
352,184,66293,1,0
288,272,66499,1,0
224,184,66704,1,2
72,336,67115,1,0
72,336,67321,1,2
88,120,67732,5,2
184,80,67937,1,0
288,120,68143,1,0
184,80,68348,1,2
392,32,68759,1,0
392,32,68965,1,2
256,200,69376,5,2
256,288,69581,2,0,B|256:352,2,45,0|0|8
256,200,69992,1,2
256,112,70198,2,0,B|200:112,2,45
344,112,70608,1,2
440,264,71019,6,0,B|408:304,1,45,2|0
360,224,71328,2,0,B|320:264,1,45,0|2
296,160,71636,2,0,B|248:184,1,45,2|0
272,88,71944,2,0,B|216:88,1,45,8|8
144,48,72252,1,2
144,136,72458,1,8
144,136,72561,1,8
144,136,72663,1,4
256,192,72766,12,2,75951
136,88,76362,5,8
184,160,76567,1,0
264,120,76773,1,0
352,120,76978,2,0,B|360:184,1,45,0|2
288,224,77287,2,0,B|304:280,1,45,0|2
224,320,77595,5,0
136,328,77800,1,0
120,240,78006,2,0,B|72:264,2,45,8|0|0
56,176,78417,1,0
104,96,78622,2,0,B|152:136,1,45,2|0
192,56,78930,2,0,B|224:112,1,45,0|2
256,176,79239,1,4
256,192,79341,12,2,82526
168,72,82937,5,8
176,160,83143,1,0
136,240,83348,1,0
200,296,83554,2,0,B|264:312,1,45,0|2
320,264,83862,2,0,B|384:296,1,45,0|2
255,194,84170,5,6
256,40,84992,5,2
256,128,85198,2,0,B|272:168|250:203,1,67.5,0|2
256,328,85814,5,4
