osu file format v9

[General]
AudioFilename: Theme of Phoenix.mp3
AudioLeadIn: 2000
PreviewTime: 26646
Countdown: 1
SampleSet: Soft
StackLeniency: 0.7
Mode: 0
LetterboxInBreaks: 1

[Editor]
Bookmarks: 83451
DistanceSpacing: 0.8
BeatDivisor: 4
GridSize: 4

[Metadata]
Title:Theme of Phoenix
Artist:Hideyuki Fukasawa
Creator:Roddie
Version:Easy
Source:Marvel vs. Capcom 3: Fate of Two Worlds
Tags:ultimate umvc3 x-men jean grey summers dark force playstation ps3 xbox 360 lunarsakuya hybrid579

[Difficulty]
HPDrainRate:2
CircleSize:3
OverallDifficulty:2
ApproachRate:3
SliderMultiplier:0.9
SliderTickRate:1

[Events]
//Background and Video events
0,0,"Jean.jpg"
//Break Periods
//Storyboard Layer 0 (Background)
//Storyboard Layer 1 (Fail)
//Storyboard Layer 2 (Pass)
//Storyboard Layer 3 (Foreground)
//Storyboard Sound Samples
//Background Colour Transformations
3,100,163,162,255

[TimingPoints]
335,410.958904109589,4,1,0,50,1,0
437,-100,4,2,1,60,0,0
5677,-100,4,2,1,60,0,0
6088,-100,4,2,1,15,0,0
6910,-100,4,2,1,60,0,0
18314,-100,4,2,2,60,0,0
20061,-100,4,2,1,60,0,0
31465,-100,4,2,2,60,0,0
46362,-100,4,2,1,60,0,1
49650,-100,4,2,1,60,0,0
52937,-100,4,2,1,60,0,1
56225,-100,4,2,1,60,0,0
59513,-100,4,2,1,60,0,1
62800,-100,4,2,1,60,0,0
66088,-100,4,2,1,60,0,1
69376,-100,4,2,1,60,0,0
71841,-100,4,2,2,60,0,0
72150,-100,4,2,1,60,0,0
72355,-100,4,2,2,60,0,0
72663,-100,4,1,0,30,0,1
74718,-100,4,2,2,60,0,1
79239,-100,4,1,0,50,0,1
79341,-100,4,2,1,30,0,1
82115,-100,4,2,2,60,0,1
84170,-100,4,2,1,60,0,0
84992,-100,4,2,1,15,0,0
85814,-100,4,1,1,50,0,0

[Colours]
Combo1 : 180,16,20
Combo2 : 112,170,23
Combo3 : 255,255,89

[HitObjects]
32,152,335,2,0,B|124:164|192:239|192:239|248:168|348:148,1,360,4|0
348,80,2389,6,0,B|383:67|383:67|441:45|486:89|484:159|425:180|425:180|376:199,1,270,8|2
356,256,4033,6,0,B|324:333|257:360|178:332|155:256,1,270,8|0
152,184,5677,2,0,B|152:88,1,90,8|2
256,192,6910,5,4
324,168,7321,1,8
380,124,7732,2,0,B|424:204,1,90,2|8
456,272,8554,1,2
268,248,9376,6,0,B|180:296,1,90,2|8
116,296,10198,2,0,B|64:248|64:160,2,135,2|2|8
180,260,11841,6,0,B|284:260,1,90,0|8
304,196,12663,2,0,B|408:196,1,90,0|8
428,132,13485,5,4
376,84,13896,1,8
304,84,14307,2,0,B|256:84|224:136,2,90,2|8|2
368,212,15951,6,0,B|368:276|320:292,1,90,2|8
260,264,16773,2,0,B|184:264|144:336,2,135,2|2|8
256,192,18417,6,0,B|204:196|168:140,1,90,0|8
156,88,19239,2,0,B|200:60|248:76,1,90,0|8
304,112,20061,5,4
352,164,20471,1,8
360,236,20882,1,2
304,284,21293,2,0,B|256:292|224:332,1,90,8|2
160,200,22526,6,0,B|136:104,1,90,2|8
200,76,23348,2,0,B|348:76,2,135,2|2|8
136,112,24992,5,0
152,184,25403,1,8
184,248,25814,2,0,B|213:287|256:300,1,90,0|8
300,244,26636,5,4
360,208,27047,1,8
372,136,27458,1,2
340,72,27869,2,0,B|244:72,1,90,8|2
256,216,29102,6,0,B|248:268|204:292,1,90,2|8
148,252,29924,2,0,B|80:224|80:136,2,135,2|2|8
212,216,31567,5,0
248,156,31978,1,8
380,100,32800,1,8
360,168,33211,6,0,B|376:240|316:296,2,135,4|2|2
328,104,34855,2,0,B|236:100|192:152,2,135,2|2|2
400,120,36499,1,2
432,184,36910,6,0,B|440:284,1,90,0|8
376,312,37732,1,0
324,264,38143,2,0,B|236:224|144:264,1,180,2|2
68,140,39787,6,0,B|143:164|212:140,2,135,2|2|2
48,72,41430,2,0,B|132:24|224:72,2,180,2|2|2
64,144,43485,6,0,B|100:232,1,90,0|8
140,288,44307,1,0
212,272,44718,1,2
264,220,45129,2,0,B|308:196|364:224,2,90,8|8|8
200,184,46362,6,0,B|136:160|104:88,2,135,4|2|2
264,152,48006,2,0,B|340:136|396:192,2,135,2|2|2
220,208,49650,1,2
192,276,50061,6,0,B|140:280|104:328,1,90,8|0
52,276,50882,2,0,B|36:230|52:172,1,90,8|2
84,124,51704,2,0,B|272:124,1,180,8|8
320,172,52937,6,0,B|336:248|280:304,2,135,4|2|2
328,100,54581,2,0,B|468:100,2,135,2|2|2
256,100,56225,5,2
204,148,56636,2,0,B|136:220|164:320,1,180,8|2
228,344,57869,2,0,B|316:344,2,90,2|8|0
156,348,59102,1,8
140,276,59513,6,0,B|96:140,2,135,4|2|2
212,276,61156,2,0,B|256:140,2,135,2|2|2
172,336,62800,5,2
244,336,63211,1,8
316,336,63622,2,0,B|404:296|392:184,1,180,0|2
352,128,64855,2,0,B|152:128,1,180,8|8
128,184,66088,6,0,B|112:260|32:276,2,135,4|2|2
200,184,67732,2,0,B|216:260|296:276,2,135,2|2|2
164,120,69376,5,2
216,68,69787,2,0,B|400:68,1,180,8|2
392,140,71019,2,0,B|376:236|328:256,2,135,2|2|2
256,192,72663,12,8,74718
328,136,75540,5,8
256,124,75951,2,0,B|216:212|112:240,2,180,2|0|0
328,120,78006,6,0,B|376:212,1,90,8|0
372,272,78828,1,8
256,192,79239,12,8,82115
164,96,82937,5,8
256,208,83759,2,0,B|256:312,1,90,8|4
372,208,84992,6,0,B|440:144|416:36,1,180,2|4
