osu file format v14

[General]
AudioFilename: Theme of hulk.mp3
AudioLeadIn: 2000
PreviewTime: 5671
Countdown: 0
SampleSet: Soft
StackLeniency: 0.7
Mode: 0
LetterboxInBreaks: 0
WidescreenStoryboard: 1

[Editor]
DistanceSpacing: 1
BeatDivisor: 4
GridSize: 4
TimelineZoom: 1.5

[Metadata]
Title:Theme of Hulk
TitleUnicode:Theme of Hulk
Artist:Hideyuki Fukasawa
ArtistUnicode:深澤秀行
Creator:mancuso_JM_
Version:Normal
Source:Marvel vs. Capcom 3: Fate of Two Worlds
Tags:ultimate umvc3 ps3 playstation xbox 360 the avengers Bruce Banner mancusojuanmattos
BeatmapID:665087
BeatmapSetID:296157

[Difficulty]
HPDrainRate:3.5
CircleSize:3.3
OverallDifficulty:3.5
ApproachRate:4.5
SliderMultiplier:1.2
SliderTickRate:1

[Events]
//Background and Video events
0,0,"Hulk.jpg",0,0
//Break Periods
//Storyboard Layer 0 (Background)
//Storyboard Layer 1 (Fail)
//Storyboard Layer 2 (Pass)
//Storyboard Layer 3 (Foreground)
//Storyboard Sound Samples

[TimingPoints]
24,352.941176470588,4,2,1,45,1,0
5671,-100,4,2,1,45,0,1
11318,-100,4,2,1,45,0,0
23671,-100,4,2,1,30,0,0
24023,-100,4,2,1,45,0,0
25082,-100,4,2,1,30,0,0
25435,-100,4,2,1,45,0,0
26494,-100,4,2,1,30,0,0
26847,-100,4,2,1,45,0,0
27200,-100,4,2,1,30,0,0
27376,-100,4,2,1,45,0,0
27906,-100,4,2,1,30,0,0
28259,-100,4,2,1,45,0,0
29318,-100,4,2,1,30,0,0
29671,-100,4,2,1,45,0,0
30729,-100,4,2,1,30,0,0
31082,-100,4,2,1,45,0,0
31435,-100,4,2,1,30,0,0
31612,-100,4,2,1,35,0,0
31788,-100,4,2,1,40,0,0
32141,-100,4,2,1,45,0,0
32318,-100,4,2,1,30,0,0
33906,-100,4,2,1,45,0,1
39376,-100,4,2,1,35,0,1
39553,-100,4,2,1,45,0,1
44671,-100,4,2,1,35,0,1
45200,-100,4,2,1,45,0,1
50671,-100,4,2,1,35,0,1
50847,-100,4,2,1,45,0,1
51376,-100,4,2,1,30,0,1
51465,-100,4,2,1,45,0,1
56494,-100,4,3,0,45,0,0
67788,-100,4,2,1,45,0,0
72023,-100,4,2,2,45,0,0
72288,-100,4,2,1,35,0,0
72553,-100,4,2,2,45,0,0
72818,-100,4,2,1,35,0,0
72906,-100,4,2,1,45,0,0
77935,-100,4,2,2,45,0,0
78023,-100,4,2,1,45,0,0
78553,-100,4,2,2,45,0,0
79082,-100,4,2,1,45,0,0

[Colours]
Combo1 : 64,128,128
Combo2 : 255,85,85
Combo3 : 147,255,147
Combo4 : 85,85,255
Combo5 : 193,193,0
Combo6 : 0,121,0

[HitObjects]
256,308,24,6,0,L|315:304,1,60,4|0,0:0|0:0,0:0:0:0:
375,311,376,2,0,P|351:226|373:140,1,180,8|2,0:0|0:0,0:0:0:0:
428,112,1082,1,8,0:0:0:0:
335,36,1435,6,0,P|306:38|276:33,1,60,2|2,0:0|0:0,0:0:0:0:
220,20,1788,2,0,B|176:44|184:96|184:96|144:64|100:76,1,180,8|2,0:0|0:0,0:0:0:0:
56,116,2494,1,8,0:0:0:0:
48,236,2847,6,0,P|117:286|195:251,2,180,2|2|8,0:0|0:0|0:0,0:0:0:0:
52,176,4082,2,0,P|121:125|199:160,2,180,4|8|0,0:0|0:0|0:0,0:0:0:0:
48,236,5318,1,8,0:0:0:0:
104,344,5671,54,0,B|162:352|162:352|211:316,1,120,4|8,0:0|0:0,0:0:0:0:
244,268,6200,2,0,P|314:316|390:275,1,180,2|8,0:0|0:0,0:0:0:0:
412,220,6906,2,0,B|416:176|400:152|404:100,2,120,2|2|2,0:0|0:0|0:0,0:0:0:0:
315,291,7965,2,0,P|260:271|204:288,1,120,2|0,0:0|0:0,0:0:0:0:
143,296,8494,6,0,P|99:222|136:143,1,180,4|4,0:0|0:0,0:0:0:0:
316,144,9553,1,8,0:0:0:0:
316,144,9729,6,8,P|475:188|391:47,1,420,4|8,0:0|0:0,0:0:0:0:
316,144,11318,54,0,P|258:132|200:143,1,120,4|8,0:0|0:0,0:0:0:0:
160,188,11847,2,0,P|82:227|5:189,1,180,2|8,0:0|0:0,0:0:0:0:
24,68,12729,2,0,P|82:55|140:70,1,120,2|8,0:0|0:0,0:0:0:0:
160,188,13435,2,0,P|217:202|274:185,1,120,2|8,0:0|0:0,0:0:0:0:
372,116,14141,6,0,L|360:26,2,90,2|2|2,0:0|0:0|0:0,0:0:0:0:
428,140,14847,1,8,0:0:0:0:
420,317,15376,6,2,B|336:333|332:273|264:285|256:369|256:369|248:285|180:273|176:333|92:317,1,420,2|8,0:0|0:0,0:0:0:0:
32,212,16965,54,0,P|16:124|40:38,2,180,4|2|8,0:0|0:0|0:0,0:0:0:0:
56,268,18200,2,0,P|98:189|173:142,1,180,2|8,0:0|0:0,0:0:0:0:
208,91,18906,2,0,P|256:126|313:144,1,120,2|2,0:0|0:0,0:0:0:0:
384,244,19612,1,2,0:0:0:0:
383,244,19788,6,0,P|362:284|358:328,2,90,4|2|0,0:0|0:0|0:0,0:0:0:0:
424,200,20494,2,0,P|444:159|448:115,2,90,8|2|0,0:0|0:0|0:0,0:0:0:0:
364,200,21200,6,2,P|256:82|148:200,1,360,2|8,0:0|0:0,0:0:0:0:
191,312,22612,53,4,0:3:0:0:
191,311,22788,2,0,P|244:284|303:277,2,120,4|2|0,0:3|0:0|0:0,0:0:0:0:
152,356,23671,1,8,0:0:0:0:
60,280,24023,5,4,0:3:0:0:
60,280,24200,2,0,P|52:221|62:162,2,120,4|2|0,0:3|0:0|0:0,0:0:0:0:
108,320,25082,1,8,0:0:0:0:
224,356,25435,6,0,L|283:352,1,60,0|0,3:0|3:0,0:0:0:0:
335,323,25788,2,0,P|328:264|334:205,1,120,2|0,0:0|0:0,0:0:0:0:
360,88,26494,1,8,0:0:0:0:
267,164,26847,54,0,P|222:201|163:211,1,120,2|8,0:3|0:0,0:0:0:0:
124,164,27376,2,8,P|171:93|254:109,1,180,2|8,0:0|0:0,0:0:0:0:
356,176,28259,5,4,0:3:0:0:
355,176,28435,2,0,P|349:235|358:294,2,120,4|2|0,0:3|0:0|0:0,0:0:0:0:
380,120,29318,1,8,0:0:0:0:
480,56,29671,5,4,0:3:0:0:
480,56,29847,2,0,P|489:115|481:174,2,120,4|2|0,0:3|0:0|0:0,0:0:0:0:
424,32,30729,1,8,0:0:0:0:
303,19,31082,54,0,P|244:12|188:30,1,120,4|4,0:3|0:3,0:0:0:0:
140,67,31612,1,0,0:0:0:0:
113,120,31788,2,0,P|104:178|120:235,1,120,0|8,3:0|0:0,0:0:0:0:
164,278,32318,1,4,0:0:0:0:
248,364,32671,6,0,P|274:349|293:326,1,60,2|0,0:0|0:0,0:0:0:0:
308,268,33023,2,0,P|325:325|354:377,1,120,2|2,0:0|0:0,0:0:0:0:
452,224,33906,6,0,P|481:171|498:114,1,120,4|8,0:0|0:0,0:0:0:0:
496,56,34435,2,0,B|433:40|404:76|377:108|324:92,1,180,2|8,0:0|0:0,0:0:0:0:
272,120,35141,54,0,B|248:100|248:68|248:68|216:80|188:78,1,120,2|2,0:0|0:0,0:0:0:0:
92,148,35847,2,0,P|84:206|101:264,1,120,2|2,0:0|0:0,0:0:0:0:
224,292,36553,1,0,0:0:0:0:
224,292,36729,6,0,P|267:251|325:237,1,120,2|8,0:0|0:0,0:0:0:0:
380,211,37259,2,0,P|402:126|367:45,1,180,2|8,0:0|0:0,0:0:0:0:
308,32,37965,6,0,B|276:60|260:96|256:137|256:137|252:96|236:60|204:32,2,240,4|4|8,0:0|0:0|0:0,0:0:0:0:
368,32,39553,54,0,P|385:88|424:133,1,120,4|8,0:0|0:0,0:0:0:0:
464,176,40082,2,0,P|483:252|405:254,1,180,2|8,0:0|0:0,0:0:0:0:
348,244,40788,6,0,P|291:228|238:253,1,120,2|2,0:0|0:0,0:0:0:0:
119,223,41494,2,0,P|111:164|120:105,2,120,2|2|0,0:0|0:0|0:0,0:0:0:0:
124,284,42376,6,0,B|160:284|160:284|200:304|200:304|239:304,1,120,2|8,0:0|0:0,0:0:0:0:
295,323,42906,2,0,P|377:355|454:315,1,180,4|8,0:0|0:0,0:0:0:0:
483,263,43612,2,0,P|464:176|477:88,1,180,4|8,0:0|0:0,0:0:0:0:
468,27,44318,54,0,P|416:59|359:75,1,120,4|6,0:0|0:0,0:0:0:0:
252,128,45023,1,0,0:0:0:0:
252,128,45200,6,0,P|240:186|248:245,1,120,4|8,0:0|0:0,0:0:0:0:
288,292,45729,2,0,P|208:257|131:298,1,180,2|8,0:0|0:0,0:0:0:0:
84,336,46435,6,0,P|88:276|80:216,2,120,2|2|2,0:0|0:0|0:0,0:0:0:0:
200,372,47494,2,0,L|320:364,1,120,2|2,0:0|0:0,0:0:0:0:
364,320,48023,2,0,P|383:233|360:147,2,180,2|2|8,0:0|0:0|0:0,0:0:0:0:
308,348,49259,54,0,B|276:320|260:284|256:243|256:243|252:284|236:320|204:348,2,240,4|4|8,0:0|0:0|0:0,0:0:0:0:
367,347,50847,6,0,P|365:288|380:230,1,120,4|8,0:0|0:0,0:0:0:0:
412,179,51376,2,0,P|396:97|312:89,1,180,4|8,0:0|0:0,0:0:0:0:
256,112,52082,6,0,B|212:112|212:112|184:96|184:96|140:96,1,120,2|2,0:0|0:0,0:0:0:0:
44,168,52788,2,0,B|88:168|88:168|116:184|116:184|159:184,1,120,2|2,0:0|0:0,0:0:0:0:
240,272,53494,1,0,0:0:0:0:
240,272,53671,54,0,P|289:304|347:298,1,120,2|8,0:0|0:0,0:0:0:0:
396,264,54200,1,4,0:0:0:0:
460,96,54729,1,8,0:0:0:0:
460,96,54906,2,0,P|388:47|310:83,1,180,4|8,0:0|0:0,0:0:0:0:
268,127,55612,2,0,P|189:164|118:115,1,180,4|8,0:0|0:0,0:0:0:0:
52,16,56494,37,4,0:0:0:0:
32,136,56847,2,0,L|39:255,1,120
116,348,57553,2,0,L|154:336,3,40,0|0|0|0,0:0|0:0|0:0|2:0,0:0:0:0:
184,220,58259,2,0,L|222:208,3,40,0|0|0|0,0:0|0:0|0:0|2:0,0:0:0:0:
260,92,58965,2,0,L|374:56,1,120
476,120,59671,6,0,P|488:178|480:237,1,120
372,292,60376,2,0,L|335:275,3,40,0|0|0|0,0:0|0:0|0:0|2:0,0:0:0:0:
220,248,61082,1,0,0:0:0:0:
123,175,61435,6,0,P|120:136|123:96,3,80,2|2|2|4,0:0|0:0|0:0|1:0,0:0:0:0:
224,32,62494,54,0,P|275:61|334:60,1,120,4|0,0:0|0:0,0:0:0:0:
444,112,63200,2,0,L|440:151,3,40,0|0|0|0,0:0|0:0|0:0|2:0,0:0:0:0:
336,212,63906,2,0,L|332:251,3,40,0|0|0|0,0:0|0:0|0:0|2:0,0:0:0:0:
216,284,64612,2,0,L|230:164,1,120,0|4,0:0|0:1,0:0:0:0:
112,176,65318,6,0,L|132:56,1,120
252,44,66023,2,0,L|248:83,3,40,0|0|0|0,0:0|0:0|0:0|2:0,0:0:0:0:
292,196,66729,1,0,0:0:0:0:
356,300,67082,6,0,P|387:276|425:264,2,80,2|2|2,0:0|0:0|0:0,0:0:0:0:
308,364,67788,6,0,L|188:360,1,120,4|0,0:0|0:0,0:0:0:0:
132,340,68318,2,0,P|102:256|124:170,1,180,2|0,0:0|0:0,0:0:0:0:
196,76,69200,6,0,B|256:64|256:92|314:84,1,120,2|0,0:0|0:0,0:0:0:0:
363,51,69729,2,0,P|348:139|377:223,1,180,2|0,0:0|0:0,0:0:0:0:
348,340,70612,6,0,P|303:300|248:277,1,120,2|0,0:0|0:0,0:0:0:0:
192,256,71141,2,0,P|114:296|37:257,1,180,2|0,0:0|0:0,0:0:0:0:
68,139,72023,54,0,P|112:133|156:141,1,90,2|8,0:0|0:0,0:0:0:0:
244,156,72553,2,0,P|285:171|330:168,2,90,2|8|0,0:0|0:0|0:0,0:0:0:0:
244,40,73435,6,0,P|302:32|359:51,1,120,4|8,0:0|0:0,0:0:0:0:
412,84,73965,2,0,B|396:176|448:176|428:260,1,180,2|8,0:0|0:0,0:0:0:0:
327,323,74847,6,0,P|272:303|217:322,1,120,4|8,0:0|0:0,0:0:0:0:
164,348,75376,2,0,B|116:328|72:344|72:344|84:296|52:264,1,180,2|8,0:0|0:0,0:0:0:0:
23,147,76259,54,0,P|36:90|78:48,1,120,4|8,0:0|0:0,0:0:0:0:
131,23,76788,2,0,P|205:69|284:33,1,180,2|8,0:0|0:0,0:0:0:0:
404,52,77671,6,0,L|400:141,2,90,4|2|2,0:0|0:0|0:0,0:0:0:0:
284,32,78553,2,0,L|276:152,1,120,2|2,0:0|0:0,0:0:0:0:
247,203,79082,6,0,P|197:173|139:183,1,120,4|8,0:0|0:0,0:0:0:0:
120,240,79612,2,0,P|180:298|251:254,1,180,2|8,0:0|0:0,0:0:0:0:
352,192,80494,54,0,L|348:68,1,120,4|8,0:0|0:0,0:0:0:0:
384,24,81023,2,0,P|406:110|467:174,1,180,2|8,0:0|0:0,0:0:0:0:
448,292,81906,6,0,P|390:279|334:301,1,120,4|8,0:0|0:0,0:0:0:0:
284,336,82435,2,0,B|245:309|253:257|253:257|209:281|167:254,1,180,2|8,0:0|0:0,0:0:0:0:
256,192,83318,12,4,84729,0:0:0:0:
