osu file format v10

[General]
AudioFilename: Theme of Hawkeye.mp3
AudioLeadIn: 2000
PreviewTime: 10762
Countdown: 0
SampleSet: Normal
StackLeniency: 0.7
Mode: 1
LetterboxInBreaks: 0

[Editor]
Bookmarks: -828,71076
DistanceSpacing: 1.5
BeatDivisor: 4
GridSize: 4

[Metadata]
Title:Theme of Hawkeye
TitleUnicode:Theme of Hawkeye
Artist:Hideyuki Fukasawa
ArtistUnicode:Hideyuki Fukasawa
Creator:Roddie
Version:Taiko Muzukashii
Source:Ultimate Marvel vs. Capcom 3
Tags:fate of two worlds umvc3 clinton francis barton clint the avengers ronin playstation ps3 xbox 360 hybrid579
BeatmapID:191220
BeatmapSetID:51619

[Difficulty]
HPDrainRate:5
CircleSize:5
OverallDifficulty:5
ApproachRate:5
SliderMultiplier:1.4
SliderTickRate:1

[Events]
//Background and Video events
0,0,"Hotguy taiko bg.jpg"
//Break Periods
//Storyboard Layer 0 (Background)
//Storyboard Layer 1 (Fail)
//Storyboard Layer 2 (Pass)
//Storyboard Layer 3 (Foreground)
//Storyboard Sound Samples
//Background Colour Transformations
3,100,163,162,255

[TimingPoints]
174,441.176470588235,4,1,0,50,1,0
42526,-100,4,1,0,50,0,1
70762,-100,4,1,0,50,0,0

[Colours]
Combo1 : 128,255,255
Combo2 : 255,0,0

[HitObjects]
256,192,174,1,4,0:0:0
256,192,504,1,0,0:0:0
256,192,835,5,2,0:0:0
256,192,1166,1,2,0:0:0
256,192,1497,5,0,0:0:0
256,192,1718,1,0,0:0:0
256,192,1938,1,4,0:0:0
256,192,2269,5,2,0:0:0
256,192,2600,5,0,0:0:0
256,192,2931,5,2,0:0:0
256,192,3262,5,0,0:0:0
256,192,3482,5,2,0:0:0
256,192,3703,5,4,0:0:0
256,192,4034,1,0,0:0:0
256,192,4365,5,2,0:0:0
256,192,4696,1,2,0:0:0
256,192,5026,5,0,0:0:0
256,192,5247,1,2,0:0:0
256,192,5468,1,4,0:0:0
256,192,5909,5,2,0:0:0
256,192,6350,5,0,0:0:0
256,192,6791,1,0,0:0:0
256,192,6901,1,0,0:0:0
256,192,7012,1,0,0:0:0
256,192,7232,1,4,0:0:0
256,192,7673,5,2,0:0:0
256,192,8115,5,0,0:0:0
256,192,8556,5,2,0:0:0
256,192,8776,5,0,0:0:0
256,192,8997,1,4,0:0:0
256,192,9438,5,2,0:0:0
256,192,9879,5,0,0:0:0
256,192,9990,1,0,0:0:0
256,192,10100,1,0,0:0:0
256,192,10321,5,2,0:0:0
256,192,10541,5,0,0:0:0
256,192,10762,1,4,0:0:0
256,192,11203,5,2,0:0:0
256,192,11644,5,0,0:0:0
256,192,11865,1,0,0:0:0
256,192,12085,5,2,0:0:0
256,192,12306,1,2,0:0:0
256,192,12526,5,4,0:0:0
256,192,12968,5,2,0:0:0
256,192,13188,5,0,0:0:0
256,192,13409,5,2,0:0:0
256,192,13629,5,0,0:0:0
256,192,13850,1,2,0:0:0
256,192,13960,1,0,0:0:0
256,192,14071,1,0,0:0:0
256,192,14291,5,2,0:0:0
256,192,14732,5,0,0:0:0
256,192,15173,1,0,0:0:0
256,192,15394,1,0,0:0:0
256,192,15615,5,2,0:0:0
256,192,16056,5,0,0:0:0
256,192,16497,5,2,0:0:0
256,192,16718,5,0,0:0:0
256,192,17048,1,0,0:0:0
256,192,17379,5,2,0:0:0
256,192,17821,5,0,0:0:0
256,192,18262,5,2,0:0:0
256,192,18703,5,0,0:0:0
256,192,18923,1,0,0:0:0
256,192,19144,5,2,0:0:0
256,192,19585,1,2,0:0:0
256,192,19806,5,0,0:0:0
256,192,20026,5,2,0:0:0
256,192,20247,5,0,0:0:0
256,192,20578,5,2,0:0:0
256,192,20909,1,2,0:0:0
256,192,21350,1,2,0:0:0
256,192,21791,5,0,0:0:0
256,192,22232,1,0,0:0:0
256,192,22453,1,0,0:0:0
256,192,22673,5,2,0:0:0
256,192,23115,1,2,0:0:0
256,192,23556,5,0,0:0:0
256,192,23776,5,2,0:0:0
256,192,24107,5,0,0:0:0
256,192,24438,5,2,0:0:0
256,192,24879,1,2,0:0:0
256,192,25321,5,0,0:0:0
256,192,25762,1,0,0:0:0
256,192,25982,1,0,0:0:0
256,192,26203,5,2,0:0:0
256,192,26644,6,0,P|256:12,1,175
256,192,27526,5,2,0:0:0
256,192,27857,1,2,0:0:0
256,192,28188,1,2,0:0:0
256,192,28409,5,4,0:0:0
256,192,28629,1,0,0:0:0
256,192,28960,1,0,0:0:0
256,192,29291,5,2,0:0:0
256,192,29622,5,0,0:0:0
256,192,29953,5,2,0:0:0
256,192,30173,5,0,0:0:0
256,192,30394,5,2,0:0:0
256,192,30725,5,0,0:0:0
256,192,31056,1,0,0:0:0
256,192,31387,5,2,0:0:0
256,192,31718,1,2,0:0:0
256,192,31938,5,0,0:0:0
256,192,32159,5,2,0:0:0
256,192,32490,5,0,0:0:0
256,192,32821,5,2,0:0:0
256,192,33151,1,2,0:0:0
256,192,33482,5,2,0:0:0
256,192,33703,1,4,0:0:0
256,192,33923,1,0,0:0:0
256,192,34034,1,0,0:0:0
256,192,34144,1,0,0:0:0
256,192,34365,1,0,0:0:0
256,192,34585,5,2,0:0:0
256,192,34696,5,0,0:0:0
256,192,34806,1,0,0:0:0
256,192,35026,5,2,0:0:0
256,192,35247,5,0,0:0:0
256,192,35468,1,0,0:0:0
256,192,35688,1,0,0:0:0
256,192,36019,1,0,0:0:0
256,192,36350,5,2,0:0:0
256,192,36681,1,2,0:0:0
256,192,37012,5,0,0:0:0
256,192,37232,1,0,0:0:0
256,192,37453,5,2,0:0:0
256,192,37784,5,0,0:0:0
256,192,38115,5,2,0:0:0
256,192,38446,5,0,0:0:0
256,192,38776,5,2,0:0:0
256,192,38997,5,0,0:0:0
256,192,39218,5,2,0:0:0
256,192,39548,5,0,0:0:0
256,192,39879,5,2,0:0:0
256,192,40210,1,2,0:0:0
256,192,40541,1,2,0:0:0
256,192,40762,6,0,P|248:94|388:32,1,245
256,192,41865,1,0,0:0:0
256,192,42085,5,2,0:0:0
256,192,42306,1,2,0:0:0
256,192,42526,5,4,0:0:0
256,192,42968,1,0,0:0:0
256,192,43409,5,2,0:0:0
256,192,43850,1,2,0:0:0
256,192,44291,1,2,0:0:0
256,192,44512,5,0,0:0:0
256,192,44732,1,0,0:0:0
256,192,44953,5,2,0:0:0
256,192,45173,5,0,0:0:0
256,192,45284,1,0,0:0:0
256,192,45394,1,0,0:0:0
256,192,45615,5,2,0:0:0
256,192,45835,5,0,0:0:0
256,192,46056,1,4,0:0:0
256,192,46497,5,2,0:0:0
256,192,46938,5,0,0:0:0
256,192,47379,5,2,0:0:0
256,192,47821,5,0,0:0:0
256,192,48041,1,0,0:0:0
256,192,48262,5,2,0:0:0
256,192,48482,5,2,0:0:0
256,192,48923,5,2,0:0:0
256,192,49144,5,0,0:0:0
256,192,49254,1,0,0:0:0
256,192,49365,1,0,0:0:0
256,192,49585,1,4,0:0:0
256,192,50026,1,0,0:0:0
256,192,50468,5,2,0:0:0
256,192,50909,1,2,0:0:0
256,192,51350,5,0,0:0:0
256,192,51571,1,0,0:0:0
256,192,51791,5,2,0:0:0
256,192,52012,1,2,0:0:0
256,192,52453,1,2,0:0:0
256,192,52673,5,0,0:0:0
256,192,52894,1,0,0:0:0
256,192,53115,5,2,0:0:0
256,192,53556,5,0,0:0:0
256,192,53776,5,2,0:0:0
256,192,54218,1,2,0:0:0
256,192,54438,5,0,0:0:0
256,192,54659,5,2,0:0:0
256,192,55100,1,2,0:0:0
256,192,55321,5,0,0:0:0
256,192,55431,1,0,0:0:0
256,192,55541,1,0,0:0:0
256,192,55762,1,0,0:0:0
256,192,55982,5,2,0:0:0
256,192,56203,1,2,0:0:0
256,192,56423,1,2,0:0:0
256,192,56644,5,4,0:0:0
256,192,57085,1,0,0:0:0
256,192,57526,5,2,0:0:0
256,192,57968,1,2,0:0:0
256,192,58409,1,2,0:0:0
256,192,58629,5,0,0:0:0
256,192,58850,5,2,0:0:0
256,192,59071,5,0,0:0:0
256,192,59291,1,0,0:0:0
256,192,59401,1,0,0:0:0
256,192,59512,1,0,0:0:0
256,192,59732,5,2,0:0:0
256,192,59953,5,0,0:0:0
256,192,60173,1,4,0:0:0
256,192,60615,5,2,0:0:0
256,192,61056,1,2,0:0:0
256,192,61497,5,0,0:0:0
256,192,61938,5,2,0:0:0
256,192,62159,5,0,0:0:0
256,192,62379,1,0,0:0:0
256,192,62600,5,2,0:0:0
256,192,63041,1,2,0:0:0
256,192,63262,5,0,0:0:0
256,192,63372,1,0,0:0:0
256,192,63482,1,0,0:0:0
256,192,63703,1,4,0:0:0
256,192,64144,5,2,0:0:0
256,192,64585,1,2,0:0:0
256,192,65026,5,0,0:0:0
256,192,65247,1,0,0:0:0
256,192,65468,5,2,0:0:0
256,192,65688,5,0,0:0:0
256,192,65909,5,2,0:0:0
256,192,66129,1,2,0:0:0
256,192,66571,1,2,0:0:0
256,192,66791,5,0,0:0:0
256,192,67012,1,0,0:0:0
256,192,67232,5,2,0:0:0
256,192,67673,1,2,0:0:0
256,192,67894,1,2,0:0:0
256,192,68335,1,2,0:0:0
256,192,68556,5,0,0:0:0
256,192,68776,5,2,0:0:0
256,192,69218,1,2,0:0:0
256,192,69659,1,2,0:0:0
256,192,70100,5,0,0:0:0
256,192,70321,2,0,P|256:108,2,70
256,192,71093,1,0,0:0:0
256,192,71423,1,0,0:0:0
256,192,71754,1,0,0:0:0
256,192,72085,5,2,0:0:0
256,192,72306,5,0,0:0:0
256,192,72526,1,4,0:0:0
256,192,72857,1,0,0:0:0
256,192,73188,1,0,0:0:0
256,192,73519,5,2,0:0:0
256,192,73850,1,2,0:0:0
256,192,74071,5,0,0:0:0
256,192,74291,1,4,0:0:0
256,192,74622,1,0,0:0:0
256,192,74953,1,0,0:0:0
256,192,75284,5,2,0:0:0
256,192,75615,5,0,0:0:0
256,192,75835,5,2,0:0:0
256,192,76056,5,4,0:0:0
256,192,76276,1,0,0:0:0
256,192,76387,1,0,0:0:0
256,192,76497,5,2,0:0:0
256,192,76718,5,0,0:0:0
256,192,76938,5,2,0:0:0
256,192,77159,5,0,0:0:0
256,192,77379,1,0,0:0:0
256,192,77490,1,0,0:0:0
256,192,77600,1,0,0:0:0
256,192,77821,1,4,0:0:0
256,192,78041,1,0,0:0:0
256,192,78151,1,0,0:0:0
256,192,78262,5,2,0:0:0
256,192,78593,1,2,0:0:0
256,192,78923,5,0,0:0:0
256,192,79144,5,2,0:0:0
256,192,79365,5,0,0:0:0
256,192,79585,1,4,0:0:0
256,192,79806,1,0,0:0:0
256,192,79916,1,0,0:0:0
256,192,80026,5,2,0:0:0
256,192,80357,1,2,0:0:0
256,192,80688,5,0,0:0:0
256,192,80909,5,2,0:0:0
256,192,81129,5,0,0:0:0
256,192,81350,1,4,0:0:0
256,192,81791,5,2,0:0:0
256,192,82122,1,2,0:0:0
256,192,82453,5,0,0:0:0
256,192,82673,5,2,0:0:0
256,192,82894,5,0,0:0:0
256,192,83115,1,4,0:0:0
256,192,83335,1,0,0:0:0
256,192,83556,5,2,0:0:0
256,192,83997,5,0,0:0:0
256,192,84218,5,2,0:0:0
256,192,84438,5,0,0:0:0
256,192,84548,1,0,0:0:0
256,192,84659,1,2,0:0:0
256,192,84879,1,4,0:0:0
