osu file format v10

[General]
AudioFilename: Theme of Hawkeye.mp3
AudioLeadIn: 2000
PreviewTime: 10762
Countdown: 0
SampleSet: Normal
StackLeniency: 0.7
Mode: 1
LetterboxInBreaks: 0

[Editor]
Bookmarks: -828
DistanceSpacing: 1.5
BeatDivisor: 4
GridSize: 4

[Metadata]
Title:Theme of Hawkeye
TitleUnicode:Theme of Hawkeye
Artist:Hideyuki Fukasawa
ArtistUnicode:Hideyuki Fukasawa
Creator:Roddie
Version:Taiko Kantan
Source:Ultimate Marvel vs. Capcom 3
Tags:fate of two worlds umvc3 clinton francis barton clint the avengers ronin playstation ps3 xbox 360 hybrid579
BeatmapID:191219
BeatmapSetID:51619

[Difficulty]
HPDrainRate:3
CircleSize:5
OverallDifficulty:3
ApproachRate:5
SliderMultiplier:1.4
SliderTickRate:1

[Events]
//Background and Video events
0,0,"Hotguy taiko bg.jpg"
//Break Periods
//Storyboard Layer 0 (Background)
//Storyboard Layer 1 (Fail)
//Storyboard Layer 2 (Pass)
//Storyboard Layer 3 (Foreground)
//Storyboard Sound Samples
//Background Colour Transformations
3,100,163,162,255

[TimingPoints]
174,441.176470588235,4,1,0,50,1,0
42526,-100,4,1,0,50,0,1
70762,-100,4,1,0,50,0,0

[Colours]
Combo1 : 128,255,255
Combo2 : 255,0,0

[HitObjects]
256,192,174,21,2,0:0:0
256,192,1056,5,0,0:0:0
256,192,1938,5,2,0:0:0
256,192,2821,5,0,0:0:0
256,192,3703,5,2,0:0:0
256,192,4585,5,0,0:0:0
256,192,5468,5,2,0:0:0
256,192,5909,5,0,0:0:0
256,192,6791,5,2,0:0:0
256,192,7232,1,2,0:0:0
256,192,7673,5,0,0:0:0
256,192,8556,1,0,0:0:0
256,192,8997,5,2,0:0:0
256,192,9438,5,0,0:0:0
256,192,10321,1,0,0:0:0
256,192,10762,5,2,0:0:0
256,192,11203,5,0,0:0:0
256,192,12085,5,2,0:0:0
256,192,12526,1,2,0:0:0
256,192,12968,5,0,0:0:0
256,192,13850,5,2,0:0:0
256,192,14291,5,0,0:0:0
256,192,14732,1,0,0:0:0
256,192,15615,5,2,0:0:0
256,192,16056,5,0,0:0:0
256,192,16497,1,0,0:0:0
256,192,17379,5,2,0:0:0
256,192,17821,5,0,0:0:0
256,192,18262,1,0,0:0:0
256,192,19144,5,2,0:0:0
256,192,19585,5,0,0:0:0
256,192,20026,1,0,0:0:0
256,192,20909,5,2,0:0:0
256,192,21350,1,2,0:0:0
256,192,21791,5,0,0:0:0
256,192,22673,5,2,0:0:0
256,192,23115,5,0,0:0:0
256,192,23556,1,0,0:0:0
256,192,24438,5,2,0:0:0
256,192,24879,1,2,0:0:0
256,192,25321,5,0,0:0:0
256,192,26203,5,2,0:0:0
256,192,26644,5,0,0:0:0
256,192,27526,5,2,0:0:0
256,192,27968,5,0,0:0:0
256,192,28409,1,0,0:0:0
256,192,29071,1,0,0:0:0
256,192,29732,5,2,0:0:0
256,192,30173,5,0,0:0:0
256,192,30835,1,0,0:0:0
256,192,31497,5,2,0:0:0
256,192,31938,1,2,0:0:0
256,192,32600,5,0,0:0:0
256,192,33262,1,0,0:0:0
256,192,33703,5,2,0:0:0
256,192,34144,5,0,0:0:0
256,192,34585,5,2,0:0:0
256,192,35468,5,0,0:0:0
256,192,36129,1,0,0:0:0
256,192,36791,5,2,0:0:0
256,192,37232,5,0,0:0:0
256,192,37894,1,0,0:0:0
256,192,38556,5,2,0:0:0
256,192,38997,1,2,0:0:0
256,192,39659,5,0,0:0:0
256,192,40321,5,2,0:0:0
256,192,40762,12,4,42526,0:0:0
256,192,42968,5,0,0:0:0
256,192,43409,5,2,0:0:0
256,192,43850,1,2,0:0:0
256,192,44732,5,0,0:0:0
256,192,45615,1,0,0:0:0
256,192,46056,5,2,0:0:0
256,192,46938,5,0,0:0:0
256,192,47379,5,2,0:0:0
256,192,47821,1,2,0:0:0
256,192,48482,1,2,0:0:0
256,192,49144,5,0,0:0:0
256,192,49585,5,2,0:0:0
264,192,50468,5,0,0:0:0
264,192,50909,5,2,0:0:0
264,192,51350,5,0,0:0:0
264,192,52232,1,0,0:0:0
264,192,52673,1,0,0:0:0
264,192,53115,5,2,0:0:0
264,192,53556,5,0,0:0:0
264,192,54218,5,2,0:0:0
264,192,54659,1,2,0:0:0
264,192,55100,5,0,0:0:0
264,192,55541,5,2,0:0:0
264,192,56644,1,2,0:0:0
264,192,57085,5,0,0:0:0
264,192,57526,1,0,0:0:0
264,192,57968,5,2,0:0:0
264,192,58850,5,0,0:0:0
264,192,59732,1,0,0:0:0
264,192,60173,5,2,0:0:0
264,192,61056,1,2,0:0:0
264,192,61497,1,2,0:0:0
264,192,61938,5,0,0:0:0
264,192,62600,1,0,0:0:0
264,192,63041,5,2,0:0:0
264,192,63703,5,0,0:0:0
264,192,64585,5,2,0:0:0
264,192,65026,1,2,0:0:0
264,192,65468,5,0,0:0:0
264,192,66350,1,0,0:0:0
264,192,66791,1,0,0:0:0
264,192,67232,5,2,0:0:0
264,192,67673,5,0,0:0:0
264,192,68335,5,2,0:0:0
264,192,68776,1,2,0:0:0
264,192,69218,1,2,0:0:0
264,192,69659,1,2,0:0:0
264,192,70100,5,0,0:0:0
264,192,70762,1,4,0:0:0
264,192,71644,1,0,0:0:0
264,192,72526,5,2,0:0:0
264,192,73409,5,0,0:0:0
264,192,74291,5,2,0:0:0
264,192,75173,5,0,0:0:0
264,192,76056,5,2,0:0:0
264,192,76497,5,0,0:0:0
264,192,76938,1,0,0:0:0
264,192,77379,5,2,0:0:0
264,192,77821,5,0,0:0:0
264,192,78262,5,2,0:0:0
264,192,79144,1,2,0:0:0
264,192,79585,5,0,0:0:0
264,192,80026,5,2,0:0:0
264,192,80909,1,2,0:0:0
264,192,81350,5,0,0:0:0
264,192,81791,5,2,0:0:0
264,192,82673,1,2,0:0:0
264,192,83115,5,0,0:0:0
264,192,83997,1,0,0:0:0
264,192,84438,5,2,0:0:0
264,192,84879,5,4,0:0:0
