osu file format v10

[General]
AudioFilename: Theme of Hawkeye.mp3
AudioLeadIn: 2000
PreviewTime: 10762
Countdown: 0
SampleSet: Normal
StackLeniency: 0.7
Mode: 1
LetterboxInBreaks: 0

[Editor]
Bookmarks: -828
DistanceSpacing: 1.5
BeatDivisor: 4
GridSize: 4

[Metadata]
Title:Theme of Hawkeye
TitleUnicode:Theme of Hawkeye
Artist:Hideyuki Fukasawa
ArtistUnicode:Hideyuki Fukasawa
Creator:Roddie
Version:Taiko Futsuu
Source:Ultimate Marvel vs. Capcom 3
Tags:fate of two worlds umvc3 clinton francis barton clint the avengers ronin playstation ps3 xbox 360 hybrid579
BeatmapID:174299
BeatmapSetID:51619

[Difficulty]
HPDrainRate:4
CircleSize:5
OverallDifficulty:4
ApproachRate:5
SliderMultiplier:1.4
SliderTickRate:1

[Events]
//Background and Video events
0,0,"Hotguy taiko bg.jpg"
//Break Periods
//Storyboard Layer 0 (Background)
//Storyboard Layer 1 (Fail)
//Storyboard Layer 2 (Pass)
//Storyboard Layer 3 (Foreground)
//Storyboard Sound Samples
//Background Colour Transformations
3,100,163,162,255

[TimingPoints]
174,441.176470588235,4,1,0,50,1,0
42526,-100,4,1,0,50,0,1
70762,-100,4,1,0,50,0,0

[Colours]
Combo1 : 128,255,255
Combo2 : 255,0,0

[HitObjects]
256,192,174,1,4,0:0:0
256,192,1056,1,0,0:0:0
256,192,1497,5,2,0:0:0
256,192,1718,5,0,0:0:0
256,192,1938,1,4,0:0:0
256,192,2821,1,0,0:0:0
256,192,3262,5,2,0:0:0
256,192,3482,5,0,0:0:0
256,192,3703,1,4,0:0:0
256,192,4144,5,2,0:0:0
256,192,4365,5,0,0:0:0
256,192,4806,5,2,0:0:0
256,192,5026,5,0,0:0:0
256,192,5247,5,2,0:0:0
256,192,5468,5,4,0:0:0
256,192,5909,1,0,0:0:0
256,192,6350,1,0,0:0:0
256,192,6791,5,2,0:0:0
256,192,7232,5,4,0:0:0
256,192,7673,1,0,0:0:0
256,192,8115,1,0,0:0:0
256,192,8556,5,2,0:0:0
256,192,8776,1,2,0:0:0
256,192,8997,5,4,0:0:0
256,192,9438,1,0,0:0:0
256,192,9879,1,0,0:0:0
256,192,10321,5,2,0:0:0
256,192,10541,5,0,0:0:0
256,192,10762,1,4,0:0:0
256,192,11203,1,0,0:0:0
256,192,11644,1,0,0:0:0
256,192,12085,5,2,0:0:0
256,192,12306,1,2,0:0:0
256,192,12526,5,4,0:0:0
256,192,12968,1,0,0:0:0
256,192,13409,1,0,0:0:0
256,192,13850,5,2,0:0:0
256,192,14291,5,0,0:0:0
256,192,14732,5,2,0:0:0
256,192,15173,5,0,0:0:0
256,192,15394,1,0,0:0:0
256,192,15615,5,2,0:0:0
256,192,16056,5,0,0:0:0
256,192,16497,5,2,0:0:0
256,192,17379,1,2,0:0:0
256,192,17821,5,0,0:0:0
256,192,18262,5,2,0:0:0
256,192,18703,5,0,0:0:0
256,192,18923,1,0,0:0:0
256,192,19144,5,2,0:0:0
256,192,19585,5,0,0:0:0
256,192,20026,1,0,0:0:0
256,192,20909,5,2,0:0:0
256,192,21350,5,0,0:0:0
256,192,21791,5,2,0:0:0
256,192,22232,5,0,0:0:0
256,192,22453,1,0,0:0:0
256,192,22673,5,2,0:0:0
256,192,23115,5,0,0:0:0
256,192,23556,1,2,0:0:0
256,192,24438,5,2,0:0:0
256,192,24879,5,0,0:0:0
256,192,25321,5,2,0:0:0
256,192,25541,5,0,0:0:0
256,192,25982,5,0,0:0:0
256,192,26203,5,2,0:0:0
256,192,26644,2,0,P|256:40,2,140
256,192,27968,1,0,0:0:0
256,192,28409,1,4,0:0:0
256,192,29071,1,0,0:0:0
256,192,29732,5,2,0:0:0
256,192,29953,5,0,0:0:0
256,192,30173,1,0,0:0:0
256,192,30835,1,0,0:0:0
256,192,31497,5,2,0:0:0
256,192,31718,5,0,0:0:0
256,192,31938,1,0,0:0:0
256,192,32600,1,0,0:0:0
256,192,33262,5,2,0:0:0
256,192,33482,1,2,0:0:0
256,192,33703,5,4,0:0:0
256,192,34144,1,0,0:0:0
256,192,34585,5,2,0:0:0
256,192,35468,5,0,0:0:0
256,192,36129,5,2,0:0:0
256,192,36791,5,0,0:0:0
256,192,37012,5,2,0:0:0
256,192,37232,5,0,0:0:0
256,192,37894,1,0,0:0:0
256,192,38556,5,2,0:0:0
256,192,38776,1,2,0:0:0
256,192,38997,5,0,0:0:0
256,192,39438,1,0,0:0:0
256,192,39659,1,2,0:0:0
256,192,40100,1,0,0:0:0
256,192,40321,5,2,0:0:0
256,192,40541,1,2,0:0:0
256,192,40762,12,4,42526,0:0:0
256,192,42968,5,0,0:0:0
256,192,43409,1,0,0:0:0
256,192,43850,5,2,0:0:0
256,192,44291,5,0,0:0:0
256,192,44732,1,0,0:0:0
256,192,44953,5,2,0:0:0
256,192,45394,1,2,0:0:0
256,192,46056,5,4,0:0:0
256,192,46497,1,0,0:0:0
256,192,46938,5,2,0:0:0
256,192,47379,5,0,0:0:0
256,192,47821,5,2,0:0:0
256,192,48262,5,0,0:0:0
256,192,48482,5,2,0:0:0
256,192,48923,1,2,0:0:0
256,192,49365,5,0,0:0:0
256,192,49585,1,4,0:0:0
256,192,50026,1,0,0:0:0
256,192,50468,5,2,0:0:0
256,192,50909,1,2,0:0:0
256,192,51350,1,2,0:0:0
256,192,51791,5,0,0:0:0
256,192,52012,5,2,0:0:0
256,192,52453,1,2,0:0:0
256,192,52894,5,0,0:0:0
256,192,53115,5,2,0:0:0
256,192,53556,5,0,0:0:0
256,192,53776,5,2,0:0:0
256,192,54218,1,2,0:0:0
256,192,54438,5,0,0:0:0
256,192,54659,1,0,0:0:0
256,192,55100,5,2,0:0:0
256,192,55541,5,0,0:0:0
256,192,55982,5,2,0:0:0
256,192,56203,5,0,0:0:0
256,192,56423,1,0,0:0:0
256,192,56644,1,4,0:0:0
256,192,57085,5,2,0:0:0
256,192,57526,5,0,0:0:0
256,192,57968,5,2,0:0:0
256,192,58409,5,0,0:0:0
256,192,58850,1,0,0:0:0
256,192,59071,5,2,0:0:0
256,192,59512,1,2,0:0:0
256,192,60173,5,4,0:0:0
256,192,60615,5,2,0:0:0
256,192,61056,1,2,0:0:0
256,192,61497,5,0,0:0:0
256,192,61938,5,2,0:0:0
256,192,62379,5,0,0:0:0
256,192,62600,5,2,0:0:0
256,192,63041,1,2,0:0:0
256,192,63482,5,0,0:0:0
256,192,63703,1,4,0:0:0
256,192,64144,5,2,0:0:0
256,192,64585,5,0,0:0:0
256,192,65026,5,2,0:0:0
256,192,65468,1,2,0:0:0
256,192,65909,5,0,0:0:0
256,192,66129,5,2,0:0:0
256,192,66571,5,0,0:0:0
256,192,67012,5,2,0:0:0
256,192,67232,1,2,0:0:0
256,192,67673,1,2,0:0:0
256,192,67894,1,2,0:0:0
256,192,68335,1,2,0:0:0
256,192,68556,1,2,0:0:0
256,192,68776,5,0,0:0:0
256,192,69218,5,2,0:0:0
256,192,69659,1,2,0:0:0
256,192,70100,5,0,0:0:0
256,192,70541,1,0,0:0:0
256,192,70762,1,4,0:0:0
256,192,71203,5,2,0:0:0
256,192,71644,5,0,0:0:0
256,192,72085,5,2,0:0:0
256,192,72306,1,0,0:0:0
256,192,72526,5,4,0:0:0
256,192,72968,5,2,0:0:0
256,192,73188,5,0,0:0:0
256,192,73629,5,2,0:0:0
256,192,73850,5,0,0:0:0
256,192,74071,1,0,0:0:0
256,192,74291,1,4,0:0:0
256,192,74732,1,2,0:0:0
256,192,75173,1,0,0:0:0
256,192,75615,5,2,0:0:0
256,192,75835,5,2,0:0:0
256,192,76056,1,4,0:0:0
256,192,76497,1,0,0:0:0
256,192,76938,5,2,0:0:0
256,192,77379,1,2,0:0:0
256,192,77600,5,0,0:0:0
256,192,77821,1,4,0:0:0
256,192,78262,5,2,0:0:0
256,192,78703,5,0,0:0:0
256,192,79144,5,2,0:0:0
256,192,79365,1,2,0:0:0
256,192,79585,5,4,0:0:0
256,192,80026,5,2,0:0:0
256,192,80468,5,0,0:0:0
256,192,80909,5,2,0:0:0
256,192,81129,5,0,0:0:0
256,192,81350,1,4,0:0:0
256,192,81791,5,2,0:0:0
256,192,82232,5,0,0:0:0
256,192,82673,5,2,0:0:0
256,192,82894,5,0,0:0:0
256,192,83115,1,4,0:0:0
256,192,83556,5,2,0:0:0
256,192,83997,5,0,0:0:0
256,192,84438,5,2,0:0:0
256,192,84659,1,2,0:0:0
256,192,84879,5,4,0:0:0
