osu file format v10

[General]
AudioFilename: Theme of Hawkeye.mp3
AudioLeadIn: 2000
PreviewTime: 10762
Countdown: 0
SampleSet: Normal
StackLeniency: 0.7
Mode: 0
LetterboxInBreaks: 0

[Editor]
DistanceSpacing: 0.8
BeatDivisor: 4
GridSize: 4

[Metadata]
Title:Theme of Hawkeye
TitleUnicode:Theme of Hawkeye
Artist:Hideyuki Fukasawa
ArtistUnicode:Hideyuki Fukasawa
Creator:Roddie
Version:Normal
Source:Ultimate Marvel vs. Capcom 3
Tags:fate of two worlds umvc3 clinton francis barton clint the avengers ronin playstation ps3 xbox 360 hybrid579
BeatmapID:158143
BeatmapSetID:51619

[Difficulty]
HPDrainRate:3
CircleSize:4
OverallDifficulty:4
ApproachRate:5
SliderMultiplier:1.2
SliderTickRate:1

[Events]
//Background and Video events
0,0,"Hotguy.jpg"
//Break Periods
//Storyboard Layer 0 (Background)
//Storyboard Layer 1 (Fail)
//Storyboard Layer 2 (Pass)
//Storyboard Layer 3 (Foreground)
//Storyboard Sound Samples
//Background Colour Transformations
3,100,163,162,255

[TimingPoints]
174,441.176470588235,4,1,0,50,1,0
504,-100,4,2,0,60,0,0
1938,-100,4,1,0,50,0,0
2269,-100,4,2,0,60,0,0
3703,-100,4,1,0,50,0,0
4034,-100,4,2,0,60,0,0
5468,-100,4,1,0,50,0,0
40762,-100,4,1,0,40,0,0
42526,-100,4,1,0,50,0,1
56589,-100,4,1,0,50,0,0
56644,-100,4,1,0,50,0,1
70762,-100,4,1,0,50,0,0
70982,-100,4,2,0,60,0,0
72526,-100,4,1,0,50,0,0
72747,-100,4,2,0,60,0,0
74181,-100,4,1,0,50,0,0
74512,-100,4,2,0,60,0,0
76056,-100,4,1,0,50,0,0

[Colours]
Combo1 : 203,129,243
Combo2 : 128,0,255
Combo3 : 182,166,73

[HitObjects]
96,100,174,1,4,0:0:0
172,156,615,1,0,0:0:0
220,72,1056,2,0,B|256:124|344:128,1,120,0|2,0:0|0:0,0:0:0
372,124,1718,2,4,B|400:152|384:188,1,60,4|4,0:0|0:0,0:0:0
320,248,2379,5,0,0:0:0
320,248,2600,2,0,B|264:284|184:240,1,120,0|2,0:0|0:0,0:0:0
160,232,3262,2,0,B|124:244|120:280,2,60,2|4|4,0:0|0:0|0:0,0:0:0
132,140,4144,5,0,0:0:0
204,76,4585,1,0,0:0:0
284,128,5026,1,2,0:0:0
292,80,5247,1,4,0:0:0
336,64,5468,1,4,0:0:0
400,136,5909,6,2,B|412:172|396:200,1,60
364,228,6350,2,0,B|356:260|324:280,1,60,0|2,0:0|0:0,0:0:0
296,308,6791,2,2,B|232:312|192:252,1,120,2|4,0:0|0:0,0:0:0
140,176,7673,5,8,0:0:0
236,160,8115,1,0,0:0:0
280,136,8335,1,0,0:0:0
288,88,8556,1,8,0:0:0
368,144,8997,5,4,0:0:0
352,240,9438,2,0,B|312:292|224:296,1,120,8|0,0:0|0:0,0:0:0
156,264,10321,1,8,0:0:0
164,168,10762,6,0,B|112:124|128:52,1,120,4|8,0:0|0:0,0:0:0
224,64,11644,2,0,B|272:104|344:92,1,120,0|8,0:0|0:0,0:0:0
376,68,12306,2,0,B|416:120,1,60,0|4,0:0|0:0,0:0:0
376,204,12968,6,0,B|376:268|324:316,1,120,2|2,0:0|0:0,0:0:0
256,248,13850,1,2,0:0:0
256,200,14071,1,0,0:0:0
256,152,14291,6,0,B|200:124|136:152,1,120,2|8,0:0|0:0,0:0:0
140,248,15173,2,0,B|136:288|100:300,2,60,0|0|2,0:0|0:0|0:0,0:0:0
236,260,16056,6,0,B|248:328|304:364,1,120,2|8,0:0|0:0,0:0:0
392,344,16938,2,0,B|436:296|412:228,1,120,0|2,0:0|0:0,0:0:0
348,160,17821,6,0,B|304:176|264:137|220:160,1,120,2|8,0:0|0:0,0:0:0
136,180,18703,2,0,B|144:220|128:240,2,60,0|0|2,0:0|0:0|0:0,0:0:0
128,84,19585,6,2,B|160:64|184:84,1,60
212,120,20026,2,2,B|252:124|272:100,1,60,2|2,0:0|0:0,0:0:0
308,80,20468,2,0,B|368:96|384:180,1,120,0|2,0:0|0:0,0:0:0
372,264,21350,6,0,B|304:264,1,60,2|2,0:0|0:0,0:0:0
288,224,21791,2,0,B|212:224,1,60,8|2,0:0|0:0,0:0:0
180,220,22232,2,0,B|148:224|140:264,2,60,0|0|2,0:0|0:0|0:0,0:0:0
140,132,23115,6,2,B|212:132,1,60,2|2,0:0|0:0,0:0:0
212,84,23556,2,0,B|288:84,1,60,8|2,0:0|0:0,0:0:0
320,84,23997,2,0,B|328:116|368:136,2,60,0|0|2,0:0|0:0|0:0,0:0:0
400,28,24879,6,0,B|424:88|484:116,1,120,2|8,0:0|0:0,0:0:0
452,204,25762,1,0,0:0:0
416,236,25982,1,0,0:0:0
368,232,26203,1,2,0:0:0
284,280,26644,6,0,B|312:344,2,60,2|0|8,0:0|0:0|0:0,0:0:0
192,312,27526,1,2,0:0:0
136,236,27968,1,8,0:0:0
156,192,28188,1,2,0:0:0
124,156,28409,1,4,0:0:0
128,60,28850,5,8,0:0:0
220,84,29291,1,0,0:0:0
268,72,29512,1,0,0:0:0
304,40,29732,1,8,0:0:0
360,120,30173,1,4,0:0:0
400,208,30615,5,8,0:0:0
384,252,30835,1,0,0:0:0
340,272,31056,1,0,0:0:0
244,268,31497,2,0,B|132:328,1,120,8|4,0:0|0:0,0:0:0
92,240,32379,5,8,0:0:0
112,196,32600,1,0,0:0:0
104,148,32821,2,0,B|232:136,1,120,0|8,0:0|0:0,0:0:0
300,80,33703,6,2,B|364:196,1,120,6|2,0:0|0:0,0:0:0
332,276,34585,1,2,0:0:0
288,300,34806,1,0,0:0:0
248,276,35026,1,2,0:0:0
172,340,35468,5,4,0:0:0
172,340,35688,2,0,B|104:236,1,120,0|8,0:0|0:0,0:0:0
80,200,36350,2,0,B|96:136|176:108,1,120,0|8,0:0|0:0,0:0:0
256,116,37232,5,4,0:0:0
308,196,37673,2,0,B|304:244|268:260,2,60,8|0|0,0:0|0:0|0:0,0:0:0
356,112,38556,2,0,B|396:168,1,60,8|0,0:0|0:0,0:0:0
412,204,38997,6,0,B|432:276|376:320,1,120,4|8,0:0|0:0,0:0:0
336,312,39659,2,0,B|264:304|208:340,1,120,0|0,0:0|0:0,0:0:0
176,356,40321,1,8,0:0:0
256,192,40762,12,4,42526,0:0:0
380,96,42968,6,0,B|408:224,2,120,2|2|2,0:0|0:0|0:0,0:0:0
292,64,44291,2,0,B|260:56|220:80,1,60,2|0,0:0|0:0,0:0:0
192,100,44732,2,0,B|164:120|120:112,1,60,8|2,0:0|0:0,0:0:0
56,172,45394,2,2,B|68:280|176:308,1,180,2|4,0:0|0:0,0:0:0
232,240,46497,6,0,B|356:240,2,120,2|2|2,0:0|0:0|0:0,0:0:0
188,156,47821,2,0,B|224:144|232:112,1,60,2|0,0:0|0:0,0:0:0
232,68,48262,2,0,B|260:52|292:68,1,60,8|2,0:0|0:0,0:0:0
360,132,48923,2,2,B|380:272,1,120,2|2,0:0|0:0,0:0:0
384,300,49585,1,4,0:0:0
292,320,50026,6,0,B|232:312|184:264,2,120,2|2|2,0:0|0:0|0:0,0:0:0
268,228,51350,2,0,B|228:216|208:176,1,60,2|0,0:0|0:0,0:0:0
192,152,51791,2,0,B|152:140|112:168,2,60,8|2|0,0:0|0:0|0:0,0:0:0
228,120,52453,2,2,P|360:104,1,120,2|0,0:0|0:0,0:0:0
396,104,53115,6,2,B|412:172|368:220,1,120,2|8,0:0|0:0,0:0:0
336,248,53776,2,0,B|284:272|212:244,1,120,2|2,0:0|0:0,0:0:0
172,248,54438,2,0,B|132:308,1,60,8|2,0:0|0:0,0:0:0
80,220,55100,2,0,B|128:176|112:100,1,120,2|2,0:0|0:0,0:0:0
200,68,55982,2,0,B|232:84|272:64,1,60,2|2,0:0|0:0,0:0:0
300,44,56423,2,0,B|332:40|364:56,1,60,2|4,0:0|0:0,0:0:0
356,148,57085,6,0,B|408:192|476:164,2,120,2|2|2,0:0|0:0|0:0,0:0:0
268,188,58409,2,0,B|244:252,1,60,2|0,0:0|0:0,0:0:0
224,288,58850,2,0,B|160:256,1,60,8|2,0:0|0:0,0:0:0
140,172,59512,2,2,B|204:96|300:112,1,180,2|4,0:0|0:0,0:0:0
380,164,60615,6,0,B|376:232|320:260,2,120,2|2|2,0:0|0:0|0:0,0:0:0
284,156,61938,2,0,B|292:192|256:208,1,60,2|0,0:0|0:0,0:0:0
224,240,62379,2,0,B|208:272|220:304,1,60,8|2,0:0|0:0,0:0:0
308,336,63041,2,2,B|440:336,1,120
476,336,63703,1,4,0:0:0
452,244,64144,6,0,B|431:192|471:160|452:112,2,120,2|2|2,0:0|0:0|0:0,0:0:0
356,228,65468,2,0,B|328:244|316:276,1,60,2|0,0:0|0:0,0:0:0
304,320,65909,2,0,B|280:356|248:348,1,60,8|2,0:0|0:0,0:0:0
160,332,66571,2,2,B|100:324|64:248,1,120
44,220,67232,6,2,B|144:136,1,120,2|8,0:0|0:0,0:0:0
172,112,67894,1,2,0:0:0
244,176,68335,2,0,B|240:212|284:240,2,60,2|8|2,0:0|0:0|0:0,0:0:0
316,112,69218,2,0,B|456:112,2,120,2|2|2,0:0|0:0|0:0,0:0:0
220,112,70541,1,2,0:0:0
220,112,70762,1,4,0:0:0
256,200,71203,6,0,B|324:224|368:168,1,120
352,76,72085,2,0,B|316:80|292:112,2,60,2|4|4,0:0|0:0|0:0,0:0:0
448,68,72968,6,0,B|448:204,1,120
440,284,73850,1,2,0:0:0
392,296,74071,1,4,0:0:0
348,276,74291,1,4,0:0:0
252,280,74732,6,0,B|184:280|152:216,1,120
152,124,75615,2,0,P|152:52,2,60,2|4|4,0:0|0:0|0:0,0:0:0
224,188,76497,5,2,0:0:0
304,240,76938,1,0,0:0:0
328,200,77159,1,0,0:0:0
372,176,77379,2,2,B|368:116|308:76,1,120,2|4,0:0|0:0,0:0:0
216,64,78262,5,2,0:0:0
216,64,78482,2,0,B|172:112|96:116,1,120,2|0,0:0|0:0,0:0:0
60,116,79144,2,2,B|24:172|40:248,1,120,2|4,0:0|0:0,0:0:0
112,288,80026,5,2,0:0:0
112,288,80247,2,0,B|180:276|240:308,1,120,2|0,0:0|0:0,0:0:0
276,320,80909,2,2,B|324:280|320:200,1,120,2|4,0:0|0:0,0:0:0
336,120,81791,5,2,0:0:0
336,120,82012,2,0,B|264:116|236:180,1,120,2|0,0:0|0:0,0:0:0
224,220,82673,2,2,B|176:268|108:232,1,120,2|4,0:0|0:0,0:0:0
160,156,83556,5,2,0:0:0
248,116,83997,1,0,0:0:0
340,148,84438,1,2,0:0:0
352,196,84659,1,0,0:0:0
364,244,84879,1,4,0:0:0
