osu file format v10

[General]
AudioFilename: Theme of Hawkeye.mp3
AudioLeadIn: 2000
PreviewTime: 10762
Countdown: 0
SampleSet: Normal
StackLeniency: 0.7
Mode: 0
LetterboxInBreaks: 0

[Editor]
DistanceSpacing: 1
BeatDivisor: 4
GridSize: 4

[Metadata]
Title:Theme of Hawkeye
TitleUnicode:Theme of Hawkeye
Artist:Hideyuki Fukasawa
ArtistUnicode:Hideyuki Fukasawa
Creator:Roddie
Version:Hard
Source:Ultimate Marvel vs. Capcom 3
Tags:fate of two worlds umvc3 clinton francis barton clint the avengers ronin playstation ps3 xbox 360 hybrid579
BeatmapID:158142
BeatmapSetID:51619

[Difficulty]
HPDrainRate:6
CircleSize:5
OverallDifficulty:7
ApproachRate:8
SliderMultiplier:1.8
SliderTickRate:1

[Events]
//Background and Video events
0,0,"Hotguy.jpg"
//Break Periods
//Storyboard Layer 0 (Background)
//Storyboard Layer 1 (Fail)
//Storyboard Layer 2 (Pass)
//Storyboard Layer 3 (Foreground)
//Storyboard Sound Samples
//Background Colour Transformations
3,100,163,162,255

[TimingPoints]
174,441.176470588235,4,1,0,50,1,0
504,-100,4,2,0,60,0,0
1938,-100,4,1,0,50,0,0
2269,-100,4,2,0,60,0,0
3703,-100,4,1,0,50,0,0
4034,-100,4,2,0,60,0,0
5468,-100,4,1,0,50,0,0
26644,-100,4,1,0,40,0,0
28188,-100,4,1,0,50,0,0
42526,-100,4,1,0,50,0,1
56589,-100,4,1,0,50,0,0
56644,-100,4,1,0,50,0,1
70762,-100,4,1,0,50,0,0
70982,-100,4,2,0,60,0,0
72416,-100,4,1,0,50,0,0
72747,-100,4,2,0,60,0,0
74181,-100,4,1,0,50,0,0
74512,-100,4,2,0,60,0,0
75946,-100,4,1,0,50,0,0

[Colours]
Combo1 : 203,129,243
Combo2 : 128,0,255
Combo3 : 182,166,73

[HitObjects]
376,112,174,2,2,B|304:136|240:112,1,135,4|0,0:0|0:0,0:0:0
148,64,835,2,0,B|116:216,1,135,0|0,0:0|0:0,0:0:0
100,304,1497,1,2,0:0:0
100,304,1718,1,4,0:0:0
224,260,1938,6,2,B|360:260,1,135,4|0,0:0|0:0,0:0:0
352,168,2600,2,0,B|304:184|264:144,1,90
212,104,3041,2,0,B|172:128,2,45,2|0|2,0:0|0:0|0:0,0:0:0
256,48,3482,1,4,0:0:0
120,52,3703,6,2,B|60:100|88:172,1,135,4|0,0:0|0:0,0:0:0
80,280,4365,1,0,0:0:0
168,344,4696,2,0,P|188:308|176:252,1,90
184,224,5026,2,0,P|272:252,1,90,2|4,0:0|0:0,0:0:0
256,116,5468,5,4,0:0:0
340,148,5688,2,0,B|328:208,2,45,2|0|2,0:0|0:0|0:0,0:0:0
384,68,6129,2,0,B|436:108,1,45,0|2,0:0|0:0,0:0:0
436,184,6460,2,0,B|416:228,1,45,0|2,0:0|0:0,0:0:0
356,292,6791,2,0,B|356:348,2,45,0|0|0,0:0|0:0|0:0,0:0:0
256,204,7232,6,2,B|152:220|116:112,1,180,4|8,0:0|0:0,0:0:0
208,108,7894,2,0,B|276:124|348:88,2,135,0|0|8,0:0|0:0|0:0,0:0:0
208,108,8776,1,0,0:0:0
256,236,8997,6,2,B|180:300|80:272,1,180,4|8,0:0|0:0,0:0:0
116,188,9659,1,0,0:0:0
76,108,9879,2,0,B|44:76,2,45,0|8|0,0:0|0:0|0:0,0:0:0
16,176,10321,1,8,0:0:0
52,256,10541,1,0,0:0:0
156,340,10762,6,2,P|216:336|264:280|256:208,1,180,4|8,0:0|0:0,0:0:0
256,124,11423,1,0,0:0:0
168,108,11644,1,0,0:0:0
140,192,11865,2,0,P|124:216|120:236,2,45,0|0|8,0:0|0:0|0:0,0:0:0
208,252,12306,1,0,0:0:0
284,140,12526,5,4,0:0:0
368,172,12747,2,0,B|380:120,2,45,2|0|2,0:0|0:0|0:0,0:0:0
440,228,13188,2,0,B|468:272,1,45,0|2,0:0|0:0,0:0:0
388,316,13519,2,0,B|364:360,1,45,2|0,0:0|0:0,0:0:0
316,280,13850,2,0,B|272:316,2,45,2|0|0,0:0|0:0|0:0,0:0:0
336,192,14291,6,0,B|280:200,1,45,2|0,0:0|0:0,0:0:0
248,196,14512,2,0,B|204:160,1,45,0|2,0:0|0:0,0:0:0
288,116,14843,2,0,B|268:64,1,45,2|0,0:0|0:0,0:0:0
256,32,15063,1,2,0:0:0
196,100,15284,2,2,B|128:136|64:84,1,135
52,176,15835,1,0,0:0:0
116,240,16056,6,0,B|140:260|140:288,1,45,2|0,0:0|0:0,0:0:0
168,312,16276,2,0,B|200:308|208:288,1,45,0|2,0:0|0:0,0:0:0
268,224,16607,2,0,B|320:260,1,45,2|0,0:0|0:0,0:0:0
344,272,16828,1,2,0:0:0
416,216,17049,2,2,B|292:132,1,135
216,132,17600,1,0,0:0:0
140,80,17821,6,0,B|112:128,1,45,2|0,0:0|0:0,0:0:0
136,160,18041,2,0,B|108:204,1,45,0|2,0:0|0:0,0:0:0
196,236,18372,2,0,B|216:284,1,45,2|0,0:0|0:0,0:0:0
228,320,18593,1,2,0:0:0
280,248,18813,2,2,B|340:220|328:112,1,135,2|2,0:0|0:0,0:0:0
240,128,19365,1,0,0:0:0
164,84,19585,6,0,B|108:84,3,45,2|0|2|0,0:0|0:0|0:0|0:0,0:0:0
92,120,20026,2,0,B|44:128,3,45,2|0|2|2,0:0|0:0|0:0|0:0,0:0:0
44,216,20578,2,0,B|184:216,1,135,2|2,0:0|0:0,0:0:0
268,216,21129,1,0,0:0:0
296,84,21350,5,2,0:0:0
296,84,21460,2,0,B|332:44,2,45,0|0|2,0:0|0:0|0:0,0:0:0
344,160,21901,2,0,B|356:192|332:216,2,45,2|0|2,0:0|0:0|0:0,0:0:0
412,100,22343,2,2,B|460:152|432:228,1,135
376,296,22894,1,0,0:0:0
288,316,23115,5,2,0:0:0
288,316,23225,2,0,B|248:356,2,45,0|0|2,0:0|0:0|0:0,0:0:0
256,232,23666,2,0,B|200:228,2,45,2|0|2,0:0|0:0|0:0,0:0:0
264,144,24107,2,2,B|120:144,1,135
156,56,24659,1,0,0:0:0
244,64,24879,6,0,B|312:76,1,45,2|0,0:0|0:0,0:0:0
332,84,25100,2,0,B|336:140,1,45,0|2,0:0|0:0,0:0:0
336,220,25431,2,0,B|288:244,1,45,0|0,0:0|0:0,0:0:0
256,256,25651,1,2,0:0:0
188,196,25872,2,2,B|196:276|124:324,1,135
76,248,26423,1,0,0:0:0
256,192,26644,12,2,28188,0:0:0
352,148,28409,5,4,0:0:0
320,64,28629,2,0,B|272:80|220:64,1,90,2|8,1:0|0:0,0:0:0
208,104,28960,2,0,B|164:200,1,90,2|0,0:0|0:0,0:0:0
204,216,29291,2,0,B|236:252|240:304,1,90,2|0,0:0|0:0,0:0:0
284,312,29622,2,0,B|428:296,1,135,2|2,0:0|0:0,0:0:0
432,160,30173,5,4,0:0:0
432,160,30394,2,0,B|380:172|332:132,1,90,2|8,0:0|0:0,0:0:0
304,164,30725,2,0,B|284:256,1,90,2|0,0:0|0:0,0:0:0
244,268,31056,2,0,B|192:272|164:316,1,90,2|0,0:0|0:0,0:0:0
124,300,31387,2,0,B|88:248|124:164,1,135,2|2,0:0|0:0,0:0:0
256,152,31938,5,4,0:0:0
256,152,32159,2,0,B|256:44,1,90,2|8,0:0|0:0,0:0:0
288,32,32490,2,0,B|332:4|384:40,1,90,2|0,0:0|0:0,0:0:0
400,68,32821,2,0,B|388:116|416:160,1,90,2|0,0:0|0:0,0:0:0
428,196,33151,2,0,B|368:220|336:304,1,135,2|2,0:0|0:0,0:0:0
216,240,33703,6,0,B|144:236|120:152,1,135,6|2,0:0|0:0,0:0:0
120,112,34144,2,0,B|208:112,1,90,0|0,0:0|0:0,0:0:0
296,84,34585,6,0,B|284:40,4,45,2|0|0|2|0,0:0|0:0|0:0|0:0|0:0,0:0:0
380,56,35247,1,0,0:0:0
376,192,35468,5,4,0:0:0
452,240,35688,2,0,B|408:264|404:324,1,90,2|8,0:0|0:0,0:0:0
372,340,36019,2,0,B|336:380|276:352,1,90,2|0,0:0|0:0,0:0:0
260,324,36350,2,0,B|204:324|180:372,1,90,2|0,0:0|0:0,0:0:0
140,352,36681,2,0,B|84:308|84:224,1,135,2|2,0:0|0:0,0:0:0
220,232,37232,5,4,0:0:0
260,152,37453,2,0,B|184:100,1,90,0|8,0:0|0:0,0:0:0
192,56,37784,2,0,B|224:16|296:12,1,90,2|0,0:0|0:0,0:0:0
300,48,38115,2,0,B|316:92|376:100,1,90,2|0,0:0|0:0,0:0:0
388,140,38446,2,0,B|380:208|320:256,1,135,2|2,0:0|0:0,0:0:0
224,344,38997,5,4,0:0:0
208,300,39107,1,0,0:0:0
164,316,39218,2,0,B|115:317|80:272,1,90,0|8,0:0|0:0,0:0:0
76,236,39548,2,0,B|43:212|56:144,1,90,2|0,0:0|0:0,0:0:0
92,132,39879,2,0,B|132:100|176:124,1,90,2|0,0:0|0:0,0:0:0
220,132,40210,2,0,B|288:124|272:80|336:56,1,135,2|2,0:0|0:0,0:0:0
364,192,40762,6,0,B|312:192,3,45,6|0|0|2,0:0|0:0|0:0|0:0,0:0:0
284,220,41203,2,0,B|240:220,3,45,0|2|2|0,0:0|0:0|0:0|0:0,0:0:0
148,224,41754,5,0,0:0:0
148,224,41865,1,2,0:0:0
248,312,42085,1,2,0:0:0
348,224,42306,1,2,0:0:0
252,132,42526,1,4,0:0:0
440,328,42968,5,2,0:0:0
252,220,43409,1,2,0:0:0
440,112,43850,1,2,0:0:0
172,80,44291,5,2,0:0:0
260,88,44512,1,0,0:0:0
324,152,44732,1,8,0:0:0
356,236,44953,2,0,B|296:268|236:240,1,90,2|0,0:0|0:0,0:0:0
236,280,45284,2,0,B|188:324,1,45,8|0,0:0|0:0,0:0:0
120,276,45615,1,8,0:0:0
160,196,45835,1,0,0:0:0
244,168,46056,1,4,0:0:0
44,348,46497,5,2,0:0:0
64,132,46938,1,2,0:0:0
248,244,47379,1,2,0:0:0
408,28,47821,5,2,0:0:0
340,84,48041,1,0,0:0:0
412,140,48262,2,0,P|392:180|420:236,1,90,8|2,0:0|0:0,0:0:0
388,264,48593,2,0,P|308:304,1,90,8|8,0:0|0:0,0:0:0
264,320,48923,1,0,0:0:0
172,320,49144,2,0,B|124:320,4,45,8|0|0|0|4,0:0|0:0|0:0|0:0|0:0,0:0:0
256,64,50026,5,2,0:0:0
104,216,50468,1,2,0:0:0
316,260,50909,1,2,0:0:0
64,352,51350,5,2,0:0:0
156,352,51571,1,0,0:0:0
224,292,51791,1,8,0:0:0
296,240,52012,2,2,B|324:116,1,90,2|0,0:0|0:0,0:0:0
324,108,52343,2,0,B|268:108,1,45,8|0,0:0|0:0,0:0:0
188,108,52673,1,8,0:0:0
96,108,52894,1,0,0:0:0
200,192,53115,6,2,P|293:206|384:192,1,180,2|8,0:0|0:0,0:0:0
377,194,53776,1,2,0:0:0
108,216,54218,1,2,0:0:0
92,349,54438,1,8,0:0:0
213,287,54659,1,2,0:0:0
356,60,55100,5,2,0:0:0
356,60,55321,2,0,B|368:108,1,45,8|0,0:0|0:0,0:0:0
376,192,55651,2,0,B|328:208,1,45,8|0,0:0|0:0,0:0:0
264,88,55982,5,2,0:0:0
224,216,56203,1,2,0:0:0
96,172,56423,1,2,0:0:0
140,44,56644,1,4,0:0:0
304,120,57085,5,2,0:0:0
328,336,57526,1,2,0:0:0
128,256,57968,1,2,0:0:0
392,208,58409,6,0,B|340:196|308:236,1,90,2|0,0:0|0:0,0:0:0
252,300,58850,1,8,0:0:0
240,212,59071,1,2,0:0:0
224,124,59291,2,0,B|196:136|192:172,2,45,0|8|0,0:0|0:0|0:0,0:0:0
312,140,59732,1,8,0:0:0
224,124,59953,1,0,0:0:0
284,56,60173,1,4,0:0:0
284,328,60615,5,2,0:0:0
332,116,61056,1,2,0:0:0
132,196,61497,1,2,0:0:0
400,200,61938,5,2,0:0:0
488,220,62159,1,0,0:0:0
460,136,62379,1,8,0:0:0
476,48,62600,2,2,B|416:28|364:40,1,90,2|0,0:0|0:0,0:0:0
344,48,62931,2,0,B|324:92,1,45,8|0,0:0|0:0,0:0:0
284,168,63262,2,0,B|264:212,4,45,8|0|0|0|4,0:0|0:0|0:0|0:0|0:0,0:0:0
48,40,64144,5,2,0:0:0
52,256,64585,1,2,0:0:0
228,132,65026,1,2,0:0:0
460,268,65468,5,2,0:0:0
392,212,65688,1,0,0:0:0
304,196,65909,1,8,0:0:0
228,244,66129,1,2,0:0:0
300,300,66350,2,0,B|328:312|352:296,2,45,0|8|0,0:0|0:0|0:0,0:0:0
220,340,66791,1,8,0:0:0
128,336,67012,1,0,0:0:0
48,228,67232,6,2,B|140:188|180:92,1,180,2|8,0:0|0:0,0:0:0
174,105,67894,1,2,0:0:0
376,284,68335,1,2,0:0:0
260,216,68556,1,8,0:0:0
260,216,68776,2,0,B|192:220|208:344|108:336,1,180,2|2,0:0|0:0,0:0:0
88,256,69438,6,0,B|136:236,1,45,8|0,0:0|0:0,0:0:0
100,152,69769,2,0,B|44:172,1,45,8|0,0:0|0:0,0:0:0
44,80,70100,2,2,B|96:40|168:60|192:132,1,180
308,192,70762,5,4,0:0:0
308,192,71093,2,0,B|304:260|224:300,2,135
200,196,72085,1,2,0:0:0
136,164,72306,1,4,0:0:0
204,48,72526,5,4,0:0:0
204,48,72857,2,0,B|348:48,1,135
380,148,73519,2,0,B|376:196|320:228,1,90,0|0,0:0|0:0,0:0:0
300,232,73850,2,0,P|268:264|256:312,1,90,2|4,0:0|0:0,0:0:0
256,172,74291,5,4,0:0:0
188,256,74622,2,0,B|120:232|112:128,1,135
188,144,75173,1,2,0:0:0
188,72,75394,2,0,B|124:72,2,45,2|0|2,0:0|0:0|0:0,0:0:0
260,72,75835,1,4,0:0:0
284,204,76056,5,4,0:0:0
340,276,76276,2,0,B|338:302|300:328,2,45,2|0|2,0:0|0:0|0:0,0:0:0
420,232,76718,2,0,B|452:196,1,45,2|0,0:0|0:0,0:0:0
396,128,77048,2,0,B|360:164,1,45,2|0,0:0|0:0,0:0:0
332,76,77379,2,0,B|316:36,2,45,2|0|0,0:0|0:0|0:0,0:0:0
256,188,77821,5,4,0:0:0
168,164,78041,1,0,0:0:0
148,204,78151,1,0,0:0:0
112,232,78262,2,2,B|124:288|180:304,1,90,2|0,0:0|0:0,0:0:0
204,272,78593,2,2,B|248:248|308:276,1,90,2|0,0:0|0:0,0:0:0
328,292,78923,2,0,B|376:288|396:236,1,90,0|2,0:0|0:0,0:0:0
436,160,79365,2,0,B|348:160,1,90,0|4,0:0|0:0,0:0:0
340,24,79806,5,0,0:0:0
296,32,79916,1,0,0:0:0
272,72,80026,2,0,B|252:112|192:120,1,90,2|0,0:0|0:0,0:0:0
156,128,80357,2,0,B|140:224,1,90,2|0,0:0|0:0,0:0:0
140,264,80688,2,0,B|164:308,5,45,0|0|2|0|0|0,0:0|0:0|0:0|0:0|0:0|0:0,0:0:0
184,340,81350,6,0,B|236:360|288:300,1,90,4|0,0:0|0:0,0:0:0
300,292,81681,1,0,0:0:0
340,316,81791,2,0,B|388:316|420:276,1,90,2|0,0:0|0:0,0:0:0
412,232,82122,2,0,B|440:132,1,90,2|0,0:0|0:0,0:0:0
404,116,82453,2,0,B|364:104|340:56,1,90,0|2,0:0|0:0,0:0:0
256,84,82894,1,0,0:0:0
256,220,83115,5,4,0:0:0
256,220,83335,2,0,B|272:268,2,45,2|0|2,0:0|0:0|0:0,0:0:0
184,168,83776,2,0,B|128:148,1,45,2|0,0:0|0:0,0:0:0
156,240,84107,2,0,B|112:256,1,45,2|0,0:0|0:0,0:0:0
168,328,84438,2,0,B|136:360,2,45,2|0|0,0:0|0:0|0:0,0:0:0
256,352,84879,1,4,0:0:0
