osu file format v10

[General]
AudioFilename: Theme of Hawkeye.mp3
AudioLeadIn: 2000
PreviewTime: 10762
Countdown: 0
SampleSet: Normal
StackLeniency: 0.7
Mode: 0
LetterboxInBreaks: 0

[Editor]
DistanceSpacing: 0.8
BeatDivisor: 4
GridSize: 4

[Metadata]
Title:Theme of Hawkeye
TitleUnicode:Theme of Hawkeye
Artist:Hideyuki Fukasawa
ArtistUnicode:Hideyuki Fukasawa
Creator:Roddie
Version:Easy
Source:Ultimate Marvel vs. Capcom 3
Tags:fate of two worlds umvc3 clinton francis barton clint the avengers ronin playstation ps3 xbox 360 hybrid579
BeatmapID:158326
BeatmapSetID:51619

[Difficulty]
HPDrainRate:2
CircleSize:3
OverallDifficulty:2
ApproachRate:3
SliderMultiplier:0.9
SliderTickRate:1

[Events]
//Background and Video events
0,0,"Hotguy.jpg"
//Break Periods
//Storyboard Layer 0 (Background)
//Storyboard Layer 1 (Fail)
//Storyboard Layer 2 (Pass)
//Storyboard Layer 3 (Foreground)
//Storyboard Sound Samples
//Background Colour Transformations
3,100,163,162,255

[TimingPoints]
174,441.176470588235,4,1,0,50,1,0
504,-100,4,2,0,60,0,0
1938,-100,4,1,0,50,0,0
2269,-100,4,2,0,60,0,0
3703,-100,4,1,0,50,0,0
4034,-100,4,2,0,60,0,0
5468,-100,4,1,0,50,0,0
40762,-100,4,1,0,40,0,0
42526,-100,4,1,0,50,0,1
56589,-100,4,1,0,50,0,0
56644,-100,4,1,0,50,0,1
70762,-100,4,1,0,50,0,0
70982,-100,4,2,0,60,0,0
72526,-100,4,1,0,50,0,0
72747,-100,4,2,0,60,0,0
74291,-100,4,1,0,50,0,0
74512,-100,4,2,0,60,0,0
76056,-100,4,1,0,50,0,0

[Colours]
Combo1 : 203,129,243
Combo2 : 128,0,255
Combo3 : 182,166,73

[HitObjects]
372,76,174,1,4,0:0:0
368,148,615,2,0,B|360:204|308:228,1,90
252,244,1497,2,0,B|204:248|168:204,1,90,2|4,0:0|0:0,0:0:0
112,168,2379,6,0,B|44:232,1,90
64,300,3262,2,0,B|124:300|144:340,1,90,2|4,0:0|0:0,0:0:0
212,332,4144,6,0,B|300:332,1,90
368,300,5026,2,0,B|404:216,1,90,2|4,0:0|0:0,0:0:0
428,148,5909,5,2,0:0:0
356,148,6350,1,0,0:0:0
288,124,6791,2,0,B|236:120|212:72,1,90,2|4,0:0|0:0,0:0:0
148,100,7673,6,0,B|144:152|96:176,1,90,8|0,0:0|0:0,0:0:0
60,232,8556,2,0,B|36:280|48:320,1,90,8|4,0:0|0:0,0:0:0
116,340,9438,6,0,B|212:340,1,90,8|0,0:0|0:0,0:0:0
272,308,10321,2,0,B|364:308,1,90,8|4,0:0|0:0,0:0:0
412,256,11203,6,0,B|380:220|400:168,1,90,8|0,0:0|0:0,0:0:0
376,104,12085,2,0,B|328:120|288:84,1,90,8|4,0:0|0:0,0:0:0
236,132,12968,5,2,0:0:0
212,200,13409,1,0,0:0:0
140,188,13850,1,2,0:0:0
112,256,14291,6,0,B|176:352|176:352|248:304|332:332,1,270,2|2,0:0|0:0,0:0:0
348,260,16056,2,0,B|284:164|284:164|212:212|128:184,1,270,2|2,0:0|0:0,0:0:0
76,228,17821,6,0,B|75:296|125:360|207:375|272:347,1,270,2|2,0:0|0:0,0:0:0
340,328,19585,2,0,B|372:140,1,180,2|0,0:0|0:0,0:0:0
384,80,20909,1,2,0:0:0
316,56,21350,6,0,B|236:124|132:32|52:88,1,270,2|2,0:0|0:0,0:0:0
44,156,23115,2,0,B|43:231|43:231|43:287|67:327|119:327|119:327|183:327,1,270,2|2,0:0|0:0,0:0:0
236,288,24879,6,0,B|300:248|380:300|380:300|432:188,1,270,2|2,0:0|0:0,0:0:0
432,124,26644,2,0,B|332:124,1,90,2|8,0:0|0:0,0:0:0
272,124,27526,2,0,B|256:216,1,90,2|8,0:0|0:0,0:0:0
248,284,28409,6,0,B|172:312|104:252,2,135,4|0|8,0:0|0:0|0:0,0:0:0
256,212,30173,2,0,B|332:184|400:244,2,135,4|0|8,0:0|0:0|0:0,0:0:0
244,140,31938,2,0,B|168:168|100:108,2,135,4|0|8,0:0|0:0|0:0,0:0:0
308,108,33703,5,6,0:0:0
376,132,34144,2,0,B|400:236,1,90,2|2,0:0|0:0,0:0:0
412,292,35026,1,2,0:0:0
340,292,35468,6,0,B|268:288|224:352,2,135,4|0|8,0:0|0:0|0:0,0:0:0
332,220,37232,2,0,B|252:200|192:244,2,135,4|0|8,0:0|0:0|0:0,0:0:0
336,148,38997,2,0,B|264:108|192:128,2,135,0|0|8,0:0|0:0|0:0,0:0:0
256,192,40762,12,4,42526,0:0:0
176,106,43409,6,0,B|220:88|264:112,1,90,2|2,0:0|0:0,0:0:0
328,140,44291,1,2,0:0:0
368,200,44732,2,0,B|352:248,1,45,8|2,0:0|0:0,0:0:0
324,308,45394,2,2,B|256:292|188:348,1,135,2|4,0:0|0:0,0:0:0
128,324,46497,6,0,B|80:304|84:244,2,90,2|2|2,0:0|0:0|0:0,0:0:0
164,252,47821,1,2,0:0:0
232,224,48262,2,0,B|228:172,1,45,8|2,0:0|0:0,0:0:0
224,108,48923,2,2,B|364:108,1,135,2|4,0:0|0:0,0:0:0
432,108,50026,6,0,B|451:151|432:216,2,90,2|2|2,0:0|0:0|0:0,0:0:0
360,104,51350,1,2,0:0:0
292,132,51791,2,0,B|280:188,1,45,8|2,0:0|0:0,0:0:0
264,244,52453,2,2,B|204:292|132:288,1,135
92,236,53556,6,0,B|80:180,1,45,8|2,0:0|0:0,0:0:0
68,120,54218,2,0,B|164:92,1,90,2|2,0:0|0:0,0:0:0
224,84,55100,2,0,B|280:156,1,90,2|2,0:0|0:0,0:0:0
308,220,55982,2,2,B|260:284|188:268,1,135,2|4,0:0|0:0,0:0:0
120,248,57085,6,0,B|68:240|36:280,2,90,2|2|2,0:0|0:0|0:0,0:0:0
188,228,58409,2,2,B|136:168|148:92,1,135,2|2,0:0|0:0,0:0:0
216,84,59512,2,2,B|268:140|264:212,1,135,2|4,0:0|0:0,0:0:0
296,272,60615,6,0,B|304:324|356:348,2,90,2|2|2,0:0|0:0|0:0,0:0:0
344,220,61938,1,2,0:0:0
312,156,62379,2,0,B|264:184,1,45,8|2,0:0|0:0,0:0:0
220,228,63041,2,2,B|148:240|88:168,1,135,2|4,0:0|0:0,0:0:0
92,108,64144,6,0,B|28:32,2,90,2|2|2,0:0|0:0|0:0,0:0:0
164,96,65468,2,2,B|232:76|300:120,1,135,2|2,0:0|0:0,0:0:0
336,176,66571,1,2,0:0:0
280,220,67012,6,0,B|260:268,1,45,0|2,0:0|0:0,0:0:0
212,312,67673,2,0,B|160:308,1,45,8|2,0:0|0:0,0:0:0
96,288,68335,2,0,B|52:192,1,90,2|2,0:0|0:0,0:0:0
52,136,69218,2,0,B|48:92|84:52,1,90,2|2,0:0|0:0,0:0:0
152,60,70100,2,2,B|300:60,1,135,2|4,0:0|0:0,0:0:0
312,128,71203,6,0,B|339:174|312:228,1,90
276,272,72085,2,0,B|232:288|220:340,1,90,2|4,0:0|0:0,0:0:0
148,324,72968,6,0,B|92:248,1,90
116,184,73850,2,0,B|148:144|144:88,1,90,2|4,0:0|0:0,0:0:0
208,68,74732,6,0,B|304:68,1,90
372,68,75615,1,2,0:0:0
380,140,76056,6,0,B|400:240,1,90,4|2,0:0|0:0,0:0:0
360,288,76938,2,0,B|340:336|296:352,1,90,0|2,0:0|0:0,0:0:0
236,320,77821,5,4,0:0:0
164,308,78262,2,8,P|93:278|69:200|91:134|166:94,1,270,2|4,0:0|0:0,0:0:0
236,96,80026,6,8,P|308:134|330:200|306:278|235:308,1,270,2|4,0:0|0:0,0:0:0
164,308,81791,2,0,P|96:308|48:256|64:188,1,180,2|2,0:0|0:0,0:0:0
76,120,83115,6,0,P|180:128,1,90,4|2,0:0|0:0,0:0:0
220,80,83997,2,0,P|324:84,1,90,0|2,0:0|0:0,0:0:0
380,84,84879,1,4,0:0:0
