osu file format v11

[General]
AudioFilename: Theme of Felicia.mp3
AudioLeadIn: 2000
PreviewTime: 11975
Countdown: 0
SampleSet: Soft
StackLeniency: 0.7
Mode: 0
LetterboxInBreaks: 0

[Editor]
DistanceSpacing: 1
BeatDivisor: 4
GridSize: 4

[Metadata]
Title:Theme of Felicia ~ U.S.A.
TitleUnicode:Theme of Felicia ~ U.S.A.
Artist:Hideyuki Fukasawa
ArtistUnicode:Hideyuki Fukasawa
Creator:Gabe
Version:Normal
Source:Marvel vs. Capcom 3: Fate of Two Worlds
Tags:Ultimate Takayuki Iwai Hideki Okugawa playstation ps3 xbox 360 Roddie hybrid579 United States of America Danceclub mancusojuanmattos
BeatmapID:198765
BeatmapSetID:68776

[Difficulty]
HPDrainRate:4
CircleSize:3
OverallDifficulty:4
ApproachRate:5
SliderMultiplier:1.5
SliderTickRate:2

[Events]
//Background and Video events
0,0,"Theme of Felicia.jpg"
//Break Periods
//Storyboard Layer 0 (Background)
//Storyboard Layer 1 (Fail)
//Storyboard Layer 2 (Pass)
//Storyboard Layer 3 (Foreground)
//Storyboard Sound Samples
//Background Colour Transformations
3,100,163,162,255

[TimingPoints]
19,434.782608695652,4,2,1,50,1,0
10453,-100,4,2,1,40,0,0
11323,-100,4,2,1,35,0,0
12192,-100,4,2,1,50,0,0
17410,-100,4,2,1,35,0,0
18714,-100,4,2,1,40,0,0
19149,-100,4,2,1,50,0,0
24366,-100,4,2,1,35,0,0
25236,-100,4,2,1,40,0,0
26105,-100,4,2,1,50,0,0
26214,-100,4,2,1,35,0,0
29584,-100,4,2,1,50,0,0
29692,-100,4,2,1,20,0,0
31323,-100,4,2,1,25,0,0
31758,-100,4,2,1,30,0,0
32192,-100,4,2,1,35,0,0
32627,-100,4,2,1,40,0,0
33062,-100,4,2,1,50,0,1
38279,-100,4,2,1,35,0,1
39149,-100,4,2,1,40,0,1
40018,-100,4,2,1,50,0,1
48605,-100,4,2,1,50,0,0
48714,-100,4,2,1,50,0,1
48823,-100,4,2,1,50,0,0
51323,-100,4,2,1,30,0,0
51432,-100,4,2,1,50,0,0
52192,-100,4,2,1,40,0,0
52627,-100,4,2,1,50,0,0
54366,-100,4,2,1,40,0,0
56540,-100,4,2,1,50,0,0
57410,-100,4,2,1,40,0,0
57845,-100,4,2,1,50,0,0
58279,-100,4,2,1,40,0,0
61323,-100,4,2,1,30,0,0
62192,-100,4,2,1,40,0,0
62627,-100,4,2,1,50,0,0

[Colours]
Combo1 : 196,116,240
Combo2 : 190,237,252
Combo3 : 209,82,120

[HitObjects]
168,56,19,2,0,P|132:120|168:180,2,150,2|0|0,0:0|0:0|0:0,0:0:0
304,116,1323,2,0,P|336:152|340:188,1,75
328,256,1758,6,0,P|400:228|412:144,2,150,2|0|0,0:0|0:0|0:0,0:0:0
188,204,3062,2,0,P|152:216|124:244,1,75
60,200,3497,6,0,P|140:136|192:128,2,150,2|0|0,0:0|0:0|0:0,0:0:0
144,324,4801,2,0,P|216:360,1,75
256,292,5236,6,0,P|408:372,2,150,2|0|0,0:0|0:0|0:0,0:0:0
256,140,6540,2,0,P|224:108|176:92,1,75
124,100,6975,5,2,0:0:0
12,192,7410,1,0,0:0:0
148,244,7845,1,0,0:0:0
148,244,8279,2,0,P|172:332,1,75
240,340,8714,6,0,P|312:332|376:372,2,150,2|0|0,0:0|0:0|0:0,0:0:0
92,356,10018,1,0,0:0:0
76,208,10453,6,0,P|76:80|164:88,1,225,2|0,0:0|0:0,0:0:0
212,112,11323,2,0,P|212:340,1,225,2|0,0:0|0:0,0:0:0
280,372,12192,1,4,0:0:0
420,108,13062,5,0,0:0:0
284,172,13497,1,2,1:2:0
412,252,13932,2,0,P|404:320|312:328,1,150,0|2,0:0|1:2,0:0:0
184,340,14801,2,0,P|113:319|105:251,1,150,0|2,0:0|1:2,0:0:0
228,172,15671,5,0,0:0:0
84,216,16105,2,0,P|56:280|80:352,2,150,0|0|0,1:2|0:0|1:2,0:0:0
228,256,17410,2,0,P|356:324|484:256,2,300,0|0|4,0:0|0:0|0:0,0:0:0
32,28,20018,6,0,P|8:96|32:168,1,150,0|2,0:0|1:2,0:0:0
172,112,20888,2,0,P|228:244|128:352,2,300
52,24,23062,5,0,1:2:0
4,164,23497,1,0,0:0:0
76,296,23932,1,2,1:2:0
192,192,24366,2,0,P|252:252|420:148|488:204,2,300,0|0|4,0:0|0:0|0:0,0:0:0
452,40,26975,5,0,0:0:0
308,88,27410,1,0,1:2:0
196,192,27845,2,0,P|188:320|316:288,2,300,0|0|4,0:0|0:0|0:0,0:0:0
452,40,30453,5,0,1:0:0
256,192,31323,12,4,33062,0:0:0
256,120,33932,6,0,P|256:240,2,112.5,0|2|2,0:0|1:2|0:0,0:0:0
308,64,34801,2,0,P|384:84|404:164,2,150,0|2|0,0:0|1:2|0:0,0:0:0
164,100,36105,1,2,1:2:0
144,248,36540,5,2,0:0:0
436,324,37410,2,0,P|480:240|376:208|436:108,1,225
404,40,38279,2,0,P|296:88|364:236,2,300,0|2|4,0:0|0:0|0:0,0:0:0
460,336,40888,5,0,0:0:0
312,316,41323,1,2,1:2:0
208,208,41758,2,0,P|176:336|60:264,2,300,0|2|0,0:0|0:0|0:0,0:0:0
464,48,44366,5,0,0:0:0
412,188,44801,1,0,1:2:0
264,208,45236,2,0,P|244:284|416:332,1,300,0|2,0:0|0:0,0:0:0
464,48,46975,5,2,0:0:0
400,184,47410,1,2,1:2:0
256,144,47845,2,0,P|256:20,2,112.5,0|2|2,1:0|1:2|1:2,0:0:0
256,220,48714,5,4,0:0:0
160,336,49149,1,0,1:2:0
68,216,49584,2,0,P|-16:216,2,75,0|0|0,0:0|0:0|1:2,0:0:0
164,100,50453,2,0,P|296:140|292:16,1,300,2|4,0:0|0:0,0:0:0
64,232,52192,5,0,0:0:0
176,332,52627,1,0,1:0:0
328,328,53062,1,0,0:0:0
444,232,53497,2,0,P|404:160|444:116,1,150,0|0,1:0|0:0,0:0:0
308,52,54366,2,0,P|296:164|52:80,1,450,0|0,1:0|0:0,0:0:0
292,284,56540,6,0,P|220:308|140:308,2,150,0|0|0,0:0|1:2|0:0,0:0:0
392,172,57845,1,0,1:2:0
312,44,58279,2,0,P|260:92|260:196,1,150,0|0,0:0|1:2,0:0:0
368,260,59149,6,0,P|180:272|132:64,2,412.5,0|2|0,0:0|0:0|0:0,0:0:0
460,52,62192,5,0,1:0:0
460,52,62627,1,4,0:0:0
