osu file format v11

[General]
AudioFilename: Theme of Felicia.mp3
AudioLeadIn: 2000
PreviewTime: 11975
Countdown: 0
SampleSet: Soft
StackLeniency: 0.7
Mode: 0
LetterboxInBreaks: 0

[Editor]
DistanceSpacing: 0.9
BeatDivisor: 4
GridSize: 4

[Metadata]
Title:Theme of Felicia ~ U.S.A.
TitleUnicode:Theme of Felicia ~ U.S.A.
Artist:Hideyuki Fukasawa
ArtistUnicode:Hideyuki Fukasawa
Creator:Gabe
Version:Hard
Source:Marvel vs. Capcom 3: Fate of Two Worlds
Tags:Ultimate Takayuki Iwai Hideki Okugawa playstation ps3 xbox 360 Roddie hybrid579 United States of America Danceclub mancusojuanmattos
BeatmapID:198762
BeatmapSetID:68776

[Difficulty]
HPDrainRate:6
CircleSize:4
OverallDifficulty:6
ApproachRate:7
SliderMultiplier:1.8
SliderTickRate:2

[Events]
//Background and Video events
0,0,"Theme of Felicia.jpg"
//Break Periods
//Storyboard Layer 0 (Background)
//Storyboard Layer 1 (Fail)
//Storyboard Layer 2 (Pass)
//Storyboard Layer 3 (Foreground)
//Storyboard Sound Samples
//Background Colour Transformations
3,100,163,162,255

[TimingPoints]
19,434.782608695652,4,2,1,50,1,0
10453,-100,4,2,1,20,0,0
11323,-100,4,2,1,35,0,0
12192,-100,4,2,1,50,0,0
17410,-100,4,2,1,35,0,0
18714,-100,4,2,1,40,0,0
19149,-100,4,2,1,50,0,0
24366,-100,4,2,1,35,0,0
25236,-100,4,2,1,40,0,0
26105,-100,4,2,1,50,0,0
26214,-100,4,2,1,40,0,0
29584,-100,4,2,1,50,0,0
29692,-100,4,2,1,40,0,0
31323,-100,4,2,1,25,0,0
31758,-100,4,2,1,30,0,0
32192,-100,4,2,1,35,0,0
32627,-100,4,2,1,40,0,0
33062,-100,4,2,1,50,0,1
38279,-100,4,2,1,35,0,1
39149,-100,4,2,1,40,0,1
40018,-100,4,2,1,50,0,1
48605,-100,4,2,1,50,0,0
48714,-100,4,2,1,50,0,1
48823,-100,4,2,1,50,0,0
51323,-100,4,2,1,30,0,0
51432,-100,4,2,1,50,0,0
54801,-100,4,2,1,30,0,0
54910,-100,4,2,1,50,0,0
60453,-100,4,2,1,40,0,0
61323,-100,4,2,1,30,0,0
62192,-100,4,2,1,40,0,0
62627,-100,4,2,1,50,0,0

[Colours]
Combo1 : 196,116,240
Combo2 : 190,237,252
Combo3 : 209,82,120

[HitObjects]
112,40,19,1,2,0:0:0
56,192,453,1,0,0:0:0
216,184,888,1,0,0:0:0
160,336,1323,1,0,0:0:0
232,368,1540,1,0,0:0:0
304,332,1758,2,0,P|368:272|448:300,2,180,2|0|0,0:0|0:0|0:0,0:0:0
484,192,3062,1,0,0:0:0
480,192,3170,1,0,0:0:0
476,192,3279,1,0,0:0:0
388,180,3497,6,0,P|308:207|244:147,2,180,2|0|0,0:0|0:0|0:0,0:0:0
272,64,4801,2,0,P|308:92|324:132,1,90
256,268,5236,1,2,0:0:0
108,204,5671,1,0,0:0:0
208,332,6105,1,0,0:0:0
180,172,6540,1,0,0:0:0
192,92,6758,1,0,0:0:0
272,104,6975,6,0,P|452:112,2,180,2|0|0,0:0|0:0|0:0,0:0:0
124,36,8279,2,0,P|104:80|112:128,1,90
176,260,8714,2,0,P|212:168|192:92,2,180,2|0|0,0:0|0:0|0:0,0:0:0
36,344,10018,1,0,0:0:0
256,264,10453,5,0,0:0:0
328,136,10779,1,2,0:0:0
184,136,11105,1,0,0:0:0
256,72,11323,5,0,0:0:0
372,282,11649,1,2,0:0:0
139,282,11975,1,0,0:0:0
68,244,12192,5,4,0:0:0
36,72,12627,1,2,1:2:0
136,200,13062,1,0,0:0:0
208,236,13279,1,0,0:0:0
288,228,13497,2,0,P|320:192|320:136,1,90,2|0,1:2|0:0,0:0:0
312,68,13932,2,0,P|396:88|472:24,2,180,0|2|0,0:0|1:2|0:0,0:0:0
152,44,15236,1,2,1:2:0
76,72,15453,1,0,0:0:0
60,152,15671,6,0,P|88:240|36:320,1,180,0|2,0:0|1:2,0:0:0
120,352,16323,2,0,P|208:328,1,90
164,260,16758,2,0,P|252:236,1,90,0|2,0:0|1:2,0:0:0
204,172,17192,1,0,0:0:0
284,168,17410,2,0,P|224:96|144:120,2,180,0|2|0,0:0|1:2|0:0,0:0:0
288,332,18714,2,0,P|468:344,1,180,2|4,1:2|0:0,0:0:0
492,176,19584,6,0,P|484:128,3,45,2|0|0|2,1:2|0:0|0:0|0:0,0:0:0
468,92,20018,2,0,P|384:80|352:160,1,180,0|2,0:0|1:2,0:0:0
420,140,20671,2,0,P|344:88|280:144,1,180
236,200,21323,2,0,P|144:160,1,90,2|0,1:2|0:0,0:0:0
76,188,21758,2,0,P|36:272|44:368,2,180,0|2|0,0:0|1:2|0:0,0:0:0
188,24,23062,5,2,1:2:0
188,24,23171,2,0,P|248:68|256:96,1,90,0|2,0:0|0:0,0:0:0
232,176,23605,2,0,P|172:132|164:104,1,90,0|2,0:0|0:0,0:0:0
253,80,24040,2,0,P|309:72,1,45,0|2,0:0|0:0,0:0:0
396,60,24366,2,0,P|440:156|416:224,2,180,0|2|0,0:0|1:2|0:0,0:0:0
256,200,25671,1,2,1:2:0
104,324,26105,5,4,0:0:0
408,324,26758,1,0,0:0:0
412,276,26866,1,0,0:0:0
416,228,26975,2,0,P|428:88,2,135,0|2|2,0:0|0:0|0:0,0:0:0
340,292,27845,2,0,P|200:280,2,135,0|2|0,0:0|0:0|0:0,0:0:0
316,196,28714,5,0,0:0:0
276,103,28932,1,0,0:0:0
224,190,29149,1,2,0:0:0
360,124,29366,1,0,0:0:0
192,112,29584,1,2,0:0:0
264,260,29801,6,0,P|192:296|180:352,1,135
144,212,30453,2,0,P|108:133|24:93,1,180,0|2,0:0|0:0,0:0:0
256,192,31323,12,4,33062,0:0:0
128,92,33714,5,0,0:0:0
128,92,33823,1,0,0:0:0
128,92,33932,2,0,P|98:152|128:209,2,135,0|2|2,0:0|1:2|0:0,0:0:0
196,152,34801,2,0,P|226:91|196:34,2,135,0|2|0,0:0|1:2|0:0,0:0:0
200,244,35671,2,0,P|136:292|52:248,2,180,0|2|0,0:0|1:2|0:0,0:0:0
272,192,36758,6,0,P|404:152,1,135,2|2,0:0|0:0,0:0:0
380,284,37410,2,0,P|268:304|364:368,1,270,0|2,0:0|0:0,0:0:0
460,248,38279,2,0,P|492:56,2,180,0|2|2,0:0|1:2|0:0,0:0:0
456,268,39258,1,0,0:0:0
452,284,39366,1,0,0:0:0
448,300,39475,1,0,0:0:0
444,316,39584,1,2,1:2:0
288,268,39801,1,0,0:0:0
352,116,40018,5,4,0:0:0
160,64,40453,1,2,1:2:0
88,132,40671,1,0,0:0:0
88,232,40888,2,0,P|108:300|160:336,2,135,0|2|2,0:0|1:2|0:0,0:0:0
188,240,41758,2,0,P|348:208|344:32,2,360,2|2|0,0:0|0:0|0:0,0:0:0
180,44,43932,5,2,1:2:0
100,224,44366,1,0,0:0:0
140,316,44584,1,0,0:0:0
236,332,44801,2,0,P|304:324,3,45,2|0|0|0,1:2|0:0|0:0|0:0,0:0:0
328,316,45236,2,0,P|408:280|408:188,1,180,0|2,0:0|1:2,0:0:0
296,36,46105,1,0,0:0:0
256,228,46540,1,2,1:2:0
188,156,46758,6,0,P|152:120,1,45
120,92,46975,2,0,P|60:156|112:248,1,180,0|2,0:0|1:2,0:0:0
256,344,47845,1,0,1:2:0
328,212,48171,1,2,1:2:0
180,212,48497,1,0,1:0:0
256,148,48714,5,4,0:0:0
52,120,49149,1,0,1:0:0
40,316,49584,1,0,0:0:0
132,356,49801,1,0,0:0:0
124,264,50018,2,0,P|184:284|244:172,1,180,0|0,1:0|0:0,0:0:0
116,64,50888,1,0,1:0:0
120,164,51105,1,0,0:0:0
124,264,51323,1,4,0:0:0
456,48,52192,5,0,0:0:0
364,224,52627,1,0,1:0:0
256,56,53062,1,0,0:0:0
356,52,53279,1,0,0:0:0
308,144,53497,1,0,1:0:0
256,232,53714,1,0,0:0:0
204,316,53932,1,0,0:0:0
28,228,54366,5,0,1:0:0
56,132,54584,1,2,0:0:0
172,228,54910,1,2,0:0:0
56,324,55236,1,0,0:0:0
28,228,55453,1,2,0:0:0
56,132,55671,5,0,0:0:0
256,52,56105,1,0,1:0:0
456,132,56540,2,0,P|456:176,3,45,0|0|0|0,0:0|0:0|0:0|0:0,0:0:0
420,208,56975,2,0,P|340:228|348:316,1,180,0|0,1:0|0:0,0:0:0
48,336,58062,2,0,P|8:372,4,45
76,240,58714,1,0,1:0:0
172,220,58932,1,0,0:0:0
148,316,59149,5,0,0:0:0
256,236,59366,1,0,0:0:0
256,236,59475,1,0,1:0:0
364,68,60018,5,0,0:0:0
256,152,60235,1,0,0:0:0
256,152,60345,1,0,1:0:0
68,316,60888,5,0,0:0:0
256,376,61323,1,0,1:0:0
444,316,61758,1,0,0:0:0
396,232,61975,1,0,0:0:0
348,316,62192,1,0,1:2:0
256,152,62627,5,4,0:0:0
