osu file format v4

[General]
AudioFilename: Hidenori Chiwata - Kasabuta (TV Size).mp3
AudioLeadIn: 0
AudioHash: f2be814f3f708e0a07d768cc585b465e
PreviewTime: -1
SampleSet: Normal
EditorBookmarks: 1612,12611,23786,45611,56945,68095,89025

[Metadata]
Title:Kasabuta (TV Size)
Artist:Hidenori Chiwata
Creator:Impossible
Version:Normal

[Difficulty]
HPDrainRate:4
CircleSize:5
OverallDifficulty:5
SliderMultiplier: 1.4
SliderTickRate: 1

[Events]
0,0,"gashbell.jpg"
3,0,163,162,255

[TimingPoints]
12630,348.837209302326,4,1,0

[HitObjects]
32,96,1467,5,0
144,96,1990,1,0
256,96,2513,1,4
480,288,4257,5,0
368,288,4781,1,0
256,288,5304,1,4
32,288,7048,5,0
144,288,7571,1,0
256,288,8095,1,4
480,96,9839,5,0
368,96,10362,1,0
256,96,10885,1,4
345,94,12630,6,2,B|345:94|416:192|336:288,1,210
256,336,13676,1,0
176,288,14025,2,2,B|176:288|96:192|176:80,1,210
256,64,15071,1,0
345,94,15420,2,2,B|345:94|416:192|336:288,1,210
256,192,16467,1,0
256,192,16641,1,4
158,103,18211,6,2,B|158:103|256:32|352:112,1,210
400,192,19257,1,0
352,272,19606,2,2,B|352:272|256:352|144:272,1,210
128,192,20653,1,0
158,103,21002,2,2,B|158:103|256:32|352:112,1,210
208,160,22397,1,0
304,160,22746,1,0
256,240,23095,1,4
64,128,24141,5,0
144,80,24490,1,0
192,192,25188,1,0
192,192,25362,1,0
192,192,25536,2,0,B|192:192|192:288,6,70
256,128,26932,1,0
416,128,27978,5,2
480,192,28327,1,2
448,288,29723,5,0
384,352,30071,1,0
320,288,30420,1,0
384,224,30769,1,0
288,224,31118,2,0,B|288:224|288:128,6,70
224,160,32513,1,0
160,224,32862,1,0
224,288,33211,1,0
128,288,33560,5,2
48,192,34083,1,2
128,96,34606,1,2
400,144,35304,5,0
320,96,35653,1,0
320,96,35827,1,0
320,192,36350,1,0
320,192,36525,1,0
320,192,36699,2,0,B|320:192|320:320,2,70
224,192,37397,2,0,B|224:192|224:262,2,70
224,96,38095,1,0
224,96,38269,1,0
96,128,39141,5,2
32,192,39490,1,2
112,256,40885,5,0
192,256,41234,2,0,B|192:256|192:336,2,70
192,192,41932,2,0,B|192:192|192:96,3,70
256,144,42804,2,0,B|256:144|256:214,5,70
208,304,44025,1,0
304,304,44374,1,0
400,288,44723,5,2
480,192,45246,1,2
400,96,45769,1,6
304,96,46118,5,0
208,96,46467,1,0
208,96,46641,2,0,B|208:96|144:37|72:103,2,140
352,64,48037,1,2
432,160,48560,1,2
432,256,48909,5,0
336,256,49257,1,0
336,256,49432,2,0,B|336:256|272:315|200:249,2,140
240,160,50827,1,2
144,64,51350,1,6
256,192,51699,12,4,55536
96,160,57106,6,0,B|96:160|136:25|272:64,1,210
336,128,57978,1,2
336,128,58153,1,2
336,128,58327,1,2
336,224,58676,2,2,B|336:224|303:330|160:304,1,210
464,224,60071,5,0
385,288,60595,1,2
289,288,60943,1,0
225,224,61292,1,2
288,160,61641,2,6,B|288:160|309:195|346:139,2,70
188,252,62862,6,0,B|188:252|128:190|192:128,1,140
321,129,63560,2,0,B|321:129|384:190|323:252,1,140
256,256,64083,2,2,B|256:256|256:336,4,70
352,176,65653,5,0
288,272,66002,1,0
224,176,66350,1,0
160,272,66699,1,0
160,176,67048,5,6
272,112,67571,1,6
368,112,67920,1,6
416,224,68269,6,0,B|416:224|376:359|240:320,1,210
176,256,69141,1,2
176,256,69316,1,2
176,256,69490,1,2
176,160,69839,2,2,B|176:160|209:54|352:80,1,210
128,96,71234,5,0
224,96,71583,1,0
288,160,71932,1,0
224,256,72455,2,6,B|224:256|203:221|166:277,4,70
324,132,74025,6,0,B|324:132|384:194|320:256,1,140
191,255,74723,2,0,B|191:255|128:194|189:132,1,140
256,128,75246,2,2,B|256:128|256:48,4,70
144,128,76641,6,0,B|144:128|176:28|242:14|313:26|352:128,1,280
448,192,77862,1,0
368,224,78211,5,2
256,288,78734,1,2
160,288,79257,1,6
176,208,81002,5,2
256,96,81525,1,2
336,208,82048,1,6
336,176,83792,5,2
256,288,84316,1,2
176,176,84839,1,6
256,64,86583,6,2,B|256:64|256:160,5,70
256,224,87804,1,2
256,320,88153,1,2
256,320,88327,1,6
