osu file format v4

[General]
AudioFilename: Hidenori Chiwata - Kasabuta (TV Size).mp3
AudioLeadIn: 0
AudioHash: f2be814f3f708e0a07d768cc585b465e
PreviewTime: -1
SampleSet: Normal
EditorBookmarks: 1612,12611,23786,45611,56945,68095,89025

[Metadata]
Title:Kasabuta (TV Size)
Artist:Hidenori Chiwata
Creator:Impossible
Version:Hard

[Difficulty]
HPDrainRate:6
CircleSize:5
OverallDifficulty:6
SliderMultiplier: 1.4
SliderTickRate: 1

[Events]
0,0,"gashbell.jpg"
3,0,163,162,255

[TimingPoints]
12630,348.837209302326,4,1,0

[HitObjects]
32,96,1467,5,0
112,160,1990,1,0
192,224,2513,1,4
480,288,4257,5,0
400,224,4781,1,0
320,160,5304,1,4
32,288,7048,5,0
112,224,7571,1,0
192,160,8095,1,4
480,96,9839,5,0
400,160,10362,1,0
320,224,10886,1,4
345,94,12630,6,2,B|345:94|416:192|336:288,1,210
256,336,13676,1,0
176,288,14025,2,2,B|176:288|96:192|176:80,1,210
256,64,15071,1,0
345,94,15420,2,2,B|345:94|416:192|336:288,1,210
256,192,16467,1,0
256,192,16641,1,4
158,103,18211,6,2,B|158:103|256:32|352:112,1,210
400,192,19257,1,0
352,272,19606,2,2,B|352:272|256:352|144:272,1,210
128,192,20653,1,0
158,103,21002,2,2,B|158:103|256:32|352:112,1,210
256,192,22223,1,0
256,192,22397,1,0
256,192,22571,1,0
256,192,22746,1,0
256,192,22920,1,0
256,192,23095,1,0
256,192,23269,1,4
64,128,24141,5,0
160,128,24490,1,0
192,96,24664,1,0
192,192,25013,1,0
192,192,25188,1,0
192,192,25362,1,0
192,192,25536,2,0,B|192:192|192:288,6,70
256,128,26932,1,0
416,128,27978,5,2
480,192,28327,1,2
448,256,29548,5,0
400,256,29723,1,0
352,256,29897,1,0
320,256,30071,1,0
288,288,30246,1,0
320,192,30595,1,0
320,192,30769,1,0
320,192,30943,1,0
320,192,31118,2,0,B|320:192|320:96,5,70
320,128,32164,1,0
272,120,32339,1,0
224,112,32513,1,0
224,208,32862,1,0
224,304,33211,1,0
128,288,33560,5,2
48,192,34083,1,2
128,96,34606,1,2
448,128,35304,5,0
352,128,35653,1,0
320,96,35827,1,0
320,192,36176,1,0
320,192,36350,1,0
320,192,36525,1,0
320,192,36699,2,0,B|320:192|320:320,2,70
256,260,37397,2,0,B|256:260|256:190,2,70
256,128,38095,1,0
256,128,38269,1,0
96,128,39141,5,2
32,192,39490,1,2
64,256,40711,5,0
112,256,40885,1,0
160,256,41060,1,0
192,256,41234,1,0
224,240,41409,1,0
224,288,41583,1,0
192,192,41932,1,0
192,192,42106,1,0
192,192,42281,2,0,B|192:192|192:96,1,70
256,144,42804,2,0,B|256:144|256:214,3,70
256,208,43502,1,0
256,256,43676,1,0
208,336,44025,1,0
304,336,44374,1,0
384,288,44723,5,2
464,192,45246,1,2
384,96,45769,1,6
288,96,46118,5,0
192,96,46467,1,0
192,96,46641,2,0,B|192:96|128:37|56:103,2,140
192,96,47513,1,2
320,96,48036,1,2
416,160,48560,1,2
416,256,48909,5,0
320,256,49258,1,0
320,256,49432,2,0,B|320:256|256:315|184:249,2,140
320,256,50304,1,2
224,176,50827,1,2
128,96,51351,1,6
256,192,51699,12,4,55536
96,160,57106,6,0,B|96:160|136:25|272:64,1,210
336,128,57978,1,2
336,128,58153,1,2
336,128,58327,1,2
336,224,58676,1,0
336,224,58850,1,0
336,224,59025,1,0
336,224,59199,1,2
385,288,59897,5,0
385,288,60071,1,0
385,288,60246,1,0
385,288,60420,1,0
385,288,60595,1,2
289,288,60943,1,0
225,224,61292,1,2
288,160,61641,2,6,B|288:160|309:195|346:139,2,70
188,252,62862,6,0,B|188:252|128:190|192:128,1,140
256,128,63385,1,2
321,129,63560,2,0,B|321:129|384:190|323:252,1,140
256,256,64083,2,2,B|256:256|256:336,4,70
352,216,65478,5,0
352,216,65653,2,0,B|352:216|352:286,1,70
288,288,66002,2,0,B|288:288|288:218,1,70
224,216,66350,2,0,B|224:216|224:286,1,70
160,288,66699,2,0,B|160:288|160:196,1,70
160,160,67048,5,6
272,96,67571,1,6
368,96,67920,1,6
416,224,68269,6,0,B|416:224|376:359|240:320,1,210
176,256,69141,1,2
176,256,69316,1,2
176,256,69490,1,2
176,160,69839,1,0
176,160,70013,1,0
176,160,70188,1,0
176,160,70362,1,2
80,96,71060,5,0
80,96,71234,1,0
176,96,71583,1,0
240,160,71932,1,0
176,224,72281,1,0
176,224,72455,2,6,B|176:224|155:189|118:245,4,70
324,132,74025,6,0,B|324:132|384:194|320:256,1,140
256,256,74548,1,2
191,255,74723,2,0,B|191:255|128:194|189:132,1,140
256,128,75246,2,2,B|256:128|256:48,4,70
128,176,76641,5,0
128,176,76816,1,0
224,176,77164,1,0
224,176,77339,1,0
352,176,77862,1,0
352,176,78036,1,0
352,224,78211,5,2
256,288,78734,1,2
160,288,79257,1,6
176,208,81002,5,2
256,96,81525,1,2
336,208,82048,1,6
336,176,83792,5,2
256,288,84315,1,2
176,176,84838,1,6
256,64,86583,6,2,B|256:64|256:160,5,70
256,224,87804,1,2
256,320,88153,1,2
256,320,88327,1,6
