osu file format v5

[General]
AudioFilename: 01 - Darkness of Fear.mp3
AudioLeadIn: 0
PreviewTime: -1
Countdown: 1
SampleSet: None
StackLeniency: 0.2
Mode: 0
LetterboxInBreaks: 1
EditorBookmarks: 13655

[Metadata]
Title:Darkness of Fear
Artist:Hideki Sakamoto, Yasushi Asada
Creator:Pandemonium
Version:Normal
Source:
Tags:

[Difficulty]
HPDrainRate:5
CircleSize:5
OverallDifficulty:5
SliderMultiplier:1.4
SliderTickRate:2

[Events]
//Background and Video events
0,0,"Background.jpg"
//Break Periods
//Storyboard Layer 0 (Background)
//Storyboard Layer 1 (Failing)
//Storyboard Layer 2 (Passing)
//Storyboard Layer 3 (Foreground)
//Storyboard Sound Samples
//Background Colour Transformations
3,100,0,0,0

[TimingPoints]
14455,400,4,0,0,100,1,0

[Colours]
Combo1 : 128,128,128
Combo2 : 255,0,0
Combo3 : 255,255,255
Combo4 : 240,5,5

[HitObjects]
192,288,14855,1,0
320,288,15255,1,2
448,288,15655,1,8
128,192,16455,5,0
256,192,16855,1,2
384,192,17255,1,8
64,96,18055,5,0
192,96,18455,1,2
320,96,18855,1,8
384,64,19455,5,0
416,96,19655,1,2
384,128,19855,1,0
416,160,20055,1,2
384,192,20255,1,0
416,224,20455,1,2
384,256,20655,1,8
320,288,21255,5,0
192,288,21655,1,2
64,288,22055,1,8
384,192,22855,5,0
256,192,23255,1,2
128,192,23655,1,8
448,96,24455,5,0
320,96,24855,1,2
192,96,25255,1,8
128,64,25655,5,0
96,96,25855,1,2
128,128,26055,1,0
96,160,26255,1,2
128,192,26455,1,0
96,224,26655,1,2
128,256,26855,1,0
96,288,27055,1,8
192,320,27455,5,0
256,320,27655,1,2
320,224,28055,1,0
384,224,28255,1,2
416,128,28655,1,8
320,64,29055,5,0
256,64,29255,1,2
192,160,29655,1,0
128,160,29855,1,2
96,256,30255,1,8
192,320,30655,5,0
256,320,30855,1,2
320,224,31255,1,0
384,224,31455,1,2
416,96,31855,1,8
352,32,32255,5,0
320,64,32455,1,2
288,96,32655,1,0
320,128,32855,1,10
352,160,33055,1,0
320,192,33255,1,2
288,224,33455,1,8
320,320,33855,5,0
256,320,34055,1,2
192,224,34455,1,0
128,224,34655,1,2
96,128,35055,1,8
160,32,35455,5,0
192,32,35655,1,2
256,32,36055,1,0
288,32,36255,1,2
352,96,36655,5,8
288,160,36855,1,2
224,224,37055,1,8
160,288,37255,1,2
320,256,37655,5,2
256,192,37855,1,8
192,128,38055,1,2
416,32,38455,5,10
256,192,38855,1,10
96,352,39255,1,10
160,96,40055,5,0
192,128,40255,1,2
224,160,40455,1,8
352,96,40855,5,0
320,128,41055,1,2
288,160,41255,1,8
352,288,41655,5,0
320,256,41855,1,2
288,224,42055,1,8
160,288,42455,5,0
192,256,42655,1,2
224,224,42855,1,8
256,160,43255,5,2
256,96,43655,1,10
256,32,44055,1,2
160,96,44455,1,10
32,224,44855,5,0
64,192,45055,1,2
96,224,45255,1,8
32,128,45655,5,0
64,96,45855,1,2
96,128,46055,1,8
160,96,46455,5,0
192,128,46655,1,2
224,160,46855,1,8
160,288,47255,5,0
192,256,47455,1,2
224,224,47655,1,8
320,192,48055,5,0
352,160,48255,1,2
384,192,48455,1,8
416,224,48655,1,2
448,192,48855,1,8
448,64,49255,5,0
384,64,49455,1,2
320,64,49655,1,8
384,128,50055,5,0
320,128,50255,1,2
256,128,50455,1,8
192,160,50655,1,2
160,224,50855,1,8
192,256,51055,5,0
224,288,51255,1,2
256,320,51455,1,8
288,352,51655,1,2
320,320,51855,1,8
352,288,52055,1,2
448,224,52455,5,8
448,32,52855,1,10
288,32,53455,5,2
256,32,53655,1,8
96,32,54255,5,0
96,64,54455,1,2
96,96,54655,1,8
96,128,54855,1,2
96,224,55255,5,10
256,288,55855,5,2
256,256,56055,1,8
416,224,56655,5,2
416,192,56855,1,8
416,32,57455,5,0
352,32,57655,1,2
352,96,57855,1,8
288,96,58055,1,2
288,160,58255,1,8
224,160,58455,1,2
224,224,58655,1,8
160,224,58855,1,2
160,288,59055,1,8
96,288,59255,1,2
32,128,59855,5,2
64,96,60055,1,8
224,32,60655,5,0
256,64,60855,1,2
288,96,61055,1,8
320,128,61255,1,2
352,160,61455,1,8
384,192,61655,1,2
352,256,62055,5,0
288,288,62255,1,2
224,320,62455,1,8
160,288,62655,5,0
96,256,62855,1,2
32,224,63055,1,8
32,160,63255,5,0
64,96,63455,1,2
96,32,63655,1,8
160,32,63855,1,10
224,32,64055,5,8
256,64,64255,1,2
288,96,64455,1,8
320,64,64655,1,2
384,96,64855,5,8
352,128,65055,1,2
320,160,65255,1,8
224,160,65655,5,2
416,160,66055,1,8
416,256,66455,5,0
384,288,66655,1,2
352,320,66855,1,8
224,320,67255,5,2
128,224,67655,1,8
128,96,68055,5,0
160,128,68255,1,2
192,160,68455,1,8
288,160,68855,5,2
384,160,69255,1,8
384,256,69655,5,0
352,288,69855,1,2
320,320,70055,1,8
192,320,70455,5,2
192,192,70855,1,8
192,64,71255,5,0
224,96,71455,1,2
256,128,71655,1,8
352,128,72055,5,2
352,224,72455,1,8
352,320,72855,5,0
320,288,73055,1,2
288,256,73255,1,8
160,256,73655,5,2
160,128,74055,1,8
256,128,74455,5,0
288,96,74655,1,2
320,64,74855,1,8
416,128,75255,5,2
416,224,75655,1,8
288,224,76055,5,0
256,256,76255,1,2
224,288,76455,1,8
128,224,76855,5,2
128,96,77255,1,8
224,96,77655,5,0
256,128,77855,1,2
288,160,78055,1,8
256,320,78455,5,14
96,64,79255,5,10
256,320,79655,5,14
416,64,80055,5,10
256,64,80855,5,14
256,192,81655,5,14
96,320,82455,5,14
416,320,82855,5,10
256,192,83255,12,14,87655
