osu file format v5

[General]
AudioFilename: 07-the-concept-of-love-the-concept-of-passion-mix-.mp3
AudioLeadIn: 0
PreviewTime: -1
Countdown: 1
SampleSet: Normal
StackLeniency: 0.7
Mode: 0
EditorBookmarks: 31719,63185,157613

[Metadata]
Title:The Concept of Love [The Concept of Passion Mix]
Artist:Hideki Naganuma
Creator:emj
Version:Hard
Source:
Tags:

[Difficulty]
HPDrainRate:6
CircleSize:6
OverallDifficulty:6
SliderMultiplier:1.6
SliderTickRate:1

[Events]
//Background and Video events
//Break Periods
2,47647,62135
2,102730,108120
2,149452,156563
2,181419,188039
//Storyboard Layer 0 (Background)
//Storyboard Layer 1 (Failing)
//Storyboard Layer 2 (Passing)
//Storyboard Layer 3 (Foreground)
//Storyboard Sound Samples
//Background Colour Transformations
3,100,163,162,255

[TimingPoints]
234,491.811442895186,4,1,0,100

[HitObjects]
476,292,31709,2,0,B|434:322|383:338|308:273,1,160
281,245,32447,1,0
234,289,32693,2,0,B|192:319|141:335|66:270,1,160
87,221,33431,1,0
89,157,33677,2,0,B|114:135|150:135|250:135,1,160
308,140,34414,1,0
372,138,34660,2,0,B|407:144|439:124|448:97,4,80
341,194,35890,1,0
306,248,36136,1,0
274,192,36382,1,0
209,192,36628,5,0
160,150,36873,1,0
119,199,37119,1,0
164,243,37365,1,0
161,306,37611,5,0
224,316,37857,2,0,B|274:284|292:240,1,80
295,198,38349,1,0
295,198,38595,1,0
292,134,38841,2,0,B|265:104|220:90,1,80
161,86,39333,1,0
97,93,39578,2,0,B|54:120|24:152|15:237,1,160
32,286,40316,1,0
80,328,40562,2,0,B|104:345|129:357|155:357,3,80
217,355,41546,5,0
281,355,41792,2,0,B|340:345|377:320|409:263,1,160
343,260,42529,1,0
214,263,43021,1,0
214,263,43267,1,0
215,198,43513,5,0
159,229,43759,1,0
164,165,44005,1,0
222,139,44251,1,0
215,198,44497,5,0
274,175,44742,1,0
277,238,44988,1,0
217,262,45234,1,0
219,325,45480,2,0,B|186:340|150:349|133:350|103:340|64:324,1,160
219,326,46464,2,0,B|252:341|288:350|305:351|335:341|374:325,1,160
220,237,47447,1,0
32,31,63185,5,0
31,95,63431,2,0,B|32:138,1,40
34,202,63800,1,0
33,266,64046,1,0
87,232,64292,1,0
151,231,64538,1,0
151,231,64661,1,0
215,231,64907,1,0
219,294,65153,5,0
283,292,65399,2,0,B|323:259,1,40
359,219,65767,1,0
392,164,66013,1,0
322,166,66259,1,0
357,109,66505,1,0
357,109,66628,1,0
357,44,66874,1,0
292,45,67120,5,0
228,41,67366,1,0
228,41,67489,1,0
163,39,67735,1,0
98,38,67981,1,0
129,93,68226,1,0
192,95,68472,1,0
192,95,68595,2,0,B|285:95,1,80
336,95,69087,5,0
400,96,69333,1,0
400,96,69456,1,0
367,150,69702,1,0
367,150,69825,1,0
409,217,70071,1,0
344,217,70317,1,0
344,217,70440,1,0
184,217,71054,1,0
156,158,71300,5,0
156,158,71423,1,0
126,215,71669,1,0
162,272,71915,1,0
93,267,72161,1,0
128,320,72407,1,0
128,320,72530,1,0
64,318,72776,1,0
30,263,73022,5,0
30,199,73267,1,0
30,199,73390,1,0
34,130,73636,2,0,B|104:66,1,80
156,68,74128,2,0,B|245:68,1,80
236,68,74497,1,0
299,71,74743,1,0
364,70,74989,5,0
366,133,75235,1,0
366,133,75358,1,0
342,192,75604,1,0
411,192,75850,1,0
416,255,76095,2,0,B|333:255,1,80
336,255,76464,1,0
272,256,76710,1,0
207,255,76956,5,0
175,199,77202,1,0
175,199,77325,1,0
97,255,77694,1,0
97,255,77940,1,0
95,190,78186,2,0,B|94:108|127:92|124:53|90:32|55:34|37:38|17:75|18:85|32:96|44:108,1,240
160,96,79415,5,0
288,97,79907,1,0
351,101,80153,2,0,B|373:64|399:52|435:52|463:73|484:116|465:164|429:164|384:169|387:189|388:270,1,320
390,330,81382,1,0
325,331,81628,1,0
261,332,81874,1,0
261,267,82120,2,0,B|262:191|292:184|307:166|324:132|307:88|227:88|193:116|187:125|197:181|211:228,1,320
174,334,83596,1,0
110,334,83841,1,0
45,335,84087,5,0
46,267,84333,2,0,B|45:101,1,160
109,109,85071,5,0
173,109,85317,1,0
236,111,85563,1,0
299,113,85809,1,0
362,114,86055,1,0
362,114,86301,1,0
362,114,86546,1,0
328,168,86792,5,0
278,207,87038,2,0,B|204:270,1,80
141,318,87653,1,0
71,321,87899,2,0,B|71:232,1,80
72,144,88514,1,0
133,127,88760,2,0,B|99:84|79:80|17:84|-1:147,3,160
32,257,90727,1,0
96,256,90973,1,0
63,311,91219,1,0
127,311,91465,1,0
127,311,91587,1,0
191,311,91833,1,0
255,311,92079,1,0
317,238,92448,5,0
338,177,92694,2,0,B|381:211|385:231|381:293|318:311,3,160
203,303,94661,1,0
168,246,94907,1,0
133,194,95153,1,0
87,109,95522,1,0
114,51,95768,1,0
177,44,96014,1,0
229,124,96383,1,0
280,85,96629,1,0
334,50,96874,1,0
390,80,97120,1,0
390,176,97489,1,0
349,225,97735,1,0
316,280,97981,1,0
249,348,98350,5,0
205,301,98596,2,0,B|159:253|157:220,1,80
224,238,99088,1,0
141,185,99456,2,0,B|155:164|176:152|220:132,1,80
261,169,99948,1,0
300,81,100317,1,0
256,192,100563,12,0,102530
256,192,109170,12,0,110399
32,37,111629,1,0
28,100,111875,1,0
28,164,112121,1,0
30,227,112367,2,0,B|30:324,1,80
98,308,112858,1,0
98,308,113104,1,0
162,308,113350,2,0,B|195:327|226:322|255:299,1,80
281,262,113842,1,0
281,262,114088,1,0
325,307,114334,2,0,B|358:326|389:321|418:298,1,80
446,263,114826,5,0
446,263,115071,1,0
466,202,115317,2,0,B|485:169|480:138|457:109,1,80
415,163,115809,1,0
415,163,116055,1,0
365,203,116301,2,0,B|346:170|351:139|374:110,1,80
309,163,116793,1,0
309,163,117039,1,0
245,165,117285,1,0
245,165,117531,1,0
245,165,117776,1,0
194,125,118022,2,0,B|175:158|180:189|203:218,1,80
228,259,118514,5,0
267,309,118760,1,0
267,309,118883,1,0
304,257,119129,1,0
346,209,119375,1,0
385,158,119621,1,0
385,158,119744,1,0
404,218,119990,1,0
443,168,120235,1,0
434,104,120481,1,0
370,101,120727,1,0
370,101,120850,1,0
325,147,121096,1,0
310,84,121342,5,0
269,133,121588,1,0
269,133,121711,1,0
285,195,121957,1,0
225,173,122203,1,0
227,236,122449,1,0
172,201,122695,1,0
172,201,122818,1,0
177,137,123063,1,0
118,172,123309,1,0
130,109,123555,5,0
130,109,123678,1,0
70,135,123924,1,0
65,198,124170,1,0
117,235,124416,1,0
57,259,124662,1,0
57,259,124785,1,0
108,296,125031,1,0
172,294,125277,1,0
172,294,125400,2,0,B|230:283|264:256|284:221|292:196,1,160
354,202,126137,5,0
353,137,126383,2,0,B|353:77,1,40
295,126,126752,2,0,B|243:197,1,80
175,184,127244,1,0
111,181,127490,2,0,B|74:148,1,40
104,280,128104,1,0
167,286,128350,2,0,B|204:245,1,40
258,253,128719,1,0
324,253,128965,2,0,B|380:316,1,80
441,312,129457,2,0,B|471:266,1,40
256,192,130072,12,0,133514
147,217,134006,1,0
126,156,134252,1,0
135,92,134498,1,0
186,53,134744,1,0
249,50,134990,1,0
309,71,135236,1,0
309,71,135359,1,0
309,71,135482,1,0
328,132,135728,1,0
327,195,135973,1,0
280,238,136219,1,0
215,238,136465,5,0
215,302,136711,1,0
212,365,136957,1,0
161,326,137203,1,0
161,326,137326,1,0
161,326,137449,1,0
164,262,137695,1,0
166,198,137941,1,0
112,233,138187,1,0
114,169,138433,1,0
166,133,138678,1,0
166,133,138801,1,0
166,133,138924,1,0
166,68,139170,5,0
166,68,139293,1,0
166,68,139416,1,0
230,66,139662,1,0
230,130,139908,1,0
230,130,140031,1,0
230,130,140154,1,0
284,95,140400,1,0
284,95,140523,1,0
284,95,140646,1,0
348,96,140892,1,0
348,96,141015,1,0
348,96,141137,1,0
348,96,141260,1,0
348,96,141383,1,0
411,100,141629,1,0
372,150,141875,5,0
376,211,142121,1,0
376,211,142244,1,0
376,211,142367,1,0
342,268,142613,1,0
342,268,142736,1,0
342,268,142859,1,0
406,268,143105,1,0
406,268,143228,1,0
406,268,143351,1,0
371,322,143597,1,0
307,324,143842,5,0
211,327,144211,1,0
115,329,144580,1,0
50,329,144826,1,0
50,329,144949,1,0
50,329,145072,1,0
50,329,145195,1,0
50,329,145318,1,0
47,265,145564,1,0
111,265,145810,5,0
111,265,145933,1,0
166,227,146179,1,0
253,188,146547,1,0
316,186,146793,1,0
316,186,146916,1,0
379,186,147162,1,0
475,188,147531,1,0
472,124,147777,5,0
407,124,148023,1,0
342,122,148269,1,0
278,119,148515,2,0,B|221:119,1,40
205,121,148761,2,0,B|158:121,1,40
165,121,149006,1,0
100,120,149252,1,0
256,196,157613,5,0
212,149,157859,1,0
212,149,157982,1,0
160,111,158228,5,0
161,112,158474,1,0
155,175,158720,1,0
102,138,158966,5,0
101,138,159089,1,0
99,201,159335,1,0
149,239,159580,5,0
87,258,159826,1,0
87,258,159949,1,0
138,296,160195,1,0
199,276,160441,1,0
201,212,160687,1,0
255,245,160933,1,0
255,245,161056,1,0
257,308,161302,1,0
310,272,161548,5,0
373,265,161794,2,0,B|413:232,1,40
354,198,162162,1,0
406,161,162408,1,0
457,122,162654,1,0
402,88,162900,1,0
402,88,163023,2,0,B|324:150,1,80
284,171,163515,1,0
169,228,164007,1,0
56,288,164499,1,0
49,155,164990,1,0
45,26,165482,5,0
104,61,165728,2,0,B|171:116,1,80
233,179,166343,2,0,B|308:241,1,80
345,269,166835,1,0
422,212,167203,1,0
478,181,167449,2,0,B|439:156|389:144,7,80
341,138,169417,5,0
280,117,169663,1,0
280,117,169908,1,0
275,212,170277,1,0
275,212,170523,1,0
275,212,170769,1,0
276,308,171138,1,0
256,192,171384,12,0,172859
92,106,173351,2,0,B|76:140|77:194,6,80
219,121,175318,2,0,B|203:155|204:209,6,80
347,124,177286,2,0,B|331:158|332:212,6,80
410,128,179007,1,0
408,191,179253,1,0
408,191,179376,1,0
405,254,179622,1,0
330,193,179991,1,0
280,233,180236,1,0
280,233,180359,1,0
229,194,180605,1,0
274,109,180974,2,0,B|211:104|183:127,1,80
247,184,189089,5,0
304,152,189335,1,0
247,184,189581,1,0
197,224,189827,1,0
197,224,190073,1,0
239,271,190319,1,0
197,224,190565,1,0
148,265,190810,1,0
95,302,191056,1,0
48,345,191302,1,0
48,345,191425,1,0
38,185,192040,5,0
35,121,192286,1,0
35,121,192409,1,0
195,119,193024,5,0
240,163,193269,1,0
240,163,193515,1,0
208,218,193761,5,0
271,215,194007,1,0
242,272,194253,1,0
242,272,194499,1,0
207,218,194745,5,0
179,275,194991,1,0
217,326,195237,1,0
217,326,195360,1,0
374,324,195974,5,0
438,324,196220,1,0
438,324,196343,1,0
438,163,196958,1,0
438,163,197204,1,0
438,75,197450,1,0
438,75,197573,1,0
374,77,197819,1,0
302,75,198065,1,0
338,127,198311,1,0
338,127,198434,1,0
401,127,198679,1,0
366,181,198925,5,0
301,179,199171,1,0
333,234,199417,1,0
333,234,199540,1,0
396,236,199786,1,0
391,331,200155,2,0,B|332:337|267:334|209:304|221:308,1,160
173,289,200893,5,0
173,289,201138,1,0
117,257,201384,1,0
117,257,201507,1,0
117,192,201753,1,0
53,188,201999,1,0
86,133,202245,1,0
86,133,202368,1,0
149,140,202614,1,0
178,196,202860,5,0
178,196,203106,1,0
211,250,203352,1,0
211,250,203475,1,0
274,243,203720,1,0
366,218,204089,2,0,B|420:204|456:187|454:181,1,80
405,68,204827,5,0
344,90,205073,1,0
304,140,205319,1,0
304,140,205442,1,0
283,79,205688,1,0
237,123,205934,6,0,B|149:122,1,80
125,121,206302,1,0
60,119,206548,1,0
87,176,206794,1,0
151,177,207040,1,0
115,229,207286,1,0
115,229,207409,1,0
178,233,207655,1,0
273,235,208024,2,0,B|301:234|348:208|356:200,1,80
400,107,208762,6,0,B|400:204,1,80
463,209,209253,2,0,B|455:229|440:257,1,40
383,261,209622,2,0,B|354:252|322:246|294:260,1,80
303,191,210114,2,0,B|330:188|351:192,1,40
303,135,210483,1,0
303,135,210606,1,0
303,135,210729,1,0
174,131,211221,1,0
175,195,211467,1,0
175,195,211589,1,0
175,195,211712,2,0,B|171:244|156:292|96:352,1,160
77,282,212450,1,0
256,192,212696,12,0,214171
35,33,214417,1,0
81,77,214663,2,0,B|209:204,1,160
131,199,215401,1,0
193,186,215647,2,0,B|220:222|236:229|262:236|314:237|334:235|350:219,1,160
336,163,216385,1,0
256,192,216631,12,0,218106
479,32,218352,1,0
479,32,218475,1,0
479,32,218598,2,0,B|358:155,1,160
416,186,219335,1,0
416,186,219458,1,0
416,186,219581,2,0,B|395:217|369:232|330:243|300:238|277:228|264:218,1,160
304,167,220319,1,0
256,192,220565,12,0,222040
36,351,222286,1,0
36,351,222409,1,0
36,351,222532,2,0,B|157:230,1,160
202,279,223270,1,0
202,279,223393,1,0
202,278,223516,2,0,B|341:177,1,160
374,232,224254,1,0
374,232,224377,1,0
374,232,224500,2,0,B|420:219|432:191|441:168|441:155|440:139|414:96,1,160
396,46,225237,1,0
396,46,225360,1,0
396,46,225483,2,0,B|352:34|299:33|288:38|264:51|251:66|235:84,1,160
251,135,226221,1,0
251,135,226344,1,0
251,135,226467,2,0,B|251:234,8,80
253,71,228680,5,0
230,131,228926,1,0
293,134,229172,1,0
320,76,229418,1,0
383,78,229664,1,0
383,78,229786,1,0
383,78,229909,1,0
447,79,230155,1,0
439,142,230401,1,0
374,143,230647,2,0,B|402:230,1,80
334,224,231139,2,0,B|306:133,1,80
334,87,231631,1,0
269,87,231877,1,0
140,87,232369,5,0
77,99,232614,1,0
47,155,232860,1,0
65,216,233106,1,0
65,216,233229,1,0
65,216,233352,1,0
96,271,233598,1,0
134,321,233844,1,0
185,282,234090,1,0
142,233,234336,2,0,B|120:200|113:169|113:148,1,80
176,174,234828,2,0,B|164:127|153:89,1,80
216,114,235319,2,0,B|250:201,3,80
285,138,236303,5,0
261,78,236549,1,0
323,91,236795,1,0
348,149,237041,1,0
342,212,237287,1,0
315,270,237533,1,0
282,215,237778,1,0
158,182,238270,5,0
131,123,238516,1,0
95,69,238762,1,0
57,120,239008,1,0
47,183,239254,1,0
79,238,239500,1,0
124,282,239746,1,0
143,221,239992,1,0
143,157,240237,2,0,B|233:156,13,80
225,220,243680,2,0,B|282:220,4,40
289,220,244418,5,0
353,220,244664,2,0,B|382:206|394:179|395:150|395:121|391:86|385:71,1,160
322,81,245402,1,0
322,81,245647,1,0
322,81,245893,1,0
258,77,246139,2,0,B|257:125|251:154|241:170|230:182|206:187|176:187|155:177,1,160
173,118,246877,1,0
108,116,247123,2,0,B|107:179|106:216|96:234|83:247|59:259,1,160
63,322,247861,1,0
126,324,248106,2,0,B|204:324|228:295|254:258|260:240,1,160
256,189,248844,1,0
256,121,249090,2,0,B|300:122|320:131|335:144|361:176|366:196|372:216,1,160
375,277,249828,5,0
376,341,250074,1,0
428,304,250320,1,0
419,240,250566,1,0
357,222,250811,1,0
401,176,251057,1,0
401,116,251303,1,0
401,116,251549,1,0
401,116,251795,1,0
345,147,252041,6,0,B|282:197|248:201|188:191,1,160
128,191,252779,1,0
64,185,253025,2,0,B|66:237|77:256|95:281|123:314|147:336,1,160
157,263,253762,1,0
190,208,254008,2,0,B|345:151,1,160
332,216,254746,1,0
395,218,254992,1,0
359,271,255238,1,0
422,275,255484,1,0
454,219,255730,1,0
426,161,255975,5,0
422,97,256221,1,0
370,135,256467,1,0
305,133,256713,1,0
338,78,256959,1,0
274,80,257205,1,0
246,138,257451,1,0
281,191,257697,1,0
217,188,257943,5,0
217,188,258066,1,0
217,188,258189,1,0
152,188,258435,1,0
152,188,258557,1,0
152,188,258680,1,0
110,236,258926,1,0
110,236,259049,1,0
110,236,259172,1,0
110,236,259295,1,0
110,236,259418,1,0
108,300,259664,1,0
165,271,259910,1,0
