osu file format v9

[General]
AudioFilename: Kimagure, Jan-Ken-Pon!.mp3
AudioLeadIn: 0
PreviewTime: 49954
Countdown: 0
SampleSet: Soft
StackLeniency: 0.6
Mode: 0
LetterboxInBreaks: 1

[Editor]
DistanceSpacing: 0.6
BeatDivisor: 2
GridSize: 4

[Metadata]
Title:Kimagure, Jan-Ken-Pon! (TV Size)
Artist:Hidamari Sketch Cast
Creator:eg91022a71w
Version:Hard
Source:Hidamari Sketch
Tags:Yuno Asumi Kana Miyako Mizuhashi Kaori Hiro Goto Yuko Sae Shintani Ryoko inaba-tan

[Difficulty]
HPDrainRate:6
CircleSize:4
OverallDifficulty:5
ApproachRate:7
SliderMultiplier:1.4
SliderTickRate:1

[Events]
//Background and Video events
Video,0,"video.avi"
0,0,"BGH.jpg"
//Break Periods
//Storyboard Layer 0 (Background)
//Storyboard Layer 1 (Fail)
//Storyboard Layer 2 (Pass)
//Storyboard Layer 3 (Foreground)
//Storyboard Sound Samples
//Background Colour Transformations
3,100,163,162,255

[TimingPoints]
461,276.497695852535,4,2,0,80,1,0
32534,-133.333333333333,4,2,0,80,0,0
40829,-100,4,2,0,80,0,0
49954,-100,4,2,0,80,0,1
76497,-100,4,2,0,80,0,0

[Colours]
Combo1 : 255,91,173
Combo2 : 172,113,68
Combo3 : 255,255,0
Combo4 : 0,0,160

[HitObjects]
432,208,1290,2,0,B|256:208|256:32,1,280,0|2
255,346,2395,2,0,B|256:176|80:176,1,280,0|2
352,288,3501,2,0,B|154:90,2,280,0|2|4
352,288,4746,2,2,B|296:344,3,70
400,240,5437,1,4
368,136,5713,6,0,B|368:48|280:48,1,140,0|8
320,192,6266,2,0,B|176:192,1,140,0|8
368,248,6819,2,0,B|368:336|280:336,1,140,0|8
144,336,7372,1,8
40,248,7649,1,8
144,160,7925,6,0,B|200:104|200:32,1,140,0|8
256,160,8478,2,0,B|256:320,1,140,0|8
368,160,9031,2,0,B|312:104|312:32,2,140,0|0|8
472,248,9861,1,8
344,304,10137,6,0,B|256:304|208:360,1,140,0|8
304,240,10690,2,0,B|200:136,1,140,0|8
296,32,11243,2,0,B|256:79|168:79,2,140,0|0|8
384,144,12073,1,8
256,96,12349,6,0,B|136:140|136:244|256:288,1,280
384,240,13179,1,0
284,192,13455,5,8
284,192,13594,1,8
116,192,14008,1,8
116,192,14147,1,8
192,344,14561,6,0,B|256:296|320:344,1,140,4|2
300,236,15114,2,0,B|356:292,2,70,0|0|2
264,192,15529,2,0,B|120:192,2,140
300,148,16220,2,0,B|360:88|424:152,2,140,0|2|0
196,104,17050,1,2
96,152,17326,2,0,B|56:212|56:300,1,140,0|2
164,252,17879,5,0
192,232,18018,1,0
220,252,18156,1,8
256,192,18432,1,0
284,212,18571,1,0
312,192,18709,1,8
348,260,18985,6,0,B|400:304|480:292,1,140,0|2
396,216,19538,2,0,B|464:216,2,70,0|0|2
356,176,19953,2,0,B|304:132|224:144,2,140
316,216,20644,2,0,B|240:216|192:292,1,140,0|2
88,260,21197,5,0
88,148,21474,1,2
192,192,21750,1,0
192,80,22027,1,2
288,136,22303,2,0,B|288:24|288:24|336:56|384:20,1,210
379,23,22856,1,0
408,248,23409,6,0,B|324:272|324:368,1,140,0|2
284,244,23962,2,0,B|344:184,2,70,0|0|2
244,284,24377,2,0,B|188:340|100:340,2,140
204,244,25068,2,0,B|124:244|72:192,2,140,0|2|0
164,140,25898,1,2
132,32,26174,2,0,B|212:32|264:84,1,140,0|2
259,79,26589,1,2
344,292,27833,6,0,B|416:256|396:144,1,140,0|2
288,164,28386,2,0,B|308:92,2,70,0|0|2
256,212,28801,2,0,B|256:360,2,140,0|0|2
224,164,29492,2,0,B|204:92,2,70,0|0|2
124,212,30045,1,2
124,212,30184,1,2
192,300,30460,1,0
304,300,30737,2,0,B|352:184|480:224,1,210,0|2
416,128,31428,5,0
352,36,31704,1,0
288,128,31981,1,0
228,36,32257,1,4
164,192,32810,5,0
120,264,33087,1,2
196,296,33363,2,0,B|236:240|312:248,1,104.999996870756,0|2
284,300,33778,2,0,B|280:228|332:188,1,104.999996870756
356,236,34193,2,0,B|300:204|304:128,1,104.999996870756,2|0
207,149,34746,2,0,B|212:204|156:236,1,104.999996870756,2|0
112,264,35160,6,0,B|144:304|188:300,2,52.4999984353781,0|2|0
76,228,35575,2,0,B|104:176|64:104,1,104.999996870756,0|2
24,140,35990,2,0,B|84:124|116:72,1,104.999996870756
80,40,36405,2,0,B|108:84|176:108,2,104.999996870756,2|0|2
184,36,37234,5,0
256,112,37511,1,2
328,36,37787,2,0,B|360:88|416:92,1,104.999996870756,0|2
464,80,38202,2,0,B|412:85|376:141,1,104.999996870756
379,135,38617,1,2
424,228,38893,2,4,B|364:316|248:332,2,209.999993741512
304,212,40276,1,8
304,212,40414,1,8
304,212,40552,2,8,B|212:212|200:144,1,104.999996870756
296,64,41105,5,4
388,168,41382,2,0,B|384:87|440:43,2,140,8|0|2
456,156,42073,2,0,B|368:164|340:256,1,140
416,252,42488,2,0,B|332:216|260:280,2,140,8|0|2
308,340,43317,5,4
200,252,43594,1,8
68,300,43870,2,0,B|160:240|148:148,1,140,0|2
76,196,44285,2,0,B|172:200|208:116,1,140
132,104,44700,2,0,B|192:148|300:128,2,140,8|0|2
132,104,45529,5,4
380,104,45806,1,8
392,244,46082,2,0,B|408:276|464:284,2,70,0|0|2
440,192,46497,2,0,B|372:264|292:248,1,140
320,180,46912,2,0,B|328:272|256:304,2,140,8|0|2
256,192,47741,12,4,49400
236,168,49953,6,0,B|256:88|336:88,1,140,0|8
428,192,50506,2,0,B|408:272|328:272,1,140,0|8
188,272,51059,2,0,B|112:272|72:192,1,140,0|8
148,200,51474,2,0,B|112:271|36:271,2,140
80,184,52165,6,0,B|80:112|140:64,1,140,0|8
160,132,52580,2,0,B|80:116|8:156,2,140
152,200,53271,2,0,B|240:216|304:168,1,140,0|8
228,140,53686,2,0,B|224:228|288:288,2,140
292,116,54377,6,0,B|372:120|400:196,1,140,0|8
464,316,54930,2,0,B|384:312|356:236,1,140,0|8
244,156,55483,2,0,B|164:152|136:76,1,140,0|8
208,84,55898,2,0,B|181:156|101:160,2,140,0|8|0
280,84,56589,5,0
400,156,56866,1,8
280,228,57142,1,0
400,300,57419,1,8
280,368,57695,1,0
320,356,57833,1,0
292,328,57971,1,8
184,236,58248,1,0
152,264,58386,1,0
192,280,58524,1,8
72,204,58801,6,0,B|160:216|196:140,2,140,0|8|0
96,64,59631,1,8
232,100,59907,2,0,B|232:184|320:184,1,140,0|8
300,116,60322,2,0,B|232:160|284:240,2,140
348,168,61013,6,0,B|408:104|472:160,1,140,0|8
424,208,61428,2,0,B|380:128|476:80,2,140
440,276,62119,2,0,B|348:276|348:184,1,140,0|8
424,208,62534,2,0,B|372:276|296:224,2,140
380,152,63225,5,0
256,216,63501,1,8
132,152,63778,1,0
132,292,64054,1,8
272,304,64331,2,0,B|344:272|360:196,1,140,0|8
288,204,64746,2,0,B|302:274|374:306,2,140
216,204,65437,6,0,B|201:274|129:306,2,140,0|8|0
76,204,66266,1,8
148,84,66543,1,0
148,92,66681,1,0
148,100,66819,1,8
256,192,67096,1,0
256,184,67234,1,0
256,176,67372,1,8
432,176,67649,6,0,B|256:176|256:352,1,280,0|8
255,38,68754,2,0,B|256:208|80:208,1,280,0|8
352,96,69860,2,0,B|154:294,2,280,0|8|2
220,140,71243,1,2
268,272,71520,1,2
80,176,72073,6,0,B|256:176|256:352,1,280,0|8
257,38,73178,2,0,B|256:208|432:208,1,280,0|8
160,96,74284,2,0,B|358:294,2,280,2|10|6
160,96,75529,2,2,B|216:40,3,70
112,144,76220,1,4
112,284,76497,6,0,B|196:268|204:192,1,140,0|8
256,324,77050,2,0,B|256:176,1,140,0|8
400,284,77603,2,0,B|316:268|308:192,1,140,0|8
256,64,78156,1,8
204,192,78432,1,8
80,124,78709,6,0,B|80:192|140:252,1,140,0|8
196,120,79262,2,0,B|256:176|320:120,1,140,0|8
375,248,79815,2,0,B|428:192|432:332|432:332|436:192|488:248,1,280,0|8
432,120,80644,1,8
312,192,80921,6,0,B|256:248|256:328,1,140,0|8
268,148,81474,2,0,B|196:184|176:264,1,140,0|8
252,88,82027,2,0,B|124:88|76:204,1,210
148,212,82580,2,0,B|84:176|12:204,1,140,8|8
56,336,83133,6,0,B|256:220|456:336,1,420
368,224,84239,1,8
368,224,84377,1,8
156,224,84792,1,8
156,224,84930,1,8
328,104,85345,6,0,B|400:104,2,70,0|0|8
188,104,85898,2,0,B|116:104,2,70,0|0|8
256,228,86451,5,8
256,268,86589,1,8
256,308,86727,1,8
256,352,86866,1,12
